  0
SECTION
  2
HEADER
  9
$ACADVER
  1
AC1015
  9
$ACADMAINTVER
 70
     6
  9
$DWGCODEPAGE
  3
ANSI_1252
  9
$INSBASE
 10
0.0
 20
0.0
 30
0.0
  9
$EXTMIN
 10
11.09218968785084
 20
8.717492574990156
 30
0.0
  9
$EXTMAX
 10
22.09218968785084
 20
17.21749257499015
 30
0.0
  9
$LIMMIN
 10
0.0
 20
0.0
  9
$LIMMAX
 10
12.0
 20
9.0
  9
$ORTHOMODE
 70
     0
  9
$REGENMODE
 70
     1
  9
$FILLMODE
 70
     1
  9
$QTEXTMODE
 70
     0
  9
$MIRRTEXT
 70
     1
  9
$LTSCALE
 40
1.0
  9
$ATTMODE
 70
     1
  9
$TEXTSIZE
 40
0.1
  9
$TRACEWID
 40
0.05
  9
$TEXTSTYLE
  7
Standard
  9
$CLAYER
  8
0
  9
$CELTYPE
  6
ByLayer
  9
$CECOLOR
 62
   256
  9
$CELTSCALE
 40
1.0
  9
$DISPSILH
 70
     0
  9
$DIMSCALE
 40
1.0
  9
$DIMASZ
 40
0.18
  9
$DIMEXO
 40
0.0625
  9
$DIMDLI
 40
0.38
  9
$DIMRND
 40
0.0
  9
$DIMDLE
 40
0.0
  9
$DIMEXE
 40
0.05
  9
$DIMTP
 40
0.0
  9
$DIMTM
 40
0.0
  9
$DIMTXT
 40
0.1
  9
$DIMCEN
 40
0.09
  9
$DIMTSZ
 40
0.0
  9
$DIMTOL
 70
     0
  9
$DIMLIM
 70
     0
  9
$DIMTIH
 70
     1
  9
$DIMTOH
 70
     1
  9
$DIMSE1
 70
     0
  9
$DIMSE2
 70
     0
  9
$DIMTAD
 70
     0
  9
$DIMZIN
 70
     0
  9
$DIMBLK
  1

  9
$DIMASO
 70
     1
  9
$DIMSHO
 70
     1
  9
$DIMPOST
  1

  9
$DIMAPOST
  1

  9
$DIMALT
 70
     0
  9
$DIMALTD
 70
     2
  9
$DIMALTF
 40
25.4
  9
$DIMLFAC
 40
1.0
  9
$DIMTOFL
 70
     0
  9
$DIMTVP
 40
0.0
  9
$DIMTIX
 70
     0
  9
$DIMSOXD
 70
     0
  9
$DIMSAH
 70
     0
  9
$DIMBLK1
  1

  9
$DIMBLK2
  1

  9
$DIMSTYLE
  2
Standard
  9
$DIMCLRD
 70
     0
  9
$DIMCLRE
 70
     0
  9
$DIMCLRT
 70
     0
  9
$DIMTFAC
 40
1.0
  9
$DIMGAP
 40
0.09
  9
$DIMJUST
 70
     0
  9
$DIMSD1
 70
     0
  9
$DIMSD2
 70
     0
  9
$DIMTOLJ
 70
     1
  9
$DIMTZIN
 70
     0
  9
$DIMALTZ
 70
     0
  9
$DIMALTTZ
 70
     0
  9
$DIMUPT
 70
     0
  9
$DIMDEC
 70
     4
  9
$DIMTDEC
 70
     4
  9
$DIMALTU
 70
     2
  9
$DIMALTTD
 70
     2
  9
$DIMTXSTY
  7
Standard
  9
$DIMAUNIT
 70
     0
  9
$DIMADEC
 70
     0
  9
$DIMALTRND
 40
0.0
  9
$DIMAZIN
 70
     0
  9
$DIMDSEP
 70
    46
  9
$DIMATFIT
 70
     3
  9
$DIMFRAC
 70
     0
  9
$DIMLDRBLK
  1

  9
$DIMLUNIT
 70
     2
  9
$DIMLWD
 70
    -2
  9
$DIMLWE
 70
    -2
  9
$DIMTMOVE
 70
     0
  9
$LUNITS
 70
     2
  9
$LUPREC
 70
     4
  9
$SKETCHINC
 40
0.1
  9
$FILLETRAD
 40
0.5
  9
$AUNITS
 70
     0
  9
$AUPREC
 70
     0
  9
$MENU
  1
.
  9
$ELEVATION
 40
0.0
  9
$PELEVATION
 40
0.0
  9
$THICKNESS
 40
0.0
  9
$LIMCHECK
 70
     0
  9
$CHAMFERA
 40
0.5
  9
$CHAMFERB
 40
0.5
  9
$CHAMFERC
 40
1.0
  9
$CHAMFERD
 40
0.0
  9
$SKPOLY
 70
     0
  9
$TDCREATE
 40
2454425.456237326
  9
$TDUCREATE
 40
2454425.706237326
  9
$TDUPDATE
 40
2454799.383622372
  9
$TDUUPDATE
 40
2454799.633622372
  9
$TDINDWG
 40
0.2259403356
  9
$TDUSRTIMER
 40
0.2259401620
  9
$USRTIMER
 70
     1
  9
$ANGBASE
 50
0.0
  9
$ANGDIR
 70
     0
  9
$PDMODE
 70
     0
  9
$PDSIZE
 40
0.0
  9
$PLINEWID
 40
0.0
  9
$SPLFRAME
 70
     0
  9
$SPLINETYPE
 70
     6
  9
$SPLINESEGS
 70
     8
  9
$HANDSEED
  5
B6F
  9
$SURFTAB1
 70
     6
  9
$SURFTAB2
 70
     6
  9
$SURFTYPE
 70
     6
  9
$SURFU
 70
     6
  9
$SURFV
 70
     6
  9
$UCSBASE
  2

  9
$UCSNAME
  2

  9
$UCSORG
 10
0.0
 20
0.0
 30
0.0
  9
$UCSXDIR
 10
1.0
 20
0.0
 30
0.0
  9
$UCSYDIR
 10
0.0
 20
1.0
 30
0.0
  9
$UCSORTHOREF
  2

  9
$UCSORTHOVIEW
 70
     0
  9
$UCSORGTOP
 10
0.0
 20
0.0
 30
0.0
  9
$UCSORGBOTTOM
 10
0.0
 20
0.0
 30
0.0
  9
$UCSORGLEFT
 10
0.0
 20
0.0
 30
0.0
  9
$UCSORGRIGHT
 10
0.0
 20
0.0
 30
0.0
  9
$UCSORGFRONT
 10
0.0
 20
0.0
 30
0.0
  9
$UCSORGBACK
 10
0.0
 20
0.0
 30
0.0
  9
$PUCSBASE
  2

  9
$PUCSNAME
  2

  9
$PUCSORG
 10
0.0
 20
0.0
 30
0.0
  9
$PUCSXDIR
 10
1.0
 20
0.0
 30
0.0
  9
$PUCSYDIR
 10
0.0
 20
1.0
 30
0.0
  9
$PUCSORTHOREF
  2

  9
$PUCSORTHOVIEW
 70
     0
  9
$PUCSORGTOP
 10
0.0
 20
0.0
 30
0.0
  9
$PUCSORGBOTTOM
 10
0.0
 20
0.0
 30
0.0
  9
$PUCSORGLEFT
 10
0.0
 20
0.0
 30
0.0
  9
$PUCSORGRIGHT
 10
0.0
 20
0.0
 30
0.0
  9
$PUCSORGFRONT
 10
0.0
 20
0.0
 30
0.0
  9
$PUCSORGBACK
 10
0.0
 20
0.0
 30
0.0
  9
$USERI1
 70
     0
  9
$USERI2
 70
     0
  9
$USERI3
 70
     0
  9
$USERI4
 70
     0
  9
$USERI5
 70
     0
  9
$USERR1
 40
0.0
  9
$USERR2
 40
0.0
  9
$USERR3
 40
0.0
  9
$USERR4
 40
0.0
  9
$USERR5
 40
0.0
  9
$WORLDVIEW
 70
     1
  9
$SHADEDGE
 70
     3
  9
$SHADEDIF
 70
    70
  9
$TILEMODE
 70
     1
  9
$MAXACTVP
 70
    64
  9
$PINSBASE
 10
0.0
 20
0.0
 30
0.0
  9
$PLIMCHECK
 70
     0
  9
$PEXTMIN
 10
1.000000000000000E+20
 20
1.000000000000000E+20
 30
1.000000000000000E+20
  9
$PEXTMAX
 10
-1.000000000000000E+20
 20
-1.000000000000000E+20
 30
-1.000000000000000E+20
  9
$PLIMMIN
 10
0.0
 20
0.0
  9
$PLIMMAX
 10
12.0
 20
9.0
  9
$UNITMODE
 70
     0
  9
$VISRETAIN
 70
     1
  9
$PLINEGEN
 70
     0
  9
$PSLTSCALE
 70
     1
  9
$TREEDEPTH
 70
  3020
  9
$CMLSTYLE
  2
Standard
  9
$CMLJUST
 70
     0
  9
$CMLSCALE
 40
1.0
  9
$PROXYGRAPHICS
 70
     1
  9
$MEASUREMENT
 70
     0
  9
$CELWEIGHT
370
    -1
  9
$ENDCAPS
280
     0
  9
$JOINSTYLE
280
     0
  9
$LWDISPLAY
290
     0
  9
$INSUNITS
 70
     1
  9
$HYPERLINKBASE
  1

  9
$STYLESHEET
  1

  9
$XEDIT
290
     1
  9
$CEPSNTYPE
380
     0
  9
$PSTYLEMODE
290
     1
  9
$FINGERPRINTGUID
  2
{EF2B71F3-2897-4653-BD50-13DB561D04A9}
  9
$VERSIONGUID
  2
{559B7BC2-A2CE-45B2-B044-17C6192FB37C}
  9
$EXTNAMES
290
     1
  9
$PSVPSCALE
 40
0.0
  9
$OLESTARTUP
290
     0
  0
ENDSEC
  0
SECTION
  2
CLASSES
  0
CLASS
  1
ACDBDICTIONARYWDFLT
  2
AcDbDictionaryWithDefault
  3
AutoCAD 2000
 90
        0
280
     0
281
     0
  0
CLASS
  1
ACDBPLACEHOLDER
  2
AcDbPlaceHolder
  3
AutoCAD 2000
 90
        0
280
     0
281
     0
  0
CLASS
  1
LAYOUT
  2
AcDbLayout
  3
AutoCAD 2000
 90
        0
280
     0
281
     0
  0
CLASS
  1
DICTIONARYVAR
  2
AcDbDictionaryVar
  3
AutoCAD 2000
 90
        0
280
     0
281
     0
  0
CLASS
  1
SORTENTSTABLE
  2
AcDbSortentsTable
  3
AutoCAD 2000
 90
        0
280
     0
281
     0
  0
ENDSEC
  0
SECTION
  2
TABLES
  0
TABLE
  2
VPORT
  5
8
330
0
100
AcDbSymbolTable
 70
     2
  0
VPORT
  5
B6E
330
8
100
AcDbSymbolTableRecord
100
AcDbViewportTableRecord
  2
*Active
 70
     0
 10
0.0
 20
0.0
 11
1.0
 21
1.0
 12
17.84366883539997
 22
12.35082147466871
 13
0.0
 23
0.0
 14
0.5
 24
0.5
 15
0.5
 25
0.5
 16
0.0
 26
0.0
 36
1.0
 17
0.0
 27
0.0
 37
0.0
 40
6.637219483401867
 41
1.573856209150326
 42
50.0
 43
0.0
 44
0.0
 50
0.0
 51
0.0
 71
     0
 72
   100
 73
     1
 74
     3
 75
     0
 76
     0
 77
     0
 78
     0
281
     0
 65
     1
110
0.0
120
0.0
130
0.0
111
1.0
121
0.0
131
0.0
112
0.0
122
1.0
132
0.0
 79
     0
146
0.0
  0
ENDTAB
  0
TABLE
  2
LTYPE
  5
5
330
0
100
AcDbSymbolTable
 70
     2
  0
LTYPE
  5
14
330
5
100
AcDbSymbolTableRecord
100
AcDbLinetypeTableRecord
  2
ByBlock
 70
     0
  3

 72
    65
 73
     0
 40
0.0
  0
LTYPE
  5
15
330
5
100
AcDbSymbolTableRecord
100
AcDbLinetypeTableRecord
  2
ByLayer
 70
     0
  3

 72
    65
 73
     0
 40
0.0
  0
LTYPE
  5
16
330
5
100
AcDbSymbolTableRecord
100
AcDbLinetypeTableRecord
  2
Continuous
 70
     0
  3
Solid line
 72
    65
 73
     0
 40
0.0
  0
LTYPE
  5
515
330
5
100
AcDbSymbolTableRecord
100
AcDbLinetypeTableRecord
  2
DASHED2
 70
     0
  3
Dashed (.5x) _ _ _ _ _ _ _ _ _ _ _ _ _ _ _ _ _
 72
    65
 73
     2
 40
0.375
 49
0.25
 74
     0
 49
-0.125
 74
     0
  0
ENDTAB
  0
TABLE
  2
LAYER
  5
2
330
0
100
AcDbSymbolTable
 70
     2
  0
LAYER
  5
10
330
2
100
AcDbSymbolTableRecord
100
AcDbLayerTableRecord
  2
0
 70
     0
 62
     7
  6
Continuous
370
    -3
390
F
  0
LAYER
  5
2D
330
2
100
AcDbSymbolTableRecord
100
AcDbLayerTableRecord
  2
Defpoints
 70
     0
 62
     7
  6
Continuous
290
     0
370
    -3
390
F
  0
ENDTAB
  0
TABLE
  2
STYLE
  5
3
330
0
100
AcDbSymbolTable
 70
     2
  0
STYLE
  5
11
330
3
100
AcDbSymbolTableRecord
100
AcDbTextStyleTableRecord
  2
Standard
 70
     0
 40
0.1
 41
1.0
 50
0.0
 71
     0
 42
0.1
  3
TIMES.TTF
  4

1001
ACAD
1000
Times New Roman
1071
       18
  0
STYLE
  5
514
330
3
100
AcDbSymbolTableRecord
100
AcDbTextStyleTableRecord
  2

 70
     1
 40
0.0
 41
1.0
 50
0.0
 71
     0
 42
0.2
  3
ltypeshp.shx
  4

  0
ENDTAB
  0
TABLE
  2
VIEW
  5
6
330
0
100
AcDbSymbolTable
 70
     0
  0
ENDTAB
  0
TABLE
  2
UCS
  5
7
330
0
100
AcDbSymbolTable
 70
     0
  0
ENDTAB
  0
TABLE
  2
APPID
  5
9
330
0
100
AcDbSymbolTable
 70
     1
  0
APPID
  5
12
330
9
100
AcDbSymbolTableRecord
100
AcDbRegAppTableRecord
  2
ACAD
 70
     0
  0
ENDTAB
  0
TABLE
  2
DIMSTYLE
  5
A
330
0
100
AcDbSymbolTable
 70
     2
100
AcDbDimStyleTable
 71
     1
340
27
  0
DIMSTYLE
105
27
102
{ACAD_REACTORS
330
1FD
330
20B
330
219
330
9AE
330
A0E
330
A80
330
A26
330
A7E
330
B31
102
}
330
A
100
AcDbSymbolTableRecord
100
AcDbDimStyleTableRecord
  2
Standard
 70
     0
 44
0.05
140
0.1
340
11
  0
DIMSTYLE
105
546
330
A
100
AcDbSymbolTableRecord
100
AcDbDimStyleTableRecord
  2
dim style 1
 70
     0
 41
0.09
 44
0.05
140
0.09
340
11
  0
ENDTAB
  0
TABLE
  2
BLOCK_RECORD
  5
1
330
0
100
AcDbSymbolTable
 70
    14
  0
BLOCK_RECORD
  5
1F
102
{ACAD_XDICTIONARY
360
11E
102
}
330
1
100
AcDbSymbolTableRecord
100
AcDbBlockTableRecord
  2
*Model_Space
340
22
  0
BLOCK_RECORD
  5
1B
330
1
100
AcDbSymbolTableRecord
100
AcDbBlockTableRecord
  2
*Paper_Space
340
1E
  0
BLOCK_RECORD
  5
23
330
1
100
AcDbSymbolTableRecord
100
AcDbBlockTableRecord
  2
*Paper_Space0
340
26
  0
BLOCK_RECORD
  5
1FE
330
1
100
AcDbSymbolTableRecord
100
AcDbBlockTableRecord
  2
*D1
340
0
  0
BLOCK_RECORD
  5
20C
330
1
100
AcDbSymbolTableRecord
100
AcDbBlockTableRecord
  2
*D2
340
0
  0
BLOCK_RECORD
  5
21A
330
1
100
AcDbSymbolTableRecord
100
AcDbBlockTableRecord
  2
*D3
340
0
  0
BLOCK_RECORD
  5
9AF
330
1
100
AcDbSymbolTableRecord
100
AcDbBlockTableRecord
  2
*D9
340
0
  0
BLOCK_RECORD
  5
A0F
330
1
100
AcDbSymbolTableRecord
100
AcDbBlockTableRecord
  2
*D10
340
0
  0
BLOCK_RECORD
  5
A81
330
1
100
AcDbSymbolTableRecord
100
AcDbBlockTableRecord
  2
*D12
340
0
  0
BLOCK_RECORD
  5
B32
330
1
100
AcDbSymbolTableRecord
100
AcDbBlockTableRecord
  2
*D13
340
0
  0
ENDTAB
  0
ENDSEC
  0
SECTION
  2
BLOCKS
  0
BLOCK
  5
20
330
1F
100
AcDbEntity
  8
0
100
AcDbBlockBegin
  2
*Model_Space
 70
     0
 10
0.0
 20
0.0
 30
0.0
  3
*Model_Space
  1

  0
ENDBLK
  5
21
330
1F
100
AcDbEntity
  8
0
100
AcDbBlockEnd
  0
BLOCK
  5
1C
330
1B
100
AcDbEntity
 67
     1
  8
0
100
AcDbBlockBegin
  2
*Paper_Space
 70
     0
 10
0.0
 20
0.0
 30
0.0
  3
*Paper_Space
  1

  0
ENDBLK
  5
1D
330
1B
100
AcDbEntity
 67
     1
  8
0
100
AcDbBlockEnd
  0
BLOCK
  5
24
330
23
100
AcDbEntity
  8
0
100
AcDbBlockBegin
  2
*Paper_Space0
 70
     0
 10
0.0
 20
0.0
 30
0.0
  3
*Paper_Space0
  1

  0
ENDBLK
  5
25
330
23
100
AcDbEntity
  8
0
100
AcDbBlockEnd
  0
BLOCK
  5
209
330
1FE
100
AcDbEntity
  8
0
100
AcDbBlockBegin
  2
*D1
 70
     1
 10
0.0
 20
0.0
 30
0.0
  3
*D1
  1

  0
LINE
  5
A8E
330
1FE
100
AcDbEntity
  8
0
 62
     0
370
    -2
100
AcDbLine
 10
13.2243878752927
 20
14.66263215927299
 30
0.0
 11
13.2243878752927
 21
15.49452629971002
 31
0.0
  0
LINE
  5
A8F
330
1FE
100
AcDbEntity
  8
0
 62
     0
370
    -2
100
AcDbLine
 10
15.9743878752927
 20
14.66263215927299
 30
0.0
 11
15.9743878752927
 21
15.49452629971002
 31
0.0
  0
LINE
  5
A90
330
1FE
100
AcDbEntity
  8
0
 62
     0
370
    -2
100
AcDbLine
 10
13.4043878752927
 20
15.44452629971002
 30
0.0
 11
14.35654000218527
 21
15.44452629971002
 31
0.0
  0
LINE
  5
A91
330
1FE
100
AcDbEntity
  8
0
 62
     0
370
    -2
100
AcDbLine
 10
15.7943878752927
 20
15.44452629971002
 30
0.0
 11
14.84223574840012
 21
15.44452629971002
 31
0.0
  0
SOLID
  5
A92
330
1FE
100
AcDbEntity
  8
0
 62
     0
100
AcDbTrace
 10
13.4043878752927
 20
15.47452629971002
 30
0.0
 11
13.4043878752927
 21
15.41452629971002
 31
0.0
 12
13.2243878752927
 22
15.44452629971002
 32
0.0
 13
13.2243878752927
 23
15.44452629971002
 33
0.0
  0
SOLID
  5
A93
330
1FE
100
AcDbEntity
  8
0
 62
     0
100
AcDbTrace
 10
15.7943878752927
 20
15.47452629971002
 30
0.0
 11
15.7943878752927
 21
15.41452629971002
 31
0.0
 12
15.9743878752927
 22
15.44452629971002
 32
0.0
 13
15.9743878752927
 23
15.44452629971002
 33
0.0
  0
MTEXT
  5
A94
330
1FE
100
AcDbEntity
  8
0
 62
     0
100
AcDbMText
 10
14.5993878752927
 20
15.44452629971002
 30
0.0
 40
0.1
 41
0.0
 71
     5
 72
     1
  1
\A1;{\fTimes New Roman|b0|i0|c0|p18;2.75"}
 73
     1
 44
1.0
  0
POINT
  5
A95
330
1FE
100
AcDbEntity
  8
Defpoints
 62
     0
100
AcDbPoint
 10
13.2243878752927
 20
14.60013215927299
 30
0.0
  0
POINT
  5
A96
330
1FE
100
AcDbEntity
  8
Defpoints
 62
     0
100
AcDbPoint
 10
15.9743878752927
 20
14.60013215927299
 30
0.0
  0
POINT
  5
A97
330
1FE
100
AcDbEntity
  8
Defpoints
 62
     0
100
AcDbPoint
 10
15.9743878752927
 20
15.44452629971002
 30
0.0
  0
ENDBLK
  5
20A
330
1FE
100
AcDbEntity
  8
0
100
AcDbBlockEnd
  0
BLOCK
  5
217
330
20C
100
AcDbEntity
  8
0
100
AcDbBlockBegin
  2
*D2
 70
     1
 10
0.0
 20
0.0
 30
0.0
  3
*D2
  1

  0
LINE
  5
B17
330
20C
100
AcDbEntity
  8
0
 62
     0
370
    -2
100
AcDbLine
 10
13.2243878752927
 20
14.66011957408577
 30
0.0
 11
13.2243878752927
 21
15.2682020561494
 31
0.0
  0
LINE
  5
B18
330
20C
100
AcDbEntity
  8
0
 62
     0
370
    -2
100
AcDbLine
 10
14.5993878752927
 20
14.06011957408577
 30
0.0
 11
14.5993878752927
 21
15.2682020561494
 31
0.0
  0
LINE
  5
B19
330
20C
100
AcDbEntity
  8
0
 62
     0
370
    -2
100
AcDbLine
 10
13.4043878752927
 20
15.2182020561494
 30
0.0
 11
13.63919140809731
 21
15.2182020561494
 31
0.0
  0
LINE
  5
B1A
330
20C
100
AcDbEntity
  8
0
 62
     0
370
    -2
100
AcDbLine
 10
14.4193878752927
 20
15.2182020561494
 30
0.0
 11
14.18458434248808
 21
15.2182020561494
 31
0.0
  0
SOLID
  5
B1B
330
20C
100
AcDbEntity
  8
0
 62
     0
100
AcDbTrace
 10
13.4043878752927
 20
15.2482020561494
 30
0.0
 11
13.4043878752927
 21
15.1882020561494
 31
0.0
 12
13.2243878752927
 22
15.2182020561494
 32
0.0
 13
13.2243878752927
 23
15.2182020561494
 33
0.0
  0
SOLID
  5
B1C
330
20C
100
AcDbEntity
  8
0
 62
     0
100
AcDbTrace
 10
14.4193878752927
 20
15.2482020561494
 30
0.0
 11
14.4193878752927
 21
15.1882020561494
 31
0.0
 12
14.5993878752927
 22
15.2182020561494
 32
0.0
 13
14.5993878752927
 23
15.2182020561494
 33
0.0
  0
MTEXT
  5
B1D
330
20C
100
AcDbEntity
  8
0
 62
     0
100
AcDbMText
 10
13.9118878752927
 20
15.2182020561494
 30
0.0
 40
0.1
 41
0.0
 71
     5
 72
     1
  1
\A1;{\fTimes New Roman|b0|i0|c0|p18;1.375"}
 73
     1
 44
1.0
  0
POINT
  5
B1E
330
20C
100
AcDbEntity
  8
Defpoints
 62
     0
100
AcDbPoint
 10
13.2243878752927
 20
14.59761957408577
 30
0.0
  0
POINT
  5
B1F
330
20C
100
AcDbEntity
  8
Defpoints
 62
     0
100
AcDbPoint
 10
14.5993878752927
 20
13.99761957408577
 30
0.0
  0
POINT
  5
B20
330
20C
100
AcDbEntity
  8
Defpoints
 62
     0
100
AcDbPoint
 10
14.5993878752927
 20
15.2182020561494
 30
0.0
  0
ENDBLK
  5
218
330
20C
100
AcDbEntity
  8
0
100
AcDbBlockEnd
  0
BLOCK
  5
225
330
21A
100
AcDbEntity
  8
0
100
AcDbBlockBegin
  2
*D3
 70
     1
 10
0.0
 20
0.0
 30
0.0
  3
*D3
  1

  0
LINE
  5
AE1
330
21A
100
AcDbEntity
  8
0
 62
     0
370
    -2
100
AcDbLine
 10
13.1618878752927
 20
10.10013215927299
 30
0.0
 11
12.05829096081564
 21
10.10013215927299
 31
0.0
  0
LINE
  5
AE2
330
21A
100
AcDbEntity
  8
0
 62
     0
370
    -2
100
AcDbLine
 10
13.1618878752927
 20
14.60013215927299
 30
0.0
 11
12.05829096081565
 21
14.60013215927299
 31
0.0
  0
LINE
  5
AE3
330
21A
100
AcDbEntity
  8
0
 62
     0
370
    -2
100
AcDbLine
 10
12.10829096081565
 20
10.28013215927299
 30
0.0
 11
12.10829096081565
 21
12.20912278652606
 31
0.0
  0
LINE
  5
AE4
330
21A
100
AcDbEntity
  8
0
 62
     0
370
    -2
100
AcDbLine
 10
12.10829096081565
 20
14.42013215927299
 30
0.0
 11
12.10829096081565
 21
12.49114153201993
 31
0.0
  0
SOLID
  5
AE5
330
21A
100
AcDbEntity
  8
0
 62
     0
100
AcDbTrace
 10
12.07829096081565
 20
10.28013215927299
 30
0.0
 11
12.13829096081564
 21
10.28013215927299
 31
0.0
 12
12.10829096081565
 22
10.10013215927299
 32
0.0
 13
12.10829096081565
 23
10.10013215927299
 33
0.0
  0
SOLID
  5
AE6
330
21A
100
AcDbEntity
  8
0
 62
     0
100
AcDbTrace
 10
12.07829096081565
 20
14.42013215927299
 30
0.0
 11
12.13829096081565
 21
14.42013215927299
 31
0.0
 12
12.10829096081565
 22
14.60013215927299
 32
0.0
 13
12.10829096081565
 23
14.60013215927299
 33
0.0
  0
MTEXT
  5
AE7
330
21A
100
AcDbEntity
  8
0
 62
     0
100
AcDbMText
 10
12.10829096081564
 20
12.35013215927299
 30
0.0
 40
0.1
 41
0.0
 71
     5
 72
     1
  1
\A1;{\fTimes New Roman|b0|i0|c0|p18;4.50"}
 73
     1
 44
1.0
  0
POINT
  5
AE8
330
21A
100
AcDbEntity
  8
Defpoints
 62
     0
100
AcDbPoint
 10
13.2243878752927
 20
10.10013215927299
 30
0.0
  0
POINT
  5
AE9
330
21A
100
AcDbEntity
  8
Defpoints
 62
     0
100
AcDbPoint
 10
13.2243878752927
 20
14.60013215927299
 30
0.0
  0
POINT
  5
AEA
330
21A
100
AcDbEntity
  8
Defpoints
 62
     0
100
AcDbPoint
 10
12.10829096081565
 20
14.60013215927299
 30
0.0
  0
ENDBLK
  5
226
330
21A
100
AcDbEntity
  8
0
100
AcDbBlockEnd
  0
BLOCK
  5
9BA
330
9AF
100
AcDbEntity
  8
0
100
AcDbBlockBegin
  2
*D9
 70
     1
 10
0.0
 20
0.0
 30
0.0
  3
*D9
  1

  0
LINE
  5
AF6
330
9AF
100
AcDbEntity
  8
0
 62
     0
370
    -2
100
AcDbLine
 10
14.5368878752927
 20
10.70013215927299
 30
0.0
 11
12.76541237117371
 21
10.70013215927299
 31
0.0
  0
LINE
  5
AF7
330
9AF
100
AcDbEntity
  8
0
 62
     0
370
    -2
100
AcDbLine
 10
14.5368878752927
 20
14.00013215927299
 30
0.0
 11
12.76541237117371
 21
14.00013215927299
 31
0.0
  0
LINE
  5
AF8
330
9AF
100
AcDbEntity
  8
0
 62
     0
370
    -2
100
AcDbLine
 10
12.81541237117371
 20
10.88013215927299
 30
0.0
 11
12.81541237117371
 21
12.20912278652606
 31
0.0
  0
LINE
  5
AF9
330
9AF
100
AcDbEntity
  8
0
 62
     0
370
    -2
100
AcDbLine
 10
12.81541237117371
 20
13.82013215927299
 30
0.0
 11
12.81541237117371
 21
12.49114153201993
 31
0.0
  0
SOLID
  5
AFA
330
9AF
100
AcDbEntity
  8
0
 62
     0
100
AcDbTrace
 10
12.78541237117371
 20
10.88013215927299
 30
0.0
 11
12.84541237117371
 21
10.88013215927299
 31
0.0
 12
12.81541237117371
 22
10.70013215927299
 32
0.0
 13
12.81541237117371
 23
10.70013215927299
 33
0.0
  0
SOLID
  5
AFB
330
9AF
100
AcDbEntity
  8
0
 62
     0
100
AcDbTrace
 10
12.78541237117372
 20
13.82013215927299
 30
0.0
 11
12.84541237117371
 21
13.82013215927299
 31
0.0
 12
12.81541237117371
 22
14.00013215927299
 32
0.0
 13
12.81541237117371
 23
14.00013215927299
 33
0.0
  0
MTEXT
  5
AFC
330
9AF
100
AcDbEntity
  8
0
 62
     0
100
AcDbMText
 10
12.81541237117371
 20
12.35013215927299
 30
0.0
 40
0.1
 41
0.0
 71
     5
 72
     1
  1
\A1;3.3000"
 73
     1
 44
1.0
  0
POINT
  5
AFD
330
9AF
100
AcDbEntity
  8
Defpoints
 62
     0
100
AcDbPoint
 10
14.5993878752927
 20
10.70013215927299
 30
0.0
  0
POINT
  5
AFE
330
9AF
100
AcDbEntity
  8
Defpoints
 62
     0
100
AcDbPoint
 10
14.5993878752927
 20
14.00013215927299
 30
0.0
  0
POINT
  5
AFF
330
9AF
100
AcDbEntity
  8
Defpoints
 62
     0
100
AcDbPoint
 10
12.81541237117371
 20
14.00013215927299
 30
0.0
  0
ENDBLK
  5
9BB
330
9AF
100
AcDbEntity
  8
0
100
AcDbBlockEnd
  0
BLOCK
  5
A1A
330
A0F
100
AcDbEntity
  8
0
100
AcDbBlockBegin
  2
*D10
 70
     1
 10
0.0
 20
0.0
 30
0.0
  3
*D10
  1

  0
LINE
  5
B0A
330
A0F
100
AcDbEntity
  8
0
 62
     0
370
    -2
100
AcDbLine
 10
17.76371579994222
 20
10.03763215927299
 30
0.0
 11
17.76371579994222
 21
9.729475449420855
 31
0.0
  0
LINE
  5
B0B
330
A0F
100
AcDbEntity
  8
0
 62
     0
370
    -2
100
AcDbLine
 10
17.58771579994222
 20
10.13763215927299
 30
0.0
 11
17.58771579994222
 21
9.729475449420855
 31
0.0
  0
LINE
  5
B0C
330
A0F
100
AcDbEntity
  8
0
 62
     0
370
    -2
100
AcDbLine
 10
17.94371579994222
 20
9.779475449420855
 30
0.0
 11
18.12371579994222
 21
9.779475449420855
 31
0.0
  0
LINE
  5
B0D
330
A0F
100
AcDbEntity
  8
0
 62
     0
370
    -2
100
AcDbLine
 10
17.40771579994222
 20
9.779475449420855
 30
0.0
 11
17.22771579994222
 21
9.779475449420855
 31
0.0
  0
SOLID
  5
B0E
330
A0F
100
AcDbEntity
  8
0
 62
     0
100
AcDbTrace
 10
17.94371579994222
 20
9.809475449420855
 30
0.0
 11
17.94371579994222
 21
9.749475449420856
 31
0.0
 12
17.76371579994222
 22
9.779475449420855
 32
0.0
 13
17.76371579994222
 23
9.779475449420855
 33
0.0
  0
SOLID
  5
B0F
330
A0F
100
AcDbEntity
  8
0
 62
     0
100
AcDbTrace
 10
17.40771579994222
 20
9.809475449420855
 30
0.0
 11
17.40771579994222
 21
9.749475449420856
 31
0.0
 12
17.58771579994222
 22
9.779475449420855
 32
0.0
 13
17.58771579994222
 23
9.779475449420855
 33
0.0
  0
MTEXT
  5
B10
330
A0F
100
AcDbEntity
  8
0
 62
     0
100
AcDbMText
 10
16.91212099100207
 20
9.779475449420855
 30
0.0
 40
0.1
 41
0.0
 71
     5
 72
     1
  1
\A1;0.1760"
 73
     1
 44
1.0
  0
POINT
  5
B11
330
A0F
100
AcDbEntity
  8
Defpoints
 62
     0
100
AcDbPoint
 10
17.76371579994222
 20
10.10013215927299
 30
0.0
  0
POINT
  5
B12
330
A0F
100
AcDbEntity
  8
Defpoints
 62
     0
100
AcDbPoint
 10
17.58771579994222
 20
10.20013215927299
 30
0.0
  0
POINT
  5
B13
330
A0F
100
AcDbEntity
  8
Defpoints
 62
     0
100
AcDbPoint
 10
17.58771579994222
 20
9.779475449420855
 30
0.0
  0
ENDBLK
  5
A1B
330
A0F
100
AcDbEntity
  8
0
100
AcDbBlockEnd
  0
BLOCK
  5
A8C
330
A81
100
AcDbEntity
  8
0
100
AcDbBlockBegin
  2
*D12
 70
     1
 10
0.0
 20
0.0
 30
0.0
  3
*D12
  1

  0
LINE
  5
B00
330
A81
100
AcDbEntity
  8
0
 62
     0
370
    -2
100
AcDbLine
 10
19.10293603094262
 20
13.17861423650838
 30
0.0
 11
19.10293603094262
 21
13.00458485227505
 31
0.0
  0
LINE
  5
B01
330
A81
100
AcDbEntity
  8
0
 62
     0
370
    -2
100
AcDbLine
 10
19.35293603094262
 20
13.19111423650838
 30
0.0
 11
19.35293603094262
 21
13.00458485227505
 31
0.0
  0
LINE
  5
B02
330
A81
100
AcDbEntity
  8
0
 62
     0
370
    -2
100
AcDbLine
 10
18.92293603094262
 20
13.05458485227505
 30
0.0
 11
18.74293603094262
 21
13.05458485227505
 31
0.0
  0
LINE
  5
B03
330
A81
100
AcDbEntity
  8
0
 62
     0
370
    -2
100
AcDbLine
 10
19.53293603094262
 20
13.05458485227505
 30
0.0
 11
19.71293603094262
 21
13.05458485227505
 31
0.0
  0
SOLID
  5
B04
330
A81
100
AcDbEntity
  8
0
 62
     0
100
AcDbTrace
 10
18.92293603094262
 20
13.08458485227505
 30
0.0
 11
18.92293603094262
 21
13.02458485227505
 31
0.0
 12
19.10293603094262
 22
13.05458485227505
 32
0.0
 13
19.10293603094262
 23
13.05458485227505
 33
0.0
  0
SOLID
  5
B05
330
A81
100
AcDbEntity
  8
0
 62
     0
100
AcDbTrace
 10
19.53293603094262
 20
13.08458485227505
 30
0.0
 11
19.53293603094262
 21
13.02458485227505
 31
0.0
 12
19.35293603094262
 22
13.05458485227505
 32
0.0
 13
19.35293603094262
 23
13.05458485227505
 33
0.0
  0
MTEXT
  5
B06
330
A81
100
AcDbEntity
  8
0
 62
     0
100
AcDbMText
 10
20.65578390405005
 20
13.05458485227505
 30
0.0
 40
0.1
 41
0.0
 71
     5
 72
     1
  1
\A1;WIRES STRIPPED 0.2500 "
 73
     1
 44
1.0
  0
POINT
  5
B07
330
A81
100
AcDbEntity
  8
Defpoints
 62
     0
100
AcDbPoint
 10
19.10293603094262
 20
13.24111423650838
 30
0.0
  0
POINT
  5
B08
330
A81
100
AcDbEntity
  8
Defpoints
 62
     0
100
AcDbPoint
 10
19.35293603094262
 20
13.25361423650838
 30
0.0
  0
POINT
  5
B09
330
A81
100
AcDbEntity
  8
Defpoints
 62
     0
100
AcDbPoint
 10
19.35293603094262
 20
13.05458485227505
 30
0.0
  0
ENDBLK
  5
A8D
330
A81
100
AcDbEntity
  8
0
100
AcDbBlockEnd
  0
BLOCK
  5
B3E
330
B32
100
AcDbEntity
  8
0
100
AcDbBlockBegin
  2
*D13
 70
     1
 10
0.0
 20
0.0
 30
0.0
  3
*D13
  1

  0
LINE
  5
B40
330
B32
100
AcDbEntity
  8
0
 62
     0
370
    -2
100
AcDbLine
 10
14.5368878752927
 20
10.70013215927299
 30
0.0
 11
12.76541237117371
 21
10.70013215927299
 31
0.0
  0
LINE
  5
B41
330
B32
100
AcDbEntity
  8
0
 62
     0
370
    -2
100
AcDbLine
 10
13.1618878752927
 20
10.10013215927299
 30
0.0
 11
12.76541237117371
 21
10.10013215927299
 31
0.0
  0
LINE
  5
B42
330
B32
100
AcDbEntity
  8
0
 62
     0
370
    -2
100
AcDbLine
 10
12.81541237117371
 20
10.52013215927299
 30
0.0
 11
12.81541237117371
 21
10.28013215927299
 31
0.0
  0
LINE
  5
B43
330
B32
100
AcDbEntity
  8
0
 62
     0
370
    -2
100
AcDbLine
 10
12.81541237117371
 20
10.10013215927299
 30
0.0
 11
12.81541237117371
 21
9.920132159272995
 31
0.0
  0
LINE
  5
B44
330
B32
100
AcDbEntity
  8
0
 62
     0
370
    -2
100
AcDbLine
 10
12.81541237117371
 20
9.920132159272995
 30
0.0
 11
12.63541237117371
 21
9.920132159272995
 31
0.0
  0
SOLID
  5
B45
330
B32
100
AcDbEntity
  8
0
 62
     0
100
AcDbTrace
 10
12.78541237117371
 20
10.52013215927299
 30
0.0
 11
12.84541237117371
 21
10.52013215927299
 31
0.0
 12
12.81541237117371
 22
10.70013215927299
 32
0.0
 13
12.81541237117371
 23
10.70013215927299
 33
0.0
  0
SOLID
  5
B46
330
B32
100
AcDbEntity
  8
0
 62
     0
100
AcDbTrace
 10
12.78541237117371
 20
10.28013215927299
 30
0.0
 11
12.84541237117371
 21
10.28013215927299
 31
0.0
 12
12.81541237117371
 22
10.10013215927299
 32
0.0
 13
12.81541237117371
 23
10.10013215927299
 33
0.0
  0
MTEXT
  5
B47
330
B32
100
AcDbEntity
  8
0
 62
     0
100
AcDbMText
 10
12.31981756223355
 20
9.920132159272998
 30
0.0
 40
0.1
 41
0.0
 71
     5
 72
     1
  1
\A1;0.6000"
 73
     1
 44
1.0
  0
POINT
  5
B48
330
B32
100
AcDbEntity
  8
Defpoints
 62
     0
100
AcDbPoint
 10
14.5993878752927
 20
10.70013215927299
 30
0.0
  0
POINT
  5
B49
330
B32
100
AcDbEntity
  8
Defpoints
 62
     0
100
AcDbPoint
 10
13.2243878752927
 20
10.10013215927299
 30
0.0
  0
POINT
  5
B4A
330
B32
100
AcDbEntity
  8
Defpoints
 62
     0
100
AcDbPoint
 10
12.81541237117371
 20
10.10013215927299
 30
0.0
  0
ENDBLK
  5
B3F
330
B32
100
AcDbEntity
  8
0
100
AcDbBlockEnd
  0
ENDSEC
  0
SECTION
  2
ENTITIES
  0
LWPOLYLINE
  5
1E1
330
1F
100
AcDbEntity
  8
0
100
AcDbPolyline
 90
        4
 70
     1
 43
0.0
 10
13.2243878752927
 20
10.10013215927299
 10
15.9743878752927
 20
10.10013215927299
 10
15.9743878752927
 20
14.60013215927299
 10
13.2243878752927
 20
14.60013215927299
  0
LWPOLYLINE
  5
1ED
330
1F
100
AcDbEntity
  8
0
100
AcDbPolyline
 90
        4
 70
     1
 43
0.0
 10
13.3243878752927
 20
10.20013215927299
 10
15.8743878752927
 20
10.20013215927299
 10
15.8743878752927
 20
14.50013215927299
 10
13.3243878752927
 20
14.50013215927299
  0
LINE
  5
1EF
330
1F
100
AcDbEntity
  8
0
100
AcDbLine
 10
13.2243878752927
 20
14.60013215927299
 30
0.0
 11
13.3243878752927
 21
14.50013215927299
 31
0.0
  0
LINE
  5
1F0
330
1F
100
AcDbEntity
  8
0
100
AcDbLine
 10
15.9743878752927
 20
14.60013215927299
 30
0.0
 11
15.8743878752927
 21
14.50013215927299
 31
0.0
  0
LINE
  5
1F1
330
1F
100
AcDbEntity
  8
0
100
AcDbLine
 10
13.2243878752927
 20
10.10013215927299
 30
0.0
 11
13.3243878752927
 21
10.20013215927299
 31
0.0
  0
LINE
  5
1F2
330
1F
100
AcDbEntity
  8
0
100
AcDbLine
 10
15.9743878752927
 20
10.10013215927299
 30
0.0
 11
15.8743878752927
 21
10.20013215927299
 31
0.0
  0
LINE
  5
1F3
330
1F
100
AcDbEntity
  8
0
100
AcDbLine
 10
13.2243878752927
 20
10.10013215927299
 30
0.0
 11
13.2243878752927
 21
10.70013215927299
 31
0.0
  0
LINE
  5
1F5
330
1F
100
AcDbEntity
  8
0
100
AcDbLine
 10
13.2243878752927
 20
14.60013215927299
 30
0.0
 11
13.2243878752927
 21
14.00013215927299
 31
0.0
  0
LINE
  5
1F9
330
1F
100
AcDbEntity
  8
0
100
AcDbLine
 10
13.2243878752927
 20
10.10013215927299
 30
0.0
 11
13.2243878752927
 21
11.10013215927299
 31
0.0
  0
LINE
  5
1FB
330
1F
100
AcDbEntity
  8
0
100
AcDbLine
 10
13.2243878752927
 20
10.10013215927299
 30
0.0
 11
13.4243878752927
 21
10.10013215927299
 31
0.0
  0
DIMENSION
  5
1FD
330
1F
100
AcDbEntity
  8
0
100
AcDbDimension
  2
*D1
 10
15.9743878752927
 20
15.44452629971002
 30
0.0
 11
14.5993878752927
 21
15.44452629971002
 31
0.0
 70
   160
  1
{\fTimes New Roman|b0|i0|c0|p18;<>"}
 71
     5
 42
2.75
  3
Standard
100
AcDbAlignedDimension
 13
13.2243878752927
 23
14.60013215927299
 33
0.0
 14
15.9743878752927
 24
14.60013215927299
 34
0.0
100
AcDbRotatedDimension
1001
ACAD
1000
DSTYLE
1002
{
1070
   271
1070
     2
1002
}
  0
DIMENSION
  5
20B
330
1F
100
AcDbEntity
  8
0
100
AcDbDimension
  2
*D2
 10
14.5993878752927
 20
15.2182020561494
 30
0.0
 11
13.9118878752927
 21
15.2182020561494
 31
0.0
 70
   160
  1
{\fTimes New Roman|b0|i0|c0|p18;<>"}
 71
     5
 42
1.375
  3
Standard
100
AcDbAlignedDimension
 13
13.2243878752927
 23
14.59761957408577
 33
0.0
 14
14.5993878752927
 24
13.99761957408577
 34
0.0
100
AcDbRotatedDimension
1001
ACAD
1000
DSTYLE
1002
{
1070
   271
1070
     3
1002
}
  0
DIMENSION
  5
219
330
1F
100
AcDbEntity
  8
0
100
AcDbDimension
  2
*D3
 10
12.10829096081565
 20
14.60013215927299
 30
0.0
 11
12.10829096081564
 21
12.35013215927299
 31
0.0
 70
   160
  1
{\fTimes New Roman|b0|i0|c0|p18;<>"}
 71
     5
 42
4.5
  3
Standard
100
AcDbAlignedDimension
 13
13.2243878752927
 23
10.10013215927299
 33
0.0
 14
13.2243878752927
 24
14.60013215927299
 34
0.0
 50
90.0
100
AcDbRotatedDimension
1001
ACAD
1000
DSTYLE
1002
{
1070
   271
1070
     2
1002
}
  0
LINE
  5
4F5
330
1F
100
AcDbEntity
  8
0
100
AcDbLine
 10
17.76371579994222
 20
14.60013215927299
 30
0.0
 11
17.76371579994222
 21
10.10013215927299
 31
0.0
  0
LINE
  5
4FA
330
1F
100
AcDbEntity
  8
0
100
AcDbLine
 10
17.58771579994222
 20
12.28738492202399
 30
0.0
 11
17.58771579994222
 21
14.50013215927299
 31
0.0
  0
LINE
  5
4FC
102
{ACAD_REACTORS
330
543
102
}
330
1F
100
AcDbEntity
  8
0
100
AcDbLine
 10
17.58771579994222
 20
12.28738492202399
 30
0.0
 11
17.58771579994222
 21
10.20013215927299
 31
0.0
  0
LINE
  5
4FD
330
1F
100
AcDbEntity
  8
0
100
AcDbLine
 10
17.58771579994222
 20
14.50013215927299
 30
0.0
 11
17.76371579994222
 21
14.60013215927299
 31
0.0
  0
LINE
  5
4FE
330
1F
100
AcDbEntity
  8
0
100
AcDbLine
 10
17.58771579994222
 20
10.20013215927299
 30
0.0
 11
17.76371579994222
 21
10.10013215927299
 31
0.0
  0
LINE
  5
503
102
{ACAD_REACTORS
330
543
102
}
330
1F
100
AcDbEntity
  8
0
 48
0.2
100
AcDbLine
 10
17.62771579994222
 20
14.48285943200026
 30
0.0
 11
17.62771579994222
 21
10.21740488654572
 31
0.0
  0
LINE
  5
506
330
1F
100
AcDbEntity
  8
0
100
AcDbLine
 10
17.76371579994222
 20
14.60013215927299
 30
0.0
 11
17.76371579994222
 21
14.56013215927299
 31
0.0
  0
LINE
  5
508
330
1F
100
AcDbEntity
  8
0
100
AcDbLine
 10
17.58771579994222
 20
14.50013215927299
 30
0.0
 11
17.58771579994222
 21
14.46013215927299
 31
0.0
  0
LINE
  5
50D
330
1F
100
AcDbEntity
  8
0
 48
0.2
100
AcDbLine
 10
17.62771579994222
 20
14.48285943200026
 30
0.0
 11
17.76371579994222
 21
14.56013215927299
 31
0.0
  0
LINE
  5
50E
330
1F
100
AcDbEntity
  8
0
100
AcDbLine
 10
17.76371579994222
 20
10.10013215927299
 30
0.0
 11
17.76371579994222
 21
10.14013215927299
 31
0.0
  0
LINE
  5
512
330
1F
100
AcDbEntity
  8
0
 48
0.2
100
AcDbLine
 10
17.62771579994222
 20
10.21740488654572
 30
0.0
 11
17.76371579994222
 21
10.14013215927299
 31
0.0
  0
LINE
  5
517
330
1F
100
AcDbEntity
  8
0
100
AcDbLine
 10
17.58771579994222
 20
14.09013215927299
 30
0.0
 11
17.62771579994222
 21
14.09013215927299
 31
0.0
  0
LINE
  5
519
330
1F
100
AcDbEntity
  8
0
100
AcDbLine
 10
17.58771579994222
 20
13.91013215927299
 30
0.0
 11
17.62771579994222
 21
13.91013215927299
 31
0.0
  0
LINE
  5
524
102
{ACAD_REACTORS
330
543
102
}
330
1F
100
AcDbEntity
  8
0
100
AcDbLine
 10
17.58771579994222
 20
10.79013215927299
 30
0.0
 11
17.62771579994223
 21
10.79013215927299
 31
0.0
  0
LINE
  5
528
102
{ACAD_REACTORS
330
543
102
}
330
1F
100
AcDbEntity
  8
0
100
AcDbLine
 10
17.58771579994222
 20
10.61013215927299
 30
0.0
 11
17.62771579994222
 21
10.61013215927299
 31
0.0
  0
HATCH
  5
52E
330
1F
100
AcDbEntity
  8
0
100
AcDbHatch
 10
0.0
 20
0.0
 30
0.0
210
0.0
220
0.0
230
1.0
  2
SOLID
 70
     1
 71
     0
 91
        1
 92
        7
 72
     0
 73
     1
 93
        4
 10
17.62771579994222
 20
14.09013215927299
 10
17.58771579994222
 20
14.09013215927299
 10
17.58771579994222
 20
13.91013215927299
 10
17.62771579994222
 20
13.91013215927299
 97
        0
 75
     0
 76
     1
 47
0.0022858101606726
 98
        1
 10
17.61444555644188
 20
13.96644800430797
  0
HATCH
  5
543
330
1F
100
AcDbEntity
  8
0
100
AcDbHatch
 10
0.0
 20
0.0
 30
0.0
210
0.0
220
0.0
230
1.0
  2
SOLID
 70
     1
 71
     1
 91
        1
 92
        7
 72
     0
 73
     1
 93
        4
 10
17.58771579994222
 20
10.61013215927299
 10
17.62771579994222
 20
10.61013215927299
 10
17.62771579994222
 20
10.79013215927299
 10
17.58771579994222
 20
10.79013215927299
 97
        4
330
524
330
4FC
330
528
330
503
 75
     0
 76
     1
 47
0.005069768891246
 98
        1
 10
17.6057609513994
 20
10.71960246261737
  0
LINE
  5
6A3
330
1F
100
AcDbEntity
  8
0
100
AcDbLine
 10
11.09218968785084
 20
8.717492574990156
 30
0.0
 11
22.09218968785084
 21
8.717492574990156
 31
0.0
  0
LINE
  5
6A4
330
1F
100
AcDbEntity
  8
0
100
AcDbLine
 10
22.09218968785084
 20
8.717492574990156
 30
0.0
 11
22.09218968785084
 21
17.21749257499015
 31
0.0
  0
LINE
  5
6A5
330
1F
100
AcDbEntity
  8
0
100
AcDbLine
 10
22.09218968785084
 20
17.21749257499015
 30
0.0
 11
11.09218968785084
 21
17.21749257499015
 31
0.0
  0
LINE
  5
6A6
330
1F
100
AcDbEntity
  8
0
100
AcDbLine
 10
11.09218968785084
 20
17.21749257499015
 30
0.0
 11
11.09218968785084
 21
17.21749257499015
 31
0.0
  0
LINE
  5
6A7
330
1F
100
AcDbEntity
  8
0
100
AcDbLine
 10
11.09218968785084
 20
17.21749257499015
 30
0.0
 11
11.09218968785084
 21
8.717492574990156
 31
0.0
  0
LINE
  5
6A8
330
1F
100
AcDbEntity
  8
0
100
AcDbLine
 10
21.69218968785084
 20
9.117492574990157
 30
0.0
 11
21.69218968785084
 21
16.81749257499015
 31
0.0
  0
LINE
  5
6A9
330
1F
100
AcDbEntity
  8
0
100
AcDbLine
 10
21.69218968785084
 20
16.81749257499015
 30
0.0
 11
11.49218968785084
 21
16.81749257499015
 31
0.0
  0
LINE
  5
6AA
330
1F
100
AcDbEntity
  8
0
100
AcDbLine
 10
11.49218968785084
 20
16.81749257499015
 30
0.0
 11
11.49218968785084
 21
9.117492574990157
 31
0.0
  0
LINE
  5
6AB
330
1F
100
AcDbEntity
  8
0
100
AcDbLine
 10
11.49218968785084
 20
9.117492574990157
 30
0.0
 11
21.69218968785084
 21
9.117492574990157
 31
0.0
  0
LINE
  5
6AC
330
1F
100
AcDbEntity
  8
0
100
AcDbLine
 10
21.69218968785084
 20
9.117492574990157
 30
0.0
 11
18.69218968785084
 21
9.117492574990157
 31
0.0
  0
LINE
  5
6AD
330
1F
100
AcDbEntity
  8
0
100
AcDbLine
 10
19.44218968785084
 20
9.567492574990156
 30
0.0
 11
19.44218968785084
 21
10.50499257499015
 31
0.0
  0
LINE
  5
6AE
330
1F
100
AcDbEntity
  8
0
100
AcDbLine
 10
19.44218968785084
 20
10.50499257499015
 30
0.0
 11
21.69218968785084
 21
10.50499257499015
 31
0.0
  0
LINE
  5
6AF
330
1F
100
AcDbEntity
  8
0
100
AcDbLine
 10
19.44218968785084
 20
10.50499257499015
 30
0.0
 11
19.44218968785084
 21
10.35499257499015
 31
0.0
  0
LINE
  5
6B0
330
1F
100
AcDbEntity
  8
0
100
AcDbLine
 10
19.44218968785084
 20
10.35499257499015
 30
0.0
 11
21.69218968785084
 21
10.35499257499015
 31
0.0
  0
LINE
  5
6B1
330
1F
100
AcDbEntity
  8
0
100
AcDbLine
 10
19.44218968785084
 20
10.35499257499015
 30
0.0
 11
19.44218968785084
 21
10.05499257499015
 31
0.0
  0
LINE
  5
6B2
330
1F
100
AcDbEntity
  8
0
100
AcDbLine
 10
19.44218968785084
 20
10.05499257499015
 30
0.0
 11
21.69218968785084
 21
10.05499257499015
 31
0.0
  0
LINE
  5
6B3
330
1F
100
AcDbEntity
  8
0
100
AcDbLine
 10
19.44218968785084
 20
10.05499257499015
 30
0.0
 11
19.44218968785084
 21
9.829992574990155
 31
0.0
  0
LINE
  5
6B4
330
1F
100
AcDbEntity
  8
0
100
AcDbLine
 10
18.69218968785084
 20
9.117492574990157
 30
0.0
 11
19.09218968785084
 21
9.117492574990157
 31
0.0
  0
LINE
  5
6B5
330
1F
100
AcDbEntity
  8
0
100
AcDbLine
 10
19.74218968785084
 20
9.567492574990156
 30
0.0
 11
19.74218968785084
 21
10.05499257499015
 31
0.0
  0
LINE
  5
6B6
330
1F
100
AcDbEntity
  8
0
100
AcDbLine
 10
21.69218968785084
 20
9.829992574990155
 30
0.0
 11
21.39218968785084
 21
9.829992574990155
 31
0.0
  0
LINE
  5
6B7
330
1F
100
AcDbEntity
  8
0
100
AcDbLine
 10
21.39218968785084
 20
9.829992574990155
 30
0.0
 11
21.39218968785084
 21
10.05499257499015
 31
0.0
  0
LINE
  5
6B8
330
1F
100
AcDbEntity
  8
0
100
AcDbLine
 10
21.69218968785084
 20
9.117492574990157
 30
0.0
 11
20.09218968785084
 21
9.117492574990157
 31
0.0
  0
LINE
  5
6B9
330
1F
100
AcDbEntity
  8
0
100
AcDbLine
 10
20.35275607702519
 20
9.567492574990156
 30
0.0
 11
20.35275607702519
 21
9.829992574990155
 31
0.0
  0
TEXT
  5
6BA
330
1F
100
AcDbEntity
  8
0
100
AcDbText
 10
19.90973608043187
 20
10.40429931699828
 30
0.0
 40
0.075
  1
Automation Components, Inc.
100
AcDbText
  0
LINE
  5
6BB
330
1F
100
AcDbEntity
  8
0
100
AcDbLine
 10
19.44218968785084
 20
10.50499257499015
 30
0.0
 11
19.91093968785084
 21
10.50499257499015
 31
0.0
  0
TEXT
  5
6BC
330
1F
100
AcDbEntity
  8
0
100
AcDbText
 10
19.46756175586038
 20
10.28578160440169
 30
0.0
 40
0.045
  1
Title
100
AcDbText
  0
TEXT
  5
6BD
330
1F
100
AcDbEntity
  8
0
100
AcDbText
 10
19.54125747135061
 20
9.995985436350029
 30
0.0
 40
0.045
  1
Size
100
AcDbText
  0
TEXT
  5
6BE
330
1F
100
AcDbEntity
  8
0
100
AcDbText
 10
19.52843480281321
 20
9.773988684501153
 30
0.0
 40
0.045
  1
Page
100
AcDbText
  0
TEXT
  5
6BF
330
1F
100
AcDbEntity
  8
0
100
AcDbText
 10
19.76180464696628
 20
9.997189999220271
 30
0.0
 40
0.045
  1
File Name
100
AcDbText
  0
TEXT
  5
6C0
330
1F
100
AcDbEntity
  8
0
100
AcDbText
 10
19.75934809488037
 20
9.77398869934411
 30
0.0
 40
0.045
  1
Date
100
AcDbText
  0
TEXT
  5
6C1
330
1F
100
AcDbEntity
  8
0
100
AcDbText
 10
21.46982498221011
 20
9.99228446244488
 30
0.0
 40
0.045
  1
Rev.
100
AcDbText
  0
TEXT
  5
6C2
330
1F
100
AcDbEntity
  8
0
100
AcDbText
 10
19.55005126136248
 20
9.883136585131151
 30
0.0
 40
0.075
  1
A
100
AcDbText
  0
LINE
  5
6C3
330
1F
100
AcDbEntity
  8
0
100
AcDbLine
 10
21.69218968785084
 20
16.81749257499015
 30
0.0
 11
15.19218968785084
 21
16.81749257499015
 31
0.0
  0
TEXT
  5
6C4
330
1F
100
AcDbEntity
  8
0
100
AcDbText
 10
19.47340868464378
 20
9.642651768022989
 30
0.0
 40
0.0675
  1
1 of 1
100
AcDbText
  0
TEXT
  5
6C5
330
1F
100
AcDbEntity
  8
0
100
AcDbText
 10
21.50741078817592
 20
9.883022422914825
 30
0.0
 40
0.075
  1
1
100
AcDbText
  0
TEXT
  5
6C6
330
1F
100
AcDbEntity
  8
0
100
AcDbText
 10
19.6064794307307
 20
10.15061067351547
 30
0.0
 40
0.075
  1
1 Gang Stainless Plate
100
AcDbText
  0
LINE
  5
6C7
330
1F
100
AcDbEntity
  8
0
100
AcDbLine
 10
21.69218968785084
 20
16.81749257499015
 30
0.0
 11
18.69218968785084
 21
16.81749257499015
 31
0.0
  0
LINE
  5
6C8
330
1F
100
AcDbEntity
  8
0
100
AcDbLine
 10
21.69218968785084
 20
16.81749257499015
 30
0.0
 11
18.19218968785084
 21
16.81749257499015
 31
0.0
  0
LINE
  5
6C9
330
1F
100
AcDbEntity
  8
0
100
AcDbLine
 10
19.44218968785084
 20
9.567492574990156
 30
0.0
 11
19.44218968785084
 21
9.117492574990157
 31
0.0
  0
MTEXT
  5
6CA
330
1F
100
AcDbEntity
  8
0
100
AcDbMText
 10
19.46992414419483
 20
9.510877546627325
 30
0.0
 40
0.0713785431744
 41
2.619
 71
     1
 72
     5
  1
{\fTimes New Roman|b1|i0|c0|p18;All information contained within this document\Pis \H1.286x;Confidential\H0.7776x; and remains the sole property\Pof Automation Components, Inc.}
 73
     1
 44
1.0
  0
LINE
  5
6CB
330
1F
100
AcDbEntity
  8
0
100
AcDbLine
 10
18.69218968785084
 20
9.117492574990157
 30
0.0
 11
21.69218968785084
 21
9.117492574990157
 31
0.0
  0
MTEXT
  5
6CC
330
1F
100
AcDbEntity
  8
0
100
AcDbMText
 10
18.68758124202978
 20
10.47041546663014
 30
0.0
 40
0.0567
 41
6.5792
 71
     1
 72
     5
  3
{\fTimes New Roman|b0|i0|c0|p18;All deviations in \Pmaterials and \Pprocesses must \Pbe approved by \Pthe Engineering \PDepartment at \PAutomation \PComponents, Inc.  \PPlease submit the \PACI Engineering \PChange Request \PForm 7.3.4 for \Pall new m
  1
aterials \Pand process changes.\P\P\P\P\P\Ftxt.shx;\H0.9046x;  }
 73
     1
 44
1.0
  0
TEXT
  5
6CD
330
1F
100
AcDbEntity
  8
0
100
AcDbText
 10
19.85360311059961
 20
9.882423770826877
 30
0.0
 40
0.075
  1
M0000180
100
AcDbText
  0
TEXT
  5
6CE
330
1F
100
AcDbEntity
  8
0
100
AcDbText
 10
19.76631943513553
 20
9.645626994977689
 30
0.0
 40
0.075
  1
11/07/08
100
AcDbText
  0
LINE
  5
6CF
330
1F
100
AcDbEntity
  8
0
100
AcDbLine
 10
19.74218968785084
 20
9.567492574990156
 30
0.0
 11
19.74218968785084
 21
10.05499257499015
 31
0.0
  0
LINE
  5
6D0
330
1F
100
AcDbEntity
  8
0
100
AcDbLine
 10
20.49218968785084
 20
9.829992574990155
 30
0.0
 11
19.44218968785084
 21
9.829992574990155
 31
0.0
  0
LINE
  5
6D1
330
1F
100
AcDbEntity
  8
0
100
AcDbLine
 10
20.49218968785084
 20
9.567492574990156
 30
0.0
 11
19.44218968785084
 21
9.567492574990156
 31
0.0
  0
LINE
  5
6D2
330
1F
100
AcDbEntity
  8
0
100
AcDbLine
 10
20.49218968785084
 20
9.829992574990155
 30
0.0
 11
21.69218968785084
 21
9.829992574990155
 31
0.0
  0
LINE
  5
6D3
330
1F
100
AcDbEntity
  8
0
100
AcDbLine
 10
20.49218968785084
 20
9.567492574990156
 30
0.0
 11
21.69218968785084
 21
9.567492574990156
 31
0.0
  0
LINE
  5
6D4
330
1F
100
AcDbEntity
  8
0
100
AcDbLine
 10
19.44218968785084
 20
9.117492574990157
 30
0.0
 11
21.69218968785084
 21
9.117492574990157
 31
0.0
  0
LINE
  5
6D5
330
1F
100
AcDbEntity
  8
0
100
AcDbLine
 10
21.69218968785084
 20
10.50499257499015
 30
0.0
 11
21.69218968785084
 21
9.117492574990157
 31
0.0
  0
LINE
  5
6D6
330
1F
100
AcDbEntity
  8
0
100
AcDbLine
 10
19.44218968785084
 20
16.81749257499015
 30
0.0
 11
21.69218968785084
 21
16.81749257499015
 31
0.0
  0
LINE
  5
6D7
330
1F
100
AcDbEntity
  8
0
100
AcDbLine
 10
16.53156601442705
 20
16.81749257499015
 30
0.0
 11
16.53156601442705
 21
16.64499257499015
 31
0.0
  0
LINE
  5
6D8
330
1F
100
AcDbEntity
  8
0
100
AcDbLine
 10
17.38547272809669
 20
16.64499257499015
 30
0.0
 11
21.69218968785084
 21
16.64499257499016
 31
0.0
  0
TEXT
  5
6D9
330
1F
100
AcDbEntity
  8
0
100
AcDbText
 10
18.89171538338441
 20
16.7016953282995
 30
0.0
 40
0.08625
  1
Revision History
100
AcDbText
  0
LINE
  5
6DA
330
1F
100
AcDbEntity
  8
0
100
AcDbLine
 10
17.55794101442705
 20
16.64499257499015
 30
0.0
 11
16.53156601442706
 21
16.64499257499015
 31
0.0
  0
LINE
  5
6DB
330
1F
100
AcDbEntity
  8
0
100
AcDbLine
 10
19.44218968785084
 20
16.81749257499015
 30
0.0
 11
18.69966211074681
 21
16.81749257499015
 31
0.0
  0
LINE
  5
6DC
330
1F
100
AcDbEntity
  8
0
100
AcDbLine
 10
17.38547272809669
 20
16.64499257499015
 30
0.0
 11
16.53156601442705
 21
16.64499257499015
 31
0.0
  0
LINE
  5
6DD
330
1F
100
AcDbEntity
  8
0
100
AcDbLine
 10
17.38547272809669
 20
16.5241340235435
 30
0.0
 11
19.97297272809668
 21
16.5241340235435
 31
0.0
  0
LINE
  5
6DE
330
1F
100
AcDbEntity
  8
0
100
AcDbLine
 10
17.55794101442705
 20
16.5241340235435
 30
0.0
 11
16.53156601442706
 21
16.5241340235435
 31
0.0
  0
LINE
  5
6DF
330
1F
100
AcDbEntity
  8
0
100
AcDbLine
 10
16.53156601442706
 20
16.5241340235435
 30
0.0
 11
16.53156601442706
 21
16.64499257499015
 31
0.0
  0
LINE
  5
6E0
330
1F
100
AcDbEntity
  8
0
100
AcDbLine
 10
16.78976912572167
 20
16.5241340235435
 30
0.0
 11
16.78976912572167
 21
16.64499257499015
 31
0.0
  0
TEXT
  5
6E1
330
1F
100
AcDbEntity
  8
0
100
AcDbText
 10
16.55724902514146
 20
16.55615790387468
 30
0.0
 40
0.052785
  1
Rev. #
100
AcDbText
  0
LINE
  5
6E2
330
1F
100
AcDbEntity
  8
0
100
AcDbLine
 10
17.55794101442705
 20
16.40327547209685
 30
0.0
 11
16.53156601442706
 21
16.40327547209685
 31
0.0
  0
LINE
  5
6E3
330
1F
100
AcDbEntity
  8
0
100
AcDbLine
 10
16.53156601442706
 20
16.40327547209685
 30
0.0
 11
16.53156601442706
 21
16.5241340235435
 31
0.0
  0
LINE
  5
6E4
330
1F
100
AcDbEntity
  8
0
100
AcDbLine
 10
16.78976912572167
 20
16.40327547209685
 30
0.0
 11
16.78976912572167
 21
16.5241340235435
 31
0.0
  0
LINE
  5
6E5
330
1F
100
AcDbEntity
  8
0
100
AcDbLine
 10
17.55794101442705
 20
16.40327547209685
 30
0.0
 11
19.97297272809668
 21
16.40327547209685
 31
0.0
  0
LINE
  5
6E6
330
1F
100
AcDbEntity
  8
0
100
AcDbLine
 10
17.14801599353657
 20
16.5241340235435
 30
0.0
 11
17.14801599353657
 21
16.64499257499015
 31
0.0
  0
TEXT
  5
6E7
330
1F
100
AcDbEntity
  8
0
100
AcDbText
 10
16.81624156759308
 20
16.55615790387468
 30
0.0
 40
0.052785
  1
Rev. Date
100
AcDbText
  0
LINE
  5
6E8
330
1F
100
AcDbEntity
  8
0
100
AcDbLine
 10
17.14801599353657
 20
16.40327547209685
 30
0.0
 11
17.14801599353657
 21
16.5241340235435
 31
0.0
  0
LINE
  5
6E9
330
1F
100
AcDbEntity
  8
0
100
AcDbLine
 10
17.55308971298581
 20
16.5241340235435
 30
0.0
 11
17.55308971298581
 21
16.64499257499015
 31
0.0
  0
TEXT
  5
6EA
330
1F
100
AcDbEntity
  8
0
100
AcDbText
 10
17.24120996017203
 20
16.55615790387468
 30
0.0
 40
0.052785
  1
ECO #
100
AcDbText
  0
LINE
  5
6EB
330
1F
100
AcDbEntity
  8
0
100
AcDbLine
 10
17.55308971298581
 20
16.40327547209685
 30
0.0
 11
17.55308971298581
 21
16.5241340235435
 31
0.0
  0
LINE
  5
6EC
330
1F
100
AcDbEntity
  8
0
100
AcDbLine
 10
21.69218968785084
 20
16.5241340235435
 30
0.0
 11
20.97458222659593
 21
16.5241340235435
 31
0.0
  0
LINE
  5
6ED
330
1F
100
AcDbEntity
  8
0
100
AcDbLine
 10
20.97458222659593
 20
16.5241340235435
 30
0.0
 11
20.97458222659593
 21
16.64499257499015
 31
0.0
  0
LINE
  5
6EE
330
1F
100
AcDbEntity
  8
0
100
AcDbLine
 10
21.33056735808488
 20
16.5241340235435
 30
0.0
 11
21.33056735808488
 21
16.64499257499015
 31
0.0
  0
TEXT
  5
6EF
330
1F
100
AcDbEntity
  8
0
100
AcDbText
 10
21.00026523731033
 20
16.55615790387468
 30
0.0
 40
0.052785
  1
Rev.'d By
100
AcDbText
  0
LINE
  5
6F0
330
1F
100
AcDbEntity
  8
0
100
AcDbLine
 10
21.69218968785084
 20
16.40327547209685
 30
0.0
 11
20.97458222659593
 21
16.40327547209685
 31
0.0
  0
LINE
  5
6F1
330
1F
100
AcDbEntity
  8
0
100
AcDbLine
 10
20.97458222659593
 20
16.40327547209685
 30
0.0
 11
20.97458222659593
 21
16.5241340235435
 31
0.0
  0
LINE
  5
6F2
330
1F
100
AcDbEntity
  8
0
100
AcDbLine
 10
21.33056735808488
 20
16.40327547209685
 30
0.0
 11
21.33056735808488
 21
16.5241340235435
 31
0.0
  0
LINE
  5
6F3
330
1F
100
AcDbEntity
  8
0
100
AcDbLine
 10
21.69218968785084
 20
16.56239818242784
 30
0.0
 11
21.69218968785084
 21
16.66749257499015
 31
0.0
  0
TEXT
  5
6F4
330
1F
100
AcDbEntity
  8
0
100
AcDbText
 10
21.36188756707629
 20
16.55615790387468
 30
0.0
 40
0.052785
  1
Rev. App.
100
AcDbText
  0
LINE
  5
6F5
330
1F
100
AcDbEntity
  8
0
100
AcDbLine
 10
21.69218968785084
 20
16.45730378986554
 30
0.0
 11
21.69218968785084
 21
16.56239818242784
 31
0.0
  0
LINE
  5
6F6
330
1F
100
AcDbEntity
  8
0
100
AcDbLine
 10
21.69218968785084
 20
16.35220939730324
 30
0.0
 11
21.69218968785084
 21
16.45730378986554
 31
0.0
  0
LINE
  5
6F7
330
1F
100
AcDbEntity
  8
0
100
AcDbLine
 10
21.69218968785084
 20
16.24711500474093
 30
0.0
 11
21.69218968785084
 21
16.35220939730324
 31
0.0
  0
LINE
  5
6F8
330
1F
100
AcDbEntity
  8
0
100
AcDbLine
 10
21.69218968785084
 20
16.14202061217862
 30
0.0
 11
21.69218968785084
 21
16.24711500474093
 31
0.0
  0
LINE
  5
6F9
330
1F
100
AcDbEntity
  8
0
100
AcDbLine
 10
19.97297272809668
 20
16.5241340235435
 30
0.0
 11
20.97458222659593
 21
16.5241340235435
 31
0.0
  0
LINE
  5
6FA
330
1F
100
AcDbEntity
  8
0
100
AcDbLine
 10
19.97297272809668
 20
16.40327547209685
 30
0.0
 11
20.97458222659593
 21
16.40327547209685
 31
0.0
  0
LINE
  5
6FB
330
1F
100
AcDbEntity
  8
0
100
AcDbLine
 10
19.44218968785084
 20
10.50499257499015
 30
0.0
 11
18.62649263701219
 21
10.50499257499015
 31
0.0
  0
LINE
  5
6FC
330
1F
100
AcDbEntity
  8
0
100
AcDbLine
 10
18.62649263701219
 20
10.50499257499015
 30
0.0
 11
18.62649263701219
 21
9.117492574990157
 31
0.0
  0
TEXT
  5
6FD
330
1F
100
AcDbEntity
  8
0
100
AcDbText
 10
17.58362402514145
 20
16.55615790387468
 30
0.0
 40
0.052785
  1
DESCRIPTION
100
AcDbText
  0
TEXT
  5
6FE
330
1F
100
AcDbEntity
  8
0
100
AcDbText
 10
20.36991448405472
 20
9.77398869934411
 30
0.0
 40
0.045
  1
Designed By
100
AcDbText
  0
TEXT
  5
6FF
330
1F
100
AcDbEntity
  8
0
100
AcDbText
 10
20.39430487653181
 20
9.645626994977689
 30
0.0
 40
0.075
  1
XXX
100
AcDbText
  0
TEXT
  5
700
330
1F
100
AcDbEntity
  8
0
100
AcDbText
 10
20.84282877428857
 20
9.645626994977689
 30
0.0
 40
0.075
  1
XXX
100
AcDbText
  0
LINE
  5
701
330
1F
100
AcDbEntity
  8
0
100
AcDbLine
 10
20.79942274369186
 20
9.567492574990156
 30
0.0
 11
20.79942274369186
 21
9.829992574990155
 31
0.0
  0
LINE
  5
702
330
1F
100
AcDbEntity
  8
0
100
AcDbLine
 10
21.24608941035853
 20
9.567492574990156
 30
0.0
 11
21.24608941035853
 21
9.829992574990155
 31
0.0
  0
TEXT
  5
703
330
1F
100
AcDbEntity
  8
0
100
AcDbText
 10
20.81658115072138
 20
9.77398869934411
 30
0.0
 40
0.045
  1
Approved By
100
AcDbText
  0
TEXT
  5
704
330
1F
100
AcDbEntity
  8
0
100
AcDbText
 10
21.26324781738805
 20
9.77398869934411
 30
0.0
 40
0.045
  1
Drawn By
100
AcDbText
  0
TEXT
  5
705
330
1F
100
AcDbEntity
  8
0
100
AcDbText
 10
21.28949544095524
 20
9.645626994977689
 30
0.0
 40
0.075
  1
TJD
100
AcDbText
  0
LINE
  5
706
330
1F
100
AcDbEntity
  8
0
100
AcDbLine
 10
16.53156601442705
 20
16.81749257499015
 30
0.0
 11
21.69218968785084
 21
16.81749257499015
 31
0.0
  0
LINE
  5
707
330
1F
100
AcDbEntity
  8
0
100
AcDbLine
 10
21.69218968785084
 20
16.40327547209685
 30
0.0
 11
21.69218968785084
 21
16.81749257499015
 31
0.0
  0
DIMENSION
  5
9AE
330
1F
100
AcDbEntity
  8
0
100
AcDbDimension
  2
*D9
 10
12.81541237117371
 20
14.00013215927299
 30
0.0
 11
12.81541237117371
 21
12.35013215927299
 31
0.0
 70
    32
  1
<>"
 71
     5
 42
3.3
  3
Standard
100
AcDbAlignedDimension
 13
14.5993878752927
 23
10.70013215927299
 33
0.0
 14
14.5993878752927
 24
14.00013215927299
 34
0.0
 50
90.0
100
AcDbRotatedDimension
  0
DIMENSION
  5
A0E
330
1F
100
AcDbEntity
  8
0
100
AcDbDimension
  2
*D10
 10
17.58771579994222
 20
9.779475449420855
 30
0.0
 11
16.91212099100207
 21
9.779475449420855
 31
0.0
 70
    32
  1
<>"
 71
     5
 42
0.1759999999999948
  3
Standard
100
AcDbAlignedDimension
 13
17.76371579994222
 23
10.10013215927299
 33
0.0
 14
17.58771579994222
 24
10.20013215927299
 34
0.0
100
AcDbRotatedDimension
  0
CIRCLE
  5
A1C
330
1F
100
AcDbEntity
  8
0
100
AcDbCircle
 10
14.5993878752927
 20
10.70013215927299
 30
0.0
 40
0.1335
  0
CIRCLE
  5
A1D
330
1F
100
AcDbEntity
  8
0
100
AcDbCircle
 10
14.5993878752927
 20
14.00013215927299
 30
0.0
 40
0.1335
  0
LINE
  5
A20
330
1F
100
AcDbEntity
  8
0
100
AcDbLine
 10
14.73110418977196
 20
10.72188215927299
 30
0.0
 11
14.46767156081343
 21
10.72188215927299
 31
0.0
  0
LINE
  5
A21
330
1F
100
AcDbEntity
  8
0
100
AcDbLine
 10
14.73110418977196
 20
10.67838215927299
 30
0.0
 11
14.46767156081343
 21
10.67838215927299
 31
0.0
  0
LINE
  5
A22
330
1F
100
AcDbEntity
  8
0
100
AcDbLine
 10
14.73110418977196
 20
14.02188215927299
 30
0.0
 11
14.46767156081343
 21
14.02188215927299
 31
0.0
  0
LINE
  5
A23
330
1F
100
AcDbEntity
  8
0
100
AcDbLine
 10
14.73110418977196
 20
13.97838215927299
 30
0.0
 11
14.46767156081343
 21
13.97838215927299
 31
0.0
  0
LEADER
  5
A26
330
1F
100
AcDbEntity
  8
0
100
AcDbLeader
  3
Standard
 73
     0
 40
0.1022350396539293
 41
1.039509733237202
 76
     3
 10
14.5993878752927
 20
10.56663215927299
 30
0.0
 10
14.83370982974802
 20
9.63423742903498
 30
0.0
 10
14.98262984106513
 20
9.63423742903498
 30
0.0
340
A27
213
0.0
223
-0.05
233
0.0
1001
ACAD
1000
DSTYLE
1002
{
1070
   147
1040
0.09
1070
    77
1070
     0
1002
}
  0
MTEXT
  5
A27
102
{ACAD_REACTORS
330
A26
102
}
330
1F
100
AcDbEntity
  8
0
100
AcDbMText
 10
15.07262984106513
 20
9.684237429034981
 30
0.0
 40
0.1
 41
0.0
 71
     1
 72
     1
  1
COVER SCREW
 73
     1
 44
1.0
  0
LINE
  5
A28
102
{ACAD_REACTORS
330
A36
102
}
330
1F
100
AcDbEntity
  8
0
100
AcDbLine
 10
17.62771579994222
 20
14.47513215927299
 30
0.0
 11
17.62771579994222
 21
10.22513215927299
 31
0.0
  0
LINE
  5
A29
102
{ACAD_REACTORS
330
A36
102
}
330
1F
100
AcDbEntity
  8
0
100
AcDbLine
 10
17.62771579994222
 20
10.22513215927299
 30
0.0
 11
17.75271579994222
 21
10.22513215927299
 31
0.0
  0
LINE
  5
A2A
102
{ACAD_REACTORS
330
A36
102
}
330
1F
100
AcDbEntity
  8
0
100
AcDbLine
 10
17.75271579994222
 20
10.22513215927299
 30
0.0
 11
17.75271579994222
 21
14.47513215927299
 31
0.0
  0
LINE
  5
A2B
102
{ACAD_REACTORS
330
A36
102
}
330
1F
100
AcDbEntity
  8
0
100
AcDbLine
 10
17.75271579994222
 20
14.47513215927299
 30
0.0
 11
17.62771579994222
 21
14.47513215927299
 31
0.0
  0
HATCH
  5
A36
330
1F
100
AcDbEntity
  8
0
100
AcDbHatch
 10
0.0
 20
0.0
 30
0.0
210
0.0
220
0.0
230
1.0
  2
SOLID
 70
     1
 71
     1
 91
        1
 92
        7
 72
     0
 73
     1
 93
        4
 10
17.75271579994222
 20
14.47513215927299
 10
17.62771579994222
 20
14.47513215927299
 10
17.62771579994222
 20
10.22513215927299
 10
17.75271579994222
 20
10.22513215927299
 97
        4
330
A2B
330
A28
330
A29
330
A2A
 75
     0
 76
     1
 47
0.0116594581783165
 98
        1
 10
17.71003149924506
 20
12.35379547166503
  0
LINE
  5
A3D
330
1F
100
AcDbEntity
  8
0
100
AcDbLine
 10
17.75271579994222
 20
13.39111423650838
 30
0.0
 11
18.31743720929975
 21
13.39111423650838
 31
0.0
  0
LINE
  5
A3E
102
{ACAD_REACTORS
330
A59
102
}
330
1F
100
AcDbEntity
  8
0
100
AcDbLine
 10
19.10293603094262
 20
13.39111423650838
 30
0.0
 11
19.10293603094262
 21
13.34111423650838
 31
0.0
  0
LINE
  5
A3F
330
1F
100
AcDbEntity
  8
0
100
AcDbLine
 10
19.10293603094262
 20
13.34111423650838
 30
0.0
 11
18.3405922655871
 21
13.34111423650838
 31
0.0
  0
LINE
  5
A41
102
{ACAD_REACTORS
330
A59
102
}
330
1F
100
AcDbEntity
  8
0
100
AcDbLine
 10
19.10293603094262
 20
13.29111423650838
 30
0.0
 11
19.10293603094262
 21
13.24111423650838
 31
0.0
  0
LINE
  5
A42
330
1F
100
AcDbEntity
  8
0
100
AcDbLine
 10
19.10293603094262
 20
13.24111423650838
 30
0.0
 11
18.26066732052535
 21
13.24111423650838
 31
0.0
  0
LINE
  5
A43
330
1F
100
AcDbEntity
  8
0
100
AcDbLine
 10
19.10293603094262
 20
13.29111423650838
 30
0.0
 11
18.28953483398484
 21
13.29111423650838
 31
0.0
  0
LINE
  5
A46
102
{ACAD_REACTORS
330
A59
102
}
330
1F
100
AcDbEntity
  8
0
100
AcDbLine
 10
19.35293603094262
 20
13.35361423650838
 30
0.0
 11
19.10293603094262
 21
13.35361423650838
 31
0.0
  0
LINE
  5
A49
102
{ACAD_REACTORS
330
A59
102
}
330
1F
100
AcDbEntity
  8
0
100
AcDbLine
 10
19.35293603094262
 20
13.37861423650839
 30
0.0
 11
19.10293603094262
 21
13.37861423650838
 31
0.0
  0
LINE
  5
A4C
102
{ACAD_REACTORS
330
A59
102
}
330
1F
100
AcDbEntity
  8
0
100
AcDbLine
 10
19.35293603094262
 20
13.35361423650838
 30
0.0
 11
19.35293603094262
 21
13.37861423650838
 31
0.0
  0
LINE
  5
A4E
102
{ACAD_REACTORS
330
A59
102
}
330
1F
100
AcDbEntity
  8
0
100
AcDbLine
 10
19.35293603094262
 20
13.25361423650838
 30
0.0
 11
19.10293603094262
 21
13.25361423650838
 31
0.0
  0
LINE
  5
A4F
102
{ACAD_REACTORS
330
A59
102
}
330
1F
100
AcDbEntity
  8
0
100
AcDbLine
 10
19.35293603094262
 20
13.27861423650838
 30
0.0
 11
19.10293603094262
 21
13.27861423650838
 31
0.0
  0
LINE
  5
A50
102
{ACAD_REACTORS
330
A59
102
}
330
1F
100
AcDbEntity
  8
0
100
AcDbLine
 10
19.35293603094262
 20
13.25361423650838
 30
0.0
 11
19.35293603094262
 21
13.27861423650838
 31
0.0
  0
HATCH
  5
A59
330
1F
100
AcDbEntity
  8
0
100
AcDbHatch
 10
0.0
 20
0.0
 30
0.0
210
0.0
220
0.0
230
1.0
  2
ANSI31
 70
     0
 71
     1
 91
        2
 92
        7
 72
     0
 73
     1
 93
        4
 10
19.35293603094262
 20
13.27861423650839
 10
19.10293603094262
 20
13.27861423650838
 10
19.10293603094262
 20
13.25361423650838
 10
19.35293603094262
 20
13.25361423650838
 97
        4
330
A4F
330
A41
330
A4E
330
A50
 92
        7
 72
     0
 73
     1
 93
        4
 10
19.35293603094262
 20
13.37861423650839
 10
19.10293603094262
 20
13.37861423650838
 10
19.10293603094262
 20
13.35361423650838
 10
19.35293603094262
 20
13.35361423650838
 97
        4
330
A49
330
A3E
330
A46
330
A4C
 75
     0
 76
     1
 52
0.0
 41
0.25
 77
     0
 78
     1
 53
45.0
 43
0.0
 44
0.0
 45
-0.0220970869120796
 46
0.0220970869120796
 79
     0
 47
0.0011957688935036
 98
        2
 10
19.18924933269823
 20
13.26334545281598
 10
19.16770980774884
 20
13.36737734299766
  0
LINE
  5
A5C
330
1F
100
AcDbEntity
  8
0
100
AcDbLine
 10
18.17083357652197
 20
13.17562336160219
 30
0.0
 11
18.25441614354527
 21
13.32039261431358
 31
0.0
  0
LINE
  5
A5D
330
1F
100
AcDbEntity
  8
0
100
AcDbLine
 10
18.25441614354527
 20
13.32039261431358
 30
0.0
 11
18.2684839879399
 21
13.30632476991895
 31
0.0
  0
LINE
  5
A5E
330
1F
100
AcDbEntity
  8
0
100
AcDbLine
 10
18.2684839879399
 20
13.30632476991895
 30
0.0
 11
18.33743393166879
 21
13.42574957563642
 31
0.0
  0
LINE
  5
A5F
330
1F
100
AcDbEntity
  8
0
100
AcDbLine
 10
18.2228561462688
 20
13.17562336160219
 30
0.0
 11
18.3064387132921
 21
13.32039261431358
 31
0.0
  0
LINE
  5
A60
330
1F
100
AcDbEntity
  8
0
100
AcDbLine
 10
18.3064387132921
 20
13.32039261431358
 30
0.0
 11
18.32050655768673
 21
13.30632476991895
 31
0.0
  0
LINE
  5
A61
330
1F
100
AcDbEntity
  8
0
100
AcDbLine
 10
18.32050655768673
 20
13.30632476991895
 30
0.0
 11
18.38945650141562
 21
13.42574957563642
 31
0.0
  0
LINE
  5
A62
330
1F
100
AcDbEntity
  8
0
100
AcDbLine
 10
18.36945977904658
 20
13.39111423650838
 30
0.0
 11
19.10293603094262
 21
13.39111423650838
 31
0.0
  0
LINE
  5
A63
330
1F
100
AcDbEntity
  8
0
100
AcDbLine
 10
18.28856969584027
 20
13.34111423650838
 30
0.0
 11
17.76371579994222
 21
13.34111423650838
 31
0.0
  0
LINE
  5
A64
330
1F
100
AcDbEntity
  8
0
100
AcDbLine
 10
18.23751226423801
 20
13.29111423650838
 30
0.0
 11
17.76371579994222
 21
13.29111423650838
 31
0.0
  0
LINE
  5
A65
330
1F
100
AcDbEntity
  8
0
100
AcDbLine
 10
18.20864475077853
 20
13.24111423650838
 30
0.0
 11
17.76371579994222
 21
13.24111423650838
 31
0.0
  0
LEADER
  5
A7E
330
1F
100
AcDbEntity
  8
0
100
AcDbLeader
  3
Standard
 73
     0
 40
0.1022350396539293
 41
1.781759192501802
 76
     3
 10
18.7361979049946
 20
13.39111423650838
 30
0.0
 10
19.03198322345101
 20
14.49500007312065
 30
0.0
 10
19.1922989037132
 20
14.49500007312065
 30
0.0
340
A7F
213
0.0
223
-0.05
233
0.0
1001
ACAD
1000
DSTYLE
1002
{
1070
   147
1040
0.09
1070
    77
1070
     0
1002
}
  0
MTEXT
  5
A7F
102
{ACAD_REACTORS
330
A7E
102
}
330
1F
100
AcDbEntity
  8
0
100
AcDbMText
 10
19.2822989037132
 20
14.54500007312065
 30
0.0
 40
0.1
 41
0.0
 71
     1
 72
     1
  1
24.00" ± 1.00" LEAD WIRES
 73
     1
 44
1.0
  0
DIMENSION
  5
A80
330
1F
100
AcDbEntity
  8
0
100
AcDbDimension
  2
*D12
 10
19.35293603094262
 20
13.05458485227505
 30
0.0
 11
20.65578390405005
 21
13.05458485227505
 31
0.0
 70
    32
  1
WIRES STRIPPED <> "
 71
     5
 42
0.25
  3
Standard
100
AcDbAlignedDimension
 13
19.10293603094262
 23
13.24111423650838
 33
0.0
 14
19.35293603094262
 24
13.25361423650838
 34
0.0
100
AcDbRotatedDimension
  0
LEADER
  5
ADF
330
1F
100
AcDbEntity
  8
0
100
AcDbLeader
  3
Standard
 73
     0
 40
0.1022350396539293
 41
0.7509733237202596
 76
     3
 10
17.76371579994222
 20
12.35013215927299
 30
0.0
 10
18.1428884665514
 20
11.69338583586451
 30
0.0
 10
18.38786540485778
 20
11.69338583586451
 30
0.0
340
AE0
213
0.0
223
-0.05
233
0.0
1001
ACAD
1000
DSTYLE
1002
{
1070
   147
1040
0.09
1070
    77
1070
     0
1002
}
  0
MTEXT
  5
AE0
102
{ACAD_REACTORS
330
ADF
102
}
330
1F
100
AcDbEntity
  8
0
100
AcDbMText
 10
18.47786540485778
 20
11.74338583586451
 30
0.0
 40
0.1
 41
0.0
 71
     1
 72
     1
  1
FOAM PAD
 73
     1
 44
1.0
  0
LINE
  5
B15
330
1F
100
AcDbEntity
  8
0
100
AcDbLine
 10
14.5993878752927
 20
9.747359465773902
 30
0.0
 11
14.25102011463647
 21
9.747359465773902
 31
0.0
  0
LINE
  5
B16
330
1F
100
AcDbEntity
  8
0
  6
DASHED2
100
AcDbLine
 10
14.5993878752927
 20
9.747359465773902
 30
0.0
 11
14.5993878752927
 21
14.87814968735017
 31
0.0
  0
LINE
  5
B21
330
1F
100
AcDbEntity
  8
0
100
AcDbLine
 10
14.5993878752927
 20
14.87814968735017
 30
0.0
 11
14.25102011463647
 21
14.87814968735017
 31
0.0
  0
LINE
  5
B23
102
{ACAD_REACTORS
330
B62
102
}
330
1F
100
AcDbEntity
  8
0
100
AcDbLine
 10
14.07102011463647
 20
9.747359465773902
 30
0.0
 11
14.25102011463647
 21
9.717359465773903
 31
0.0
  0
LINE
  5
B24
102
{ACAD_REACTORS
330
B62
102
}
330
1F
100
AcDbEntity
  8
0
100
AcDbLine
 10
14.25102011463647
 20
9.717359465773903
 30
0.0
 11
14.25102011463647
 21
9.777359465773901
 31
0.0
  0
LINE
  5
B25
102
{ACAD_REACTORS
330
B62
102
}
330
1F
100
AcDbEntity
  8
0
100
AcDbLine
 10
14.25102011463647
 20
9.777359465773901
 30
0.0
 11
14.07102011463647
 21
9.747359465773902
 31
0.0
  0
DIMENSION
  5
B31
330
1F
100
AcDbEntity
  8
0
100
AcDbDimension
  2
*D13
 10
12.81541237117371
 20
10.10013215927299
 30
0.0
 11
12.31981756223355
 21
9.920132159272998
 31
0.0
 70
    32
  1
<>"
 71
     5
 42
0.5999999999999997
  3
Standard
100
AcDbAlignedDimension
 13
14.5993878752927
 23
10.70013215927299
 33
0.0
 14
13.2243878752927
 24
10.10013215927299
 34
0.0
 50
90.0
100
AcDbRotatedDimension
  0
LINE
  5
B4B
102
{ACAD_REACTORS
330
B62
102
}
330
1F
100
AcDbEntity
  8
0
100
AcDbLine
 10
14.07102011463647
 20
14.87814968735017
 30
0.0
 11
14.25102011463647
 21
14.84814968735018
 31
0.0
  0
LINE
  5
B4C
102
{ACAD_REACTORS
330
B62
102
}
330
1F
100
AcDbEntity
  8
0
100
AcDbLine
 10
14.25102011463647
 20
14.84814968735018
 30
0.0
 11
14.25102011463647
 21
14.90814968735017
 31
0.0
  0
LINE
  5
B4D
102
{ACAD_REACTORS
330
B62
102
}
330
1F
100
AcDbEntity
  8
0
100
AcDbLine
 10
14.25102011463647
 20
14.90814968735017
 30
0.0
 11
14.07102011463647
 21
14.87814968735017
 31
0.0
  0
HATCH
  5
B62
330
1F
100
AcDbEntity
  8
0
100
AcDbHatch
 10
0.0
 20
0.0
 30
0.0
210
0.0
220
0.0
230
1.0
  2
SOLID
 70
     1
 71
     1
 91
        2
 92
        7
 72
     0
 73
     1
 93
        3
 10
14.25102011463647
 20
14.90814968735017
 10
14.07102011463646
 20
14.87814968735017
 10
14.25102011463647
 20
14.84814968735017
 97
        3
330
B4D
330
B4B
330
B4C
 92
        7
 72
     0
 73
     1
 93
        3
 10
14.25102011463647
 20
9.777359465773901
 10
14.07102011463647
 20
9.747359465773904
 10
14.25102011463647
 20
9.717359465773901
 97
        3
330
B25
330
B23
330
B24
 75
     0
 76
     1
 47
0.0105031045248054
 98
        3
 10
14.21389919786276
 20
14.88598935441438
 10
14.20103780329931
 20
14.8706177325826
 10
14.22205932788939
 20
9.745102715822651
  0
MTEXT
  5
B63
330
1F
100
AcDbEntity
  8
0
100
AcDbMText
 10
13.94479268879957
 20
9.804597005559012
 30
0.0
 40
0.1
 41
0.4479
 71
     1
 72
     5
  1
A
 73
     1
 44
1.0
  0
MTEXT
  5
B64
330
1F
100
AcDbEntity
  8
0
100
AcDbMText
 10
13.94479268879957
 20
14.93538722713529
 30
0.0
 40
0.1
 41
0.4479
 71
     1
 72
     5
  1
A
 73
     1
 44
1.0
  0
MTEXT
  5
B65
330
1F
100
AcDbEntity
  8
0
100
AcDbMText
 10
17.38729620743618
 20
15.02434391357613
 30
0.0
 40
0.1
 41
0.4479
 71
     1
 72
     5
  1
SECTION VIEWA-A
 73
     1
 44
1.0
  0
ENDSEC
  0
SECTION
  2
OBJECTS
  0
DICTIONARY
  5
C
330
0
100
AcDbDictionary
281
     1
  3
ACAD_GROUP
350
D
  3
ACAD_LAYOUT
350
1A
  3
ACAD_MLINESTYLE
350
17
  3
ACAD_PLOTSETTINGS
350
19
  3
ACAD_PLOTSTYLENAME
350
E
  3
AcDbVariableDictionary
350
11C
  0
DICTIONARY
  5
11E
330
1F
100
AcDbDictionary
280
     1
281
     1
  3
ACAD_SORTENTS
360
11F
  0
DICTIONARY
  5
D
102
{ACAD_REACTORS
330
C
102
}
330
C
100
AcDbDictionary
281
     1
  0
DICTIONARY
  5
1A
102
{ACAD_REACTORS
330
C
102
}
330
C
100
AcDbDictionary
281
     1
  3
Layout1
350
1E
  3
Layout2
350
26
  3
Model
350
22
  0
DICTIONARY
  5
17
102
{ACAD_REACTORS
330
C
102
}
330
C
100
AcDbDictionary
281
     1
  3
Standard
350
18
  0
DICTIONARY
  5
19
102
{ACAD_REACTORS
330
C
102
}
330
C
100
AcDbDictionary
281
     1
  0
ACDBDICTIONARYWDFLT
  5
E
102
{ACAD_REACTORS
330
C
102
}
330
C
100
AcDbDictionary
281
     1
  3
Normal
350
F
100
AcDbDictionaryWithDefault
340
F
  0
DICTIONARY
  5
11C
102
{ACAD_REACTORS
330
C
102
}
330
C
100
AcDbDictionary
281
     1
  3
SORTENTS
350
11D
  0
SORTENTSTABLE
  5
11F
102
{ACAD_REACTORS
330
11E
102
}
330
11E
100
AcDbSortentsTable
330
1F
  0
LAYOUT
  5
1E
102
{ACAD_REACTORS
330
1A
102
}
330
1A
100
AcDbPlotSettings
  1

  2
PrimoPDF
  4

  6

 40
0.0
 41
0.0
 42
0.0
 43
0.0
 44
0.0
 45
0.0
 46
0.0
 47
0.0
 48
0.0
 49
0.0
140
0.0
141
0.0
142
1.0
143
1.0
 70
   688
 72
     0
 73
     0
 74
     5
  7

 75
    16
147
1.0
148
0.0
149
0.0
100
AcDbLayout
  1
Layout1
 70
     1
 71
     1
 10
0.0
 20
0.0
 11
12.0
 21
9.0
 12
0.0
 22
0.0
 32
0.0
 14
1.000000000000000E+20
 24
1.000000000000000E+20
 34
1.000000000000000E+20
 15
-1.000000000000000E+20
 25
-1.000000000000000E+20
 35
-1.000000000000000E+20
146
0.0
 13
0.0
 23
0.0
 33
0.0
 16
1.0
 26
0.0
 36
0.0
 17
0.0
 27
1.0
 37
0.0
 76
     0
330
1B
  0
LAYOUT
  5
26
102
{ACAD_REACTORS
330
1A
102
}
330
1A
100
AcDbPlotSettings
  1

  2
PrimoPDF
  4

  6

 40
0.0
 41
0.0
 42
0.0
 43
0.0
 44
0.0
 45
0.0
 46
0.0
 47
0.0
 48
0.0
 49
0.0
140
0.0
141
0.0
142
1.0
143
1.0
 70
   688
 72
     0
 73
     0
 74
     5
  7

 75
    16
147
1.0
148
0.0
149
0.0
100
AcDbLayout
  1
Layout2
 70
     1
 71
     2
 10
0.0
 20
0.0
 11
12.0
 21
9.0
 12
0.0
 22
0.0
 32
0.0
 14
0.0
 24
0.0
 34
0.0
 15
0.0
 25
0.0
 35
0.0
146
0.0
 13
0.0
 23
0.0
 33
0.0
 16
1.0
 26
0.0
 36
0.0
 17
0.0
 27
1.0
 37
0.0
 76
     0
330
23
  0
LAYOUT
  5
22
102
{ACAD_REACTORS
330
1A
102
}
330
1A
100
AcDbPlotSettings
  1

  2
PrimoPDF
  4
Letter
  6

 40
3.174999952316284
 41
3.174999952316284
 42
3.175003051757812
 43
3.17498779296875
 44
215.8999938964843
 45
279.3999938964843
 46
0.0
 47
0.0
 48
11.49218968785084
 49
9.117492574990157
140
21.69218968785084
141
16.81749257499015
142
1.0
143
0.9488371879271683
 70
 11952
 72
     0
 73
     1
 74
     4
  7

 75
     0
147
1.053921592369921
148
-291.9016180714113
149
-231.5843114047499
100
AcDbLayout
  1
Model
 70
     1
 71
     0
 10
0.0
 20
0.0
 11
12.0
 21
9.0
 12
0.0
 22
0.0
 32
0.0
 14
0.0
 24
0.0
 34
0.0
 15
0.0
 25
0.0
 35
0.0
146
0.0
 13
0.0
 23
0.0
 33
0.0
 16
1.0
 26
0.0
 36
0.0
 17
0.0
 27
1.0
 37
0.0
 76
     0
330
1F
  0
MLINESTYLE
  5
18
102
{ACAD_REACTORS
330
17
102
}
330
17
100
AcDbMlineStyle
  2
STANDARD
 70
     0
  3

 62
   256
 51
90.0
 52
90.0
 71
     2
 49
0.5
 62
   256
  6
BYLAYER
 49
-0.5
 62
   256
  6
BYLAYER
  0
ACDBPLACEHOLDER
  5
F
102
{ACAD_REACTORS
330
E
102
}
330
E
  0
DICTIONARYVAR
  5
11D
102
{ACAD_REACTORS
330
11C
102
}
330
11C
100
DictionaryVariables
280
     0
  1
112
  0
ENDSEC
  0
EOF
