  0
SECTION
  2
HEADER
  9
$ACADVER
  1
AC1015
  9
$ACADMAINTVER
 70
     6
  9
$DWGCODEPAGE
  3
ANSI_1252
  9
$INSBASE
 10
0.0
 20
0.0
 30
0.0
  9
$EXTMIN
 10
-0.0305982905982906
 20
-0.426837606837607
 30
0.0
  9
$EXTMAX
 10
44.95397453756766
 20
13.62716424870839
 30
0.0
  9
$LIMMIN
 10
-0.5
 20
-0.5
  9
$LIMMAX
 10
60.0
 20
60.0
  9
$ORTHOMODE
 70
     1
  9
$REGENMODE
 70
     1
  9
$FILLMODE
 70
     1
  9
$QTEXTMODE
 70
     0
  9
$MIRRTEXT
 70
     1
  9
$LTSCALE
 40
0.5
  9
$ATTMODE
 70
     1
  9
$TEXTSIZE
 40
0.2
  9
$TRACEWID
 40
0.05
  9
$TEXTSTYLE
  7
Standard
  9
$CLAYER
  8
0
  9
$CELTYPE
  6
ByLayer
  9
$CECOLOR
 62
   256
  9
$CELTSCALE
 40
1.0
  9
$DISPSILH
 70
     0
  9
$DIMSCALE
 40
1.0
  9
$DIMASZ
 40
0.15
  9
$DIMEXO
 40
0.0625
  9
$DIMDLI
 40
0.38
  9
$DIMRND
 40
0.0
  9
$DIMDLE
 40
0.0
  9
$DIMEXE
 40
0.05
  9
$DIMTP
 40
0.0
  9
$DIMTM
 40
0.0
  9
$DIMTXT
 40
0.09
  9
$DIMCEN
 40
0.05
  9
$DIMTSZ
 40
0.0
  9
$DIMTOL
 70
     0
  9
$DIMLIM
 70
     0
  9
$DIMTIH
 70
     1
  9
$DIMTOH
 70
     1
  9
$DIMSE1
 70
     0
  9
$DIMSE2
 70
     0
  9
$DIMTAD
 70
     0
  9
$DIMZIN
 70
     0
  9
$DIMBLK
  1

  9
$DIMASO
 70
     1
  9
$DIMSHO
 70
     1
  9
$DIMPOST
  1

  9
$DIMAPOST
  1
mm
  9
$DIMALT
 70
     1
  9
$DIMALTD
 70
     2
  9
$DIMALTF
 40
25.4
  9
$DIMLFAC
 40
1.0
  9
$DIMTOFL
 70
     0
  9
$DIMTVP
 40
0.0
  9
$DIMTIX
 70
     0
  9
$DIMSOXD
 70
     0
  9
$DIMSAH
 70
     0
  9
$DIMBLK1
  1

  9
$DIMBLK2
  1

  9
$DIMSTYLE
  2
DIM STYLE 1
  9
$DIMCLRD
 70
     0
  9
$DIMCLRE
 70
     0
  9
$DIMCLRT
 70
     0
  9
$DIMTFAC
 40
1.0
  9
$DIMGAP
 40
0.09
  9
$DIMJUST
 70
     0
  9
$DIMSD1
 70
     0
  9
$DIMSD2
 70
     0
  9
$DIMTOLJ
 70
     1
  9
$DIMTZIN
 70
     0
  9
$DIMALTZ
 70
     0
  9
$DIMALTTZ
 70
     0
  9
$DIMUPT
 70
     0
  9
$DIMDEC
 70
     2
  9
$DIMTDEC
 70
     2
  9
$DIMALTU
 70
     2
  9
$DIMALTTD
 70
     2
  9
$DIMTXSTY
  7
Standard
  9
$DIMAUNIT
 70
     0
  9
$DIMADEC
 70
     0
  9
$DIMALTRND
 40
0.0
  9
$DIMAZIN
 70
     0
  9
$DIMDSEP
 70
    46
  9
$DIMATFIT
 70
     3
  9
$DIMFRAC
 70
     0
  9
$DIMLDRBLK
  1

  9
$DIMLUNIT
 70
     3
  9
$DIMLWD
 70
    -2
  9
$DIMLWE
 70
    -2
  9
$DIMTMOVE
 70
     0
  9
$LUNITS
 70
     2
  9
$LUPREC
 70
     4
  9
$SKETCHINC
 40
0.1
  9
$FILLETRAD
 40
0.295
  9
$AUNITS
 70
     0
  9
$AUPREC
 70
     0
  9
$MENU
  1
.
  9
$ELEVATION
 40
0.0
  9
$PELEVATION
 40
0.0
  9
$THICKNESS
 40
0.0
  9
$LIMCHECK
 70
     0
  9
$CHAMFERA
 40
0.0
  9
$CHAMFERB
 40
0.0
  9
$CHAMFERC
 40
0.0
  9
$CHAMFERD
 40
0.0
  9
$SKPOLY
 70
     0
  9
$TDCREATE
 40
2452955.637441400
  9
$TDUCREATE
 40
2452955.845774734
  9
$TDUPDATE
 40
2454551.476371157
  9
$TDUUPDATE
 40
2454551.684704491
  9
$TDINDWG
 40
2.1689429977
  9
$TDUSRTIMER
 40
2.1689429977
  9
$USRTIMER
 70
     1
  9
$ANGBASE
 50
0.0
  9
$ANGDIR
 70
     0
  9
$PDMODE
 70
     0
  9
$PDSIZE
 40
0.0
  9
$PLINEWID
 40
0.0
  9
$SPLFRAME
 70
     0
  9
$SPLINETYPE
 70
     6
  9
$SPLINESEGS
 70
     8
  9
$HANDSEED
  5
5C96
  9
$SURFTAB1
 70
     6
  9
$SURFTAB2
 70
     6
  9
$SURFTYPE
 70
     6
  9
$SURFU
 70
     6
  9
$SURFV
 70
     6
  9
$UCSBASE
  2

  9
$UCSNAME
  2

  9
$UCSORG
 10
0.0
 20
0.0
 30
0.0
  9
$UCSXDIR
 10
1.0
 20
0.0
 30
0.0
  9
$UCSYDIR
 10
0.0
 20
1.0
 30
0.0
  9
$UCSORTHOREF
  2

  9
$UCSORTHOVIEW
 70
     0
  9
$UCSORGTOP
 10
0.0
 20
0.0
 30
0.0
  9
$UCSORGBOTTOM
 10
0.0
 20
0.0
 30
0.0
  9
$UCSORGLEFT
 10
0.0
 20
0.0
 30
0.0
  9
$UCSORGRIGHT
 10
0.0
 20
0.0
 30
0.0
  9
$UCSORGFRONT
 10
0.0
 20
0.0
 30
0.0
  9
$UCSORGBACK
 10
0.0
 20
0.0
 30
0.0
  9
$PUCSBASE
  2

  9
$PUCSNAME
  2

  9
$PUCSORG
 10
0.0
 20
0.0
 30
0.0
  9
$PUCSXDIR
 10
1.0
 20
0.0
 30
0.0
  9
$PUCSYDIR
 10
0.0
 20
1.0
 30
0.0
  9
$PUCSORTHOREF
  2

  9
$PUCSORTHOVIEW
 70
     0
  9
$PUCSORGTOP
 10
0.0
 20
0.0
 30
0.0
  9
$PUCSORGBOTTOM
 10
0.0
 20
0.0
 30
0.0
  9
$PUCSORGLEFT
 10
0.0
 20
0.0
 30
0.0
  9
$PUCSORGRIGHT
 10
0.0
 20
0.0
 30
0.0
  9
$PUCSORGFRONT
 10
0.0
 20
0.0
 30
0.0
  9
$PUCSORGBACK
 10
0.0
 20
0.0
 30
0.0
  9
$USERI1
 70
     0
  9
$USERI2
 70
     0
  9
$USERI3
 70
     0
  9
$USERI4
 70
     0
  9
$USERI5
 70
     0
  9
$USERR1
 40
0.0
  9
$USERR2
 40
0.0
  9
$USERR3
 40
0.0
  9
$USERR4
 40
0.0
  9
$USERR5
 40
0.0
  9
$WORLDVIEW
 70
     1
  9
$SHADEDGE
 70
     3
  9
$SHADEDIF
 70
    70
  9
$TILEMODE
 70
     0
  9
$MAXACTVP
 70
    64
  9
$PINSBASE
 10
0.0
 20
0.0
 30
0.0
  9
$PLIMCHECK
 70
     0
  9
$PEXTMIN
 10
0.0999999999999997
 20
0.0014665757162347
 30
0.0
  9
$PEXTMAX
 10
10.74999999999999
 20
8.200000000000001
 30
0.0
  9
$PLIMMIN
 10
-0.0442161864201661
 20
-0.1234094207122439
  9
$PLIMMAX
 10
10.88831985258039
 20
8.324459282419519
  9
$UNITMODE
 70
     0
  9
$VISRETAIN
 70
     1
  9
$PLINEGEN
 70
     0
  9
$PSLTSCALE
 70
     1
  9
$TREEDEPTH
 70
  3020
  9
$CMLSTYLE
  2
Standard
  9
$CMLJUST
 70
     0
  9
$CMLSCALE
 40
1.0
  9
$PROXYGRAPHICS
 70
     1
  9
$MEASUREMENT
 70
     0
  9
$CELWEIGHT
370
    30
  9
$ENDCAPS
280
     0
  9
$JOINSTYLE
280
     0
  9
$LWDISPLAY
290
     0
  9
$INSUNITS
 70
     0
  9
$HYPERLINKBASE
  1

  9
$STYLESHEET
  1

  9
$XEDIT
290
     1
  9
$CEPSNTYPE
380
     0
  9
$PSTYLEMODE
290
     1
  9
$FINGERPRINTGUID
  2
{B533FD67-EFBD-470B-9CAB-60DFF78E1657}
  9
$VERSIONGUID
  2
{04168A90-6B46-438F-9D20-2CE03D2D813B}
  9
$EXTNAMES
290
     1
  9
$PSVPSCALE
 40
0.0
  9
$OLESTARTUP
290
     0
  0
ENDSEC
  0
SECTION
  2
CLASSES
  0
CLASS
  1
ACDBDICTIONARYWDFLT
  2
AcDbDictionaryWithDefault
  3
AutoCAD 2000
 90
        0
280
     0
281
     0
  0
CLASS
  1
ACDBPLACEHOLDER
  2
AcDbPlaceHolder
  3
AutoCAD 2000
 90
        0
280
     0
281
     0
  0
CLASS
  1
LAYOUT
  2
AcDbLayout
  3
AutoCAD 2000
 90
        0
280
     0
281
     0
  0
CLASS
  1
DICTIONARYVAR
  2
AcDbDictionaryVar
  3
AutoCAD 2000
 90
        0
280
     0
281
     0
  0
CLASS
  1
SORTENTSTABLE
  2
AcDbSortentsTable
  3
AutoCAD 2000
 90
        0
280
     0
281
     0
  0
ENDSEC
  0
SECTION
  2
TABLES
  0
TABLE
  2
VPORT
  5
8
330
0
100
AcDbSymbolTable
 70
     2
  0
VPORT
  5
5C95
330
8
100
AcDbSymbolTableRecord
100
AcDbViewportTableRecord
  2
*Active
 70
     0
 10
0.0
 20
0.0
 11
1.0
 21
1.0
 12
37.24785327097357
 22
6.135584438845414
 13
0.0
 23
0.0
 14
0.05
 24
0.05
 15
0.1
 25
0.1
 16
0.0
 26
0.0
 36
1.0
 17
0.0
 27
0.0
 37
0.0
 40
16.65782270653594
 41
1.676895306859205
 42
50.0
 43
0.0
 44
0.0
 50
0.0
 51
0.0
 71
     0
 72
   100
 73
     1
 74
     1
 75
     0
 76
     0
 77
     0
 78
     0
281
     0
 65
     1
110
0.0
120
0.0
130
0.0
111
1.0
121
0.0
131
0.0
112
0.0
122
1.0
132
0.0
 79
     0
146
0.0
  0
ENDTAB
  0
TABLE
  2
LTYPE
  5
5
330
0
100
AcDbSymbolTable
 70
    14
  0
LTYPE
  5
13
330
5
100
AcDbSymbolTableRecord
100
AcDbLinetypeTableRecord
  2
ByBlock
 70
     0
  3

 72
    65
 73
     0
 40
0.0
  0
LTYPE
  5
14
330
5
100
AcDbSymbolTableRecord
100
AcDbLinetypeTableRecord
  2
ByLayer
 70
     0
  3

 72
    65
 73
     0
 40
0.0
  0
LTYPE
  5
15
330
5
100
AcDbSymbolTableRecord
100
AcDbLinetypeTableRecord
  2
CONTINUOUS
 70
     0
  3
Solid
 72
    65
 73
     0
 40
0.0
  0
LTYPE
  5
22
330
5
100
AcDbSymbolTableRecord
100
AcDbLinetypeTableRecord
  2
HIDDEN
 70
     0
  3
Short Dashed
 72
    65
 73
     2
 40
0.06903
 49
0.04602
 74
     0
 49
-0.02301
 74
     0
  0
LTYPE
  5
23
330
5
100
AcDbSymbolTableRecord
100
AcDbLinetypeTableRecord
  2
DASHED
 70
     0
  3
Dashed
 72
    65
 73
     2
 40
0.13806
 49
0.06903
 74
     0
 49
-0.06903
 74
     0
  0
LTYPE
  5
24
330
5
100
AcDbSymbolTableRecord
100
AcDbLinetypeTableRecord
  2
LONGDASH
 70
     0
  3
Long Dash
 72
    65
 73
     2
 40
0.13806
 49
0.09204
 74
     0
 49
-0.04602
 74
     0
  0
LTYPE
  5
25
330
5
100
AcDbSymbolTableRecord
100
AcDbLinetypeTableRecord
  2
DOT
 70
     0
  3
Short Dotted
 72
    65
 73
     2
 40
0.02301
 49
0.0
 74
     0
 49
-0.02301
 74
     0
  0
LTYPE
  5
26
330
5
100
AcDbSymbolTableRecord
100
AcDbLinetypeTableRecord
  2
LONGDOT
 70
     0
  3
Dotted
 72
    65
 73
     2
 40
0.04602
 49
0.0
 74
     0
 49
-0.04602
 74
     0
  0
LTYPE
  5
27
330
5
100
AcDbSymbolTableRecord
100
AcDbLinetypeTableRecord
  2
DASHDOT
 70
     0
  3
Dot Center
 72
    65
 73
     4
 40
0.09204
 49
0.04602
 74
     0
 49
-0.02301
 74
     0
 49
0.0
 74
     0
 49
-0.02301
 74
     0
  0
LTYPE
  5
28
330
5
100
AcDbSymbolTableRecord
100
AcDbLinetypeTableRecord
  2
DIVIDE
 70
     0
  3
Dash Dot Dot
 72
    65
 73
     6
 40
0.11505
 49
0.04602
 74
     0
 49
-0.02301
 74
     0
 49
0.0
 74
     0
 49
-0.02301
 74
     0
 49
0.0
 74
     0
 49
-0.02301
 74
     0
  0
LTYPE
  5
29
330
5
100
AcDbSymbolTableRecord
100
AcDbLinetypeTableRecord
  2
CENTER
 70
     0
  3
Dash Center
 72
    65
 73
     4
 40
0.103545
 49
0.04602
 74
     0
 49
-0.02301
 74
     0
 49
0.011505
 74
     0
 49
-0.02301
 74
     0
  0
LTYPE
  5
2A
330
5
100
AcDbSymbolTableRecord
100
AcDbLinetypeTableRecord
  2
LONGCENTER
 70
     0
  3
Long Center
 72
    65
 73
     4
 40
0.149565
 49
0.09204
 74
     0
 49
-0.02301
 74
     0
 49
0.011505
 74
     0
 49
-0.02301
 74
     0
  0
LTYPE
  5
2B
330
5
100
AcDbSymbolTableRecord
100
AcDbLinetypeTableRecord
  2
PHANTOM
 70
     0
  3
Phantom
 72
    65
 73
     6
 40
0.13806
 49
0.04602
 74
     0
 49
-0.02301
 74
     0
 49
0.011505
 74
     0
 49
-0.02301
 74
     0
 49
0.011505
 74
     0
 49
-0.02301
 74
     0
  0
LTYPE
  5
2C
330
5
100
AcDbSymbolTableRecord
100
AcDbLinetypeTableRecord
  2
LONGPHANTOM
 70
     0
  3
Long Phantom
 72
    65
 73
     6
 40
0.18408
 49
0.09204
 74
     0
 49
-0.02301
 74
     0
 49
0.011505
 74
     0
 49
-0.02301
 74
     0
 49
0.011505
 74
     0
 49
-0.02301
 74
     0
  0
LTYPE
  5
3469
330
5
100
AcDbSymbolTableRecord
100
AcDbLinetypeTableRecord
  2
HIDDEN2
 70
     0
  3
Hidden (.5x) _ _ _ _ _ _ _ _ _ _ _ _ _ _ _ _ _
 72
    65
 73
     2
 40
0.1875
 49
0.125
 74
     0
 49
-0.0625
 74
     0
  0
LTYPE
  5
3EF5
330
5
100
AcDbSymbolTableRecord
100
AcDbLinetypeTableRecord
  2
DASHED2
 70
     0
  3
Dashed (.5x) _ _ _ _ _ _ _ _ _ _ _ _ _ _ _ _ _
 72
    65
 73
     2
 40
0.375
 49
0.25
 74
     0
 49
-0.125
 74
     0
  0
ENDTAB
  0
TABLE
  2
LAYER
  5
2
330
0
100
AcDbSymbolTable
 70
     4
  0
LAYER
  5
10
330
2
100
AcDbSymbolTableRecord
100
AcDbLayerTableRecord
  2
0
 70
     0
 62
     7
  6
CONTINUOUS
370
    -3
390
F
  0
LAYER
  5
1C70
330
2
100
AcDbSymbolTableRecord
100
AcDbLayerTableRecord
  2
Defpoints
 70
     0
 62
     7
  6
CONTINUOUS
290
     0
370
    -3
390
F
  0
LAYER
  5
39C2
330
2
100
AcDbSymbolTableRecord
100
AcDbLayerTableRecord
  2
Viewport Layer
 70
     0
 62
    -7
  6
CONTINUOUS
370
    -3
390
F
  0
LAYER
  5
3EF6
330
2
100
AcDbSymbolTableRecord
100
AcDbLayerTableRecord
  2
HIDDEN
 70
     0
 62
     7
  6
HIDDEN2
370
    -3
390
F
  0
ENDTAB
  0
TABLE
  2
STYLE
  5
3
330
0
100
AcDbSymbolTable
 70
     6
  0
STYLE
  5
11
330
3
100
AcDbSymbolTableRecord
100
AcDbTextStyleTableRecord
  2
Standard
 70
     0
 40
0.0
 41
1.0
 50
0.0
 71
     0
 42
0.2
  3
TIMES.TTF
  4

1001
ACAD
1000
Times New Roman
1071
       18
  0
STYLE
  5
2F
330
3
100
AcDbSymbolTableRecord
100
AcDbTextStyleTableRecord
  2
FONT0
 70
     0
 40
1.0
 41
1.0
 50
0.0
 71
     0
 42
1.0
  3
txt
  4

  0
STYLE
  5
30
330
3
100
AcDbSymbolTableRecord
100
AcDbTextStyleTableRecord
  2
FONT1
 70
     0
 40
1.0
 41
1.0
 50
0.0
 71
     0
 42
1.0
  3
txt
  4

  0
STYLE
  5
31
330
3
100
AcDbSymbolTableRecord
100
AcDbTextStyleTableRecord
  2
FONT2
 70
     0
 40
1.0
 41
1.0
 50
0.0
 71
     0
 42
1.0
  3
txt
  4

  0
STYLE
  5
32
330
3
100
AcDbSymbolTableRecord
100
AcDbTextStyleTableRecord
  2
FONT3
 70
     0
 40
1.0
 41
1.0
 50
0.0
 71
     0
 42
1.0
  3
txt
  4

  0
STYLE
  5
3EF4
330
3
100
AcDbSymbolTableRecord
100
AcDbTextStyleTableRecord
  2

 70
     1
 40
0.0
 41
1.0
 50
0.0
 71
     0
 42
0.2
  3
ltypeshp.shx
  4

  0
ENDTAB
  0
TABLE
  2
VIEW
  5
6
330
0
100
AcDbSymbolTable
 70
     3
  0
VIEW
  5
3B6C
330
6
100
AcDbSymbolTableRecord
100
AcDbViewTableRecord
  2
Page 1 Layout
 70
     0
 40
5.8
 10
6.0
 20
3.0
 41
11.8
 11
0.0
 21
0.0
 31
1.0
 12
0.0
 22
0.0
 32
0.0
 42
50.0
 43
0.0
 44
0.0
 50
0.0
 71
     0
281
     0
 72
     1
110
0.0
120
0.0
130
0.0
111
1.0
121
0.0
131
0.0
112
0.0
122
1.0
132
0.0
 79
     0
146
0.0
  0
VIEW
  5
3B6D
330
6
100
AcDbSymbolTableRecord
100
AcDbViewTableRecord
  2
Page 2 Portrait Layout
 70
     0
 40
11.8
 10
19.0
 20
6.0
 41
11.8
 11
0.0
 21
0.0
 31
1.0
 12
0.0
 22
0.0
 32
0.0
 42
50.0
 43
0.0
 44
0.0
 50
0.0
 71
     0
281
     0
 72
     1
110
0.0
120
0.0
130
0.0
111
1.0
121
0.0
131
0.0
112
0.0
122
1.0
132
0.0
 79
     0
146
0.0
  0
VIEW
  5
3C6D
330
6
100
AcDbSymbolTableRecord
100
AcDbViewTableRecord
  2
Page 2 Landscape Layout
 70
     0
 40
8.3
 10
34.0
 20
4.25
 41
15.8
 11
0.0
 21
0.0
 31
1.0
 12
0.0
 22
0.0
 32
0.0
 42
50.0
 43
0.0
 44
0.0
 50
0.0
 71
     0
281
     0
 72
     1
110
0.0
120
0.0
130
0.0
111
1.0
121
0.0
131
0.0
112
0.0
122
1.0
132
0.0
 79
     0
146
0.0
  0
ENDTAB
  0
TABLE
  2
UCS
  5
7
330
0
100
AcDbSymbolTable
 70
     0
  0
ENDTAB
  0
TABLE
  2
APPID
  5
9
330
0
100
AcDbSymbolTable
 70
     1
  0
APPID
  5
12
330
9
100
AcDbSymbolTableRecord
100
AcDbRegAppTableRecord
  2
ACAD
 70
     0
  0
ENDTAB
  0
TABLE
  2
DIMSTYLE
  5
A
330
0
100
AcDbSymbolTable
 70
     2
100
AcDbDimStyleTable
 71
     2
340
3F62
340
1BFC
  0
DIMSTYLE
105
1BFC
330
A
100
AcDbSymbolTableRecord
100
AcDbDimStyleTableRecord
  2
Standard
 70
     0
340
11
  0
DIMSTYLE
105
3F62
102
{ACAD_REACTORS
330
5547
330
5548
330
540C
330
540D
330
540E
330
5410
330
5440
330
5A00
330
426E
102
}
330
A
100
AcDbSymbolTableRecord
100
AcDbDimStyleTableRecord
  2
DIM STYLE 1
 70
     0
  4
mm
 41
0.15
 44
0.05
140
0.09
141
0.05
170
     1
271
     2
272
     2
277
     3
340
11
  0
ENDTAB
  0
TABLE
  2
BLOCK_RECORD
  5
1
330
0
100
AcDbSymbolTable
 70
    41
  0
BLOCK_RECORD
  5
1E
102
{ACAD_XDICTIONARY
360
4526
102
}
330
1
100
AcDbSymbolTableRecord
100
AcDbBlockTableRecord
  2
*Model_Space
340
21
  0
BLOCK_RECORD
  5
3697
330
1
100
AcDbSymbolTableRecord
100
AcDbBlockTableRecord
  2
*Paper_Space
340
3696
  0
BLOCK_RECORD
  5
35
330
1
100
AcDbSymbolTableRecord
100
AcDbBlockTableRecord
  2
F_015
340
0
  0
BLOCK_RECORD
  5
39
330
1
100
AcDbSymbolTableRecord
100
AcDbBlockTableRecord
  2
F_026
340
0
  0
BLOCK_RECORD
  5
40
330
1
100
AcDbSymbolTableRecord
100
AcDbBlockTableRecord
  2
F_032
340
0
  0
BLOCK_RECORD
  5
47
330
1
100
AcDbSymbolTableRecord
100
AcDbBlockTableRecord
  2
F_033
340
0
  0
BLOCK_RECORD
  5
4B
330
1
100
AcDbSymbolTableRecord
100
AcDbBlockTableRecord
  2
F_039
340
0
  0
BLOCK_RECORD
  5
52
330
1
100
AcDbSymbolTableRecord
100
AcDbBlockTableRecord
  2
F_041
340
0
  0
BLOCK_RECORD
  5
56
330
1
100
AcDbSymbolTableRecord
100
AcDbBlockTableRecord
  2
F_042
340
0
  0
BLOCK_RECORD
  5
5A
330
1
100
AcDbSymbolTableRecord
100
AcDbBlockTableRecord
  2
F_046
340
0
  0
BLOCK_RECORD
  5
5E
330
1
100
AcDbSymbolTableRecord
100
AcDbBlockTableRecord
  2
F_054
340
0
  0
BLOCK_RECORD
  5
65
330
1
100
AcDbSymbolTableRecord
100
AcDbBlockTableRecord
  2
F_056
340
0
  0
BLOCK_RECORD
  5
69
330
1
100
AcDbSymbolTableRecord
100
AcDbBlockTableRecord
  2
F_057
340
0
  0
BLOCK_RECORD
  5
2DD5
330
1
100
AcDbSymbolTableRecord
100
AcDbBlockTableRecord
  2
A$C02E13B6E
340
0
  0
BLOCK_RECORD
  5
31CD
330
1
100
AcDbSymbolTableRecord
100
AcDbBlockTableRecord
  2
A$C2D1730EF
340
0
  0
BLOCK_RECORD
  5
31E8
330
1
100
AcDbSymbolTableRecord
100
AcDbBlockTableRecord
  2
A$C2B5F7553
340
0
  0
BLOCK_RECORD
  5
2A96
330
1
100
AcDbSymbolTableRecord
100
AcDbBlockTableRecord
  2
*Paper_Space14
340
2A95
  0
BLOCK_RECORD
  5
3360
330
1
100
AcDbSymbolTableRecord
100
AcDbBlockTableRecord
  2
*Paper_Space15
340
33D1
  0
BLOCK_RECORD
  5
3743
330
1
100
AcDbSymbolTableRecord
100
AcDbBlockTableRecord
  2
A$C64F54320
340
0
  0
BLOCK_RECORD
  5
4169
330
1
100
AcDbSymbolTableRecord
100
AcDbBlockTableRecord
  2
*D17
340
0
  0
BLOCK_RECORD
  5
4176
330
1
100
AcDbSymbolTableRecord
100
AcDbBlockTableRecord
  2
*D18
340
0
  0
BLOCK_RECORD
  5
4183
330
1
100
AcDbSymbolTableRecord
100
AcDbBlockTableRecord
  2
*D19
340
0
  0
BLOCK_RECORD
  5
4190
330
1
100
AcDbSymbolTableRecord
100
AcDbBlockTableRecord
  2
*D20
340
0
  0
BLOCK_RECORD
  5
419D
330
1
100
AcDbSymbolTableRecord
100
AcDbBlockTableRecord
  2
*D21
340
0
  0
BLOCK_RECORD
  5
41AA
330
1
100
AcDbSymbolTableRecord
100
AcDbBlockTableRecord
  2
*D22
340
0
  0
BLOCK_RECORD
  5
41B7
330
1
100
AcDbSymbolTableRecord
100
AcDbBlockTableRecord
  2
*D23
340
0
  0
BLOCK_RECORD
  5
41C4
330
1
100
AcDbSymbolTableRecord
100
AcDbBlockTableRecord
  2
*D24
340
0
  0
BLOCK_RECORD
  5
41D1
330
1
100
AcDbSymbolTableRecord
100
AcDbBlockTableRecord
  2
*D25
340
0
  0
BLOCK_RECORD
  5
41DE
330
1
100
AcDbSymbolTableRecord
100
AcDbBlockTableRecord
  2
*D26
340
0
  0
BLOCK_RECORD
  5
41EB
330
1
100
AcDbSymbolTableRecord
100
AcDbBlockTableRecord
  2
*D27
340
0
  0
BLOCK_RECORD
  5
41F8
330
1
100
AcDbSymbolTableRecord
100
AcDbBlockTableRecord
  2
*D28
340
0
  0
BLOCK_RECORD
  5
4205
330
1
100
AcDbSymbolTableRecord
100
AcDbBlockTableRecord
  2
*D29
340
0
  0
BLOCK_RECORD
  5
4210
330
1
100
AcDbSymbolTableRecord
100
AcDbBlockTableRecord
  2
*D30
340
0
  0
BLOCK_RECORD
  5
421B
330
1
100
AcDbSymbolTableRecord
100
AcDbBlockTableRecord
  2
*D31
340
0
  0
BLOCK_RECORD
  5
4226
330
1
100
AcDbSymbolTableRecord
100
AcDbBlockTableRecord
  2
A$C5DEF5365
340
0
  0
BLOCK_RECORD
  5
5593
330
1
100
AcDbSymbolTableRecord
100
AcDbBlockTableRecord
  2
*D33
340
0
  0
BLOCK_RECORD
  5
55A0
330
1
100
AcDbSymbolTableRecord
100
AcDbBlockTableRecord
  2
*D34
340
0
  0
BLOCK_RECORD
  5
55AD
330
1
100
AcDbSymbolTableRecord
100
AcDbBlockTableRecord
  2
*D35
340
0
  0
BLOCK_RECORD
  5
55BA
330
1
100
AcDbSymbolTableRecord
100
AcDbBlockTableRecord
  2
*D36
340
0
  0
BLOCK_RECORD
  5
55C7
330
1
100
AcDbSymbolTableRecord
100
AcDbBlockTableRecord
  2
*D37
340
0
  0
BLOCK_RECORD
  5
55D4
330
1
100
AcDbSymbolTableRecord
100
AcDbBlockTableRecord
  2
*D38
340
0
  0
BLOCK_RECORD
  5
55E1
330
1
100
AcDbSymbolTableRecord
100
AcDbBlockTableRecord
  2
*D39
340
0
  0
BLOCK_RECORD
  5
5A01
330
1
100
AcDbSymbolTableRecord
100
AcDbBlockTableRecord
  2
*D40
340
0
  0
ENDTAB
  0
ENDSEC
  0
SECTION
  2
BLOCKS
  0
BLOCK
  5
1F
330
1E
100
AcDbEntity
  8
0
100
AcDbBlockBegin
  2
*Model_Space
 70
     0
 10
0.0
 20
0.0
 30
0.0
  3
*Model_Space
  1

  0
ENDBLK
  5
20
330
1E
100
AcDbEntity
  8
0
100
AcDbBlockEnd
  0
BLOCK
  5
36A4
330
3697
100
AcDbEntity
 67
     1
  8
0
370
    30
100
AcDbBlockBegin
  2
*Paper_Space
 70
     0
 10
0.0
 20
0.0
 30
0.0
  3
*Paper_Space
  1

  0
ENDBLK
  5
36A5
330
3697
100
AcDbEntity
 67
     1
  8
0
370
    30
100
AcDbBlockEnd
  0
BLOCK
  5
36
330
35
100
AcDbEntity
  8
0
100
AcDbBlockBegin
  2
F_015
 70
     0
 10
0.0
 20
0.0
 30
0.0
  3
F_015
  1

  0
SOLID
  5
37
330
35
100
AcDbEntity
  8
0
100
AcDbTrace
 10
0.0075
 20
0.031
 30
0.0
 11
-0.0075
 21
0.031
 31
0.0
 12
0.0075
 22
-0.031
 32
0.0
 13
-0.0075
 23
-0.031
 33
0.0
  0
ENDBLK
  5
38
330
35
100
AcDbEntity
  8
0
100
AcDbBlockEnd
  0
BLOCK
  5
3A
330
39
100
AcDbEntity
  8
0
100
AcDbBlockBegin
  2
F_026
 70
     0
 10
0.0
 20
0.0
 30
0.0
  3
F_026
  1

  0
LWPOLYLINE
  5
3B
330
39
100
AcDbEntity
  8
0
100
AcDbPolyline
 90
        2
 70
     1
 43
0.02
 10
0.01
 20
0.0
 42
1.0
 10
-0.01
 20
0.0
 42
1.0
  0
ENDBLK
  5
3F
330
39
100
AcDbEntity
  8
0
100
AcDbBlockEnd
  0
BLOCK
  5
41
330
40
100
AcDbEntity
  8
0
100
AcDbBlockBegin
  2
F_032
 70
     0
 10
0.0
 20
0.0
 30
0.0
  3
F_032
  1

  0
LWPOLYLINE
  5
42
330
40
100
AcDbEntity
  8
0
100
AcDbPolyline
 90
        2
 70
     1
 43
0.025
 10
0.0125
 20
0.0
 42
1.0
 10
-0.0125
 20
0.0
 42
1.0
  0
ENDBLK
  5
46
330
40
100
AcDbEntity
  8
0
100
AcDbBlockEnd
  0
BLOCK
  5
48
330
47
100
AcDbEntity
  8
0
100
AcDbBlockBegin
  2
F_033
 70
     0
 10
0.0
 20
0.0
 30
0.0
  3
F_033
  1

  0
SOLID
  5
49
330
47
100
AcDbEntity
  8
0
100
AcDbTrace
 10
0.025
 20
0.025
 30
0.0
 11
-0.025
 21
0.025
 31
0.0
 12
0.025
 22
-0.025
 32
0.0
 13
-0.025
 23
-0.025
 33
0.0
  0
ENDBLK
  5
4A
330
47
100
AcDbEntity
  8
0
100
AcDbBlockEnd
  0
BLOCK
  5
4C
330
4B
100
AcDbEntity
  8
0
100
AcDbBlockBegin
  2
F_039
 70
     0
 10
0.0
 20
0.0
 30
0.0
  3
F_039
  1

  0
LWPOLYLINE
  5
4D
330
4B
100
AcDbEntity
  8
0
100
AcDbPolyline
 90
        2
 70
     1
 43
0.03
 10
0.015
 20
0.0
 42
1.0
 10
-0.015
 20
0.0
 42
1.0
  0
ENDBLK
  5
51
330
4B
100
AcDbEntity
  8
0
100
AcDbBlockEnd
  0
BLOCK
  5
53
330
52
100
AcDbEntity
  8
0
100
AcDbBlockBegin
  2
F_041
 70
     0
 10
0.0
 20
0.0
 30
0.0
  3
F_041
  1

  0
SOLID
  5
54
330
52
100
AcDbEntity
  8
0
100
AcDbTrace
 10
0.03
 20
0.03
 30
0.0
 11
-0.03
 21
0.03
 31
0.0
 12
0.03
 22
-0.03
 32
0.0
 13
-0.03
 23
-0.03
 33
0.0
  0
ENDBLK
  5
55
330
52
100
AcDbEntity
  8
0
100
AcDbBlockEnd
  0
BLOCK
  5
57
330
56
100
AcDbEntity
  8
0
100
AcDbBlockBegin
  2
F_042
 70
     0
 10
0.0
 20
0.0
 30
0.0
  3
F_042
  1

  0
SOLID
  5
58
330
56
100
AcDbEntity
  8
0
100
AcDbTrace
 10
0.03
 20
0.03
 30
0.0
 11
-0.03
 21
0.03
 31
0.0
 12
0.03
 22
-0.03
 32
0.0
 13
-0.03
 23
-0.03
 33
0.0
  0
ENDBLK
  5
59
330
56
100
AcDbEntity
  8
0
100
AcDbBlockEnd
  0
BLOCK
  5
5B
330
5A
100
AcDbEntity
  8
0
100
AcDbBlockBegin
  2
F_046
 70
     0
 10
0.0
 20
0.0
 30
0.0
  3
F_046
  1

  0
SOLID
  5
5C
330
5A
100
AcDbEntity
  8
0
100
AcDbTrace
 10
0.031
 20
0.0075
 30
0.0
 11
-0.031
 21
0.0075
 31
0.0
 12
0.031
 22
-0.0075
 32
0.0
 13
-0.031
 23
-0.0075
 33
0.0
  0
ENDBLK
  5
5D
330
5A
100
AcDbEntity
  8
0
100
AcDbBlockEnd
  0
BLOCK
  5
5F
330
5E
100
AcDbEntity
  8
0
100
AcDbBlockBegin
  2
F_054
 70
     0
 10
0.0
 20
0.0
 30
0.0
  3
F_054
  1

  0
LWPOLYLINE
  5
60
330
5E
100
AcDbEntity
  8
0
100
AcDbPolyline
 90
        2
 70
     1
 43
0.048
 10
0.024
 20
0.0
 42
1.0
 10
-0.024
 20
0.0
 42
1.0
  0
ENDBLK
  5
64
330
5E
100
AcDbEntity
  8
0
100
AcDbBlockEnd
  0
BLOCK
  5
66
330
65
100
AcDbEntity
  8
0
100
AcDbBlockBegin
  2
F_056
 70
     0
 10
0.0
 20
0.0
 30
0.0
  3
F_056
  1

  0
SOLID
  5
67
330
65
100
AcDbEntity
  8
0
100
AcDbTrace
 10
0.075
 20
0.075
 30
0.0
 11
-0.075
 21
0.075
 31
0.0
 12
0.075
 22
-0.075
 32
0.0
 13
-0.075
 23
-0.075
 33
0.0
  0
ENDBLK
  5
68
330
65
100
AcDbEntity
  8
0
100
AcDbBlockEnd
  0
BLOCK
  5
6A
330
69
100
AcDbEntity
  8
0
100
AcDbBlockBegin
  2
F_057
 70
     0
 10
0.0
 20
0.0
 30
0.0
  3
F_057
  1

  0
LWPOLYLINE
  5
6B
330
69
100
AcDbEntity
  8
0
100
AcDbPolyline
 90
        2
 70
     1
 43
0.15
 10
0.075
 20
0.0
 42
1.0
 10
-0.075
 20
0.0
 42
1.0
  0
ENDBLK
  5
6F
330
69
100
AcDbEntity
  8
0
100
AcDbBlockEnd
  0
BLOCK
  5
2DD7
330
2DD5
100
AcDbEntity
  8
0
370
    30
100
AcDbBlockBegin
  2
A$C02E13B6E
 70
     0
 10
0.0
 20
0.0
 30
0.0
  3
A$C02E13B6E
  1

  0
MTEXT
  5
2DD6
330
2DD5
100
AcDbEntity
  8
0
  6
Continuous
370
    30
100
AcDbMText
 10
0.0061000008915741
 20
0.1178557990997175
 30
0.0
 40
0.075
 41
0.6
 71
     1
 72
     5
  1
{\fCourier New|b0|i0|c0|p49;NO}
 73
     1
 44
1.0
  0
ENDBLK
  5
2DD8
330
2DD5
100
AcDbEntity
  8
0
370
    30
100
AcDbBlockEnd
  0
BLOCK
  5
31E6
330
31CD
100
AcDbEntity
  8
0
370
    30
100
AcDbBlockBegin
  2
A$C2D1730EF
 70
     0
 10
0.0
 20
0.0
 30
0.0
  3
A$C2D1730EF
  1

  0
LINE
  5
31CE
330
31CD
100
AcDbEntity
  8
0
  6
Continuous
370
    30
100
AcDbLine
 10
-0.0000000176838428
 20
0.0000000059601302
 30
0.0
 11
3.899999982316158
 21
0.0000000059601302
 31
0.0
  0
MTEXT
  5
31CF
330
31CD
100
AcDbEntity
  8
0
  6
Continuous
370
    30
100
AcDbMText
 10
1.999999982316158
 20
0.6000000059601299
 30
0.0
 40
0.1
 41
1.1
 71
     1
 72
     5
  1
{\fCourier New|b0|i0|c0|p49;06-15-07}
 73
     1
 44
1.0
  0
LINE
  5
31D0
330
31CD
100
AcDbEntity
  8
0
  6
Continuous
370
    30
100
AcDbLine
 10
-0.0000000176838428
 20
0.4000000059601306
 30
0.0
 11
3.899999982316158
 21
0.4000000059601306
 31
0.0
  0
MTEXT
  5
31D1
330
31CD
100
AcDbEntity
  8
0
  6
Continuous
370
    30
100
AcDbMText
 10
1.699999982316157
 20
1.100000005960129
 30
0.0
 40
0.14
 41
2.2
 71
     1
 72
     5
  1
{\fCourier New|b0|i0|c0|p49;123456789012345}
 73
     1
 44
1.0
  0
MTEXT
  5
31D2
330
31CD
100
AcDbEntity
  8
0
  6
Continuous
370
    30
100
AcDbMText
 10
2.724999982316156
 20
1.450000005960127
 30
0.0
 40
0.2
 41
2.35
 71
     2
 72
     5
  1
{\fArial|b0|i0|c0|p34;ITEM NUMBER}
 73
     1
 44
1.0
  0
LINE
  5
31D3
330
31CD
100
AcDbEntity
  8
0
  6
Continuous
370
    30
100
AcDbLine
 10
-0.0000000176838428
 20
0.8000000059601291
 30
0.0
 11
3.899999982316158
 21
0.8000000059601291
 31
0.0
  0
MTEXT
  5
31D4
330
31CD
100
AcDbEntity
  8
0
  6
Continuous
370
    30
100
AcDbMText
 10
0.0749999823161574
 20
0.9500000059601294
 30
0.0
 40
0.075
 41
1.425
 71
     1
 72
     5
  1
{\fTimes New Roman|b1|i1|c0|p18;Automation Components, Inc.}
 73
     1
 44
1.0
  0
MTEXT
  5
31D5
330
31CD
100
AcDbEntity
  8
0
  6
Continuous
370
    30
100
AcDbMText
 10
0.0749999823161574
 20
1.50000000596013
 30
0.0
 40
0.5
 41
1.425
 71
     1
 72
     5
  1
{\fTimes New Roman|b1|i1|c0|p18;ACI}
 73
     1
 44
1.0
  0
LINE
  5
31D6
330
31CD
100
AcDbEntity
  8
0
  6
Continuous
370
    30
100
AcDbLine
 10
-0.0000000176838428
 20
1.550000005960129
 30
0.0
 11
-0.0000000176838428
 21
0.0000000059601302
 31
0.0
  0
MTEXT
  5
31D7
330
31CD
100
AcDbEntity
  8
0
  6
Continuous
370
    30
100
AcDbMText
 10
0.1999999823161573
 20
0.6000000059601299
 30
0.0
 40
0.1
 41
1.077199999999999
 71
     1
 72
     5
  1
{\fCourier New|b0|i0|c0|p49;33nnnnnn}
 73
     1
 44
1.0
  0
MTEXT
  5
31D8
330
31CD
100
AcDbEntity
  8
0
  6
Continuous
370
    30
100
AcDbMText
 10
0.0999999823161577
 20
0.7500000059601302
 30
0.0
 40
0.075
 41
1.399999999999999
 71
     1
 72
     5
  1
{\fArial|b0|i0|c0|p34;DRAWING NUMBER}
 73
     1
 44
1.0
  0
MTEXT
  5
31D9
330
31CD
100
AcDbEntity
  8
0
  6
Continuous
370
    30
100
AcDbMText
 10
0.1999999823161573
 20
0.2000000059601295
 30
0.0
 40
0.1
 41
3.75
 71
     1
 72
     5
  1
{\fCourier New|b0|i0|c0|p49;ECO: }
 73
     1
 44
1.0
  0
MTEXT
  5
31DA
330
31CD
100
AcDbEntity
  8
0
  6
Continuous
370
    30
100
AcDbMText
 10
0.0999999823161577
 20
0.3500000059601298
 30
0.0
 40
0.075
 41
3.799999999999999
 71
     1
 72
     5
  1
{\fArial|b0|i0|c0|p34;ECO/REASON}
 73
     1
 44
1.0
  0
LINE
  5
31DB
330
31CD
100
AcDbEntity
  8
0
  6
Continuous
370
    30
100
AcDbLine
 10
1.499999982316157
 20
1.550000005960129
 30
0.0
 11
1.499999982316158
 21
0.8000000059601291
 31
0.0
  0
MTEXT
  5
31DC
330
31CD
100
AcDbEntity
  8
0
  6
Continuous
370
    30
100
AcDbMText
 10
1.599999982316157
 20
0.6000000059601299
 30
0.0
 40
0.1
 41
0.3
 71
     1
 72
     5
  1
{\fCourier New|b0|i0|c0|p49;1}
 73
     1
 44
1.0
  0
LINE
  5
31DD
330
31CD
100
AcDbEntity
  8
0
  6
Continuous
370
    30
100
AcDbLine
 10
1.499999982316158
 20
0.8000000059601291
 30
0.0
 11
1.499999982316158
 21
0.4000000059601306
 31
0.0
  0
MTEXT
  5
31DE
330
31CD
100
AcDbEntity
  8
0
  6
Continuous
370
    30
100
AcDbMText
 10
1.599999982316157
 20
0.7500000059601302
 30
0.0
 40
0.075
 41
0.4999999999999988
 71
     1
 72
     5
  1
{\fArial|b0|i0|c0|p34;REV}
 73
     1
 44
1.0
  0
LINE
  5
31DF
330
31CD
100
AcDbEntity
  8
0
  6
Continuous
370
    30
100
AcDbLine
 10
1.899999982316157
 20
0.7500000059601284
 30
0.0
 11
1.899999982316157
 21
0.4000000059601306
 31
0.0
  0
MTEXT
  5
31E0
330
31CD
100
AcDbEntity
  8
0
  6
Continuous
370
    30
100
AcDbMText
 10
1.999999982316158
 20
0.7500000059601302
 30
0.0
 40
0.075
 41
0.399999999999999
 71
     1
 72
     5
  1
{\fArial|b0|i0|c0|p34;DATE}
 73
     1
 44
1.0
  0
MTEXT
  5
31E1
330
31CD
100
AcDbEntity
  8
0
  6
Continuous
370
    30
100
AcDbMText
 10
3.099999982316157
 20
0.3500000059601298
 30
0.0
 40
0.075
 41
0.8000000000000005
 71
     1
 72
     5
  1
{\fArial|b0|i0|c0|p34;APPROVED BY}
 73
     1
 44
1.0
  0
MTEXT
  5
31E2
330
31CD
100
AcDbEntity
  8
0
  6
Continuous
370
    30
100
AcDbMText
 10
3.099999982316157
 20
0.2000000059601295
 30
0.0
 40
0.1
 41
0.3716
 71
     1
 72
     5
  1
{\fCourier New|b0|i0|c0|p49;INI}
 73
     1
 44
1.0
  0
MTEXT
  5
31E3
330
31CD
100
AcDbEntity
  8
0
  6
Continuous
370
    30
100
AcDbMText
 10
3.099999982316157
 20
0.6000000059601299
 30
0.0
 40
0.1
 41
0.5
 71
     1
 72
     5
  1
{\fCourier New|b0|i0|c0|p49;INI}
 73
     1
 44
1.0
  0
MTEXT
  5
31E4
330
31CD
100
AcDbEntity
  8
0
  6
Continuous
370
    30
100
AcDbMText
 10
3.099999982316157
 20
0.7500000059601302
 30
0.0
 40
0.075
 41
0.7999999999999992
 71
     1
 72
     5
  1
{\fArial|b0|i0|c0|p34;DRAWN BY}
 73
     1
 44
1.0
  0
LINE
  5
31E5
330
31CD
100
AcDbEntity
  8
0
  6
Continuous
370
    30
100
AcDbLine
 10
2.999999982316158
 20
0.8000000059601291
 30
0.0
 11
2.999999982316158
 21
0.0000000059601302
 31
0.0
  0
ENDBLK
  5
31E7
330
31CD
100
AcDbEntity
  8
0
370
    30
100
AcDbBlockEnd
  0
BLOCK
  5
3201
330
31E8
100
AcDbEntity
  8
0
370
    30
100
AcDbBlockBegin
  2
A$C2B5F7553
 70
     0
 10
0.0
 20
0.0
 30
0.0
  3
A$C2B5F7553
  1

  0
LINE
  5
31E9
330
31E8
100
AcDbEntity
  8
0
  6
Continuous
370
    30
100
AcDbLine
 10
-0.0000000176838428
 20
0.0000000059601302
 30
0.0
 11
3.899999982316158
 21
0.0000000059601302
 31
0.0
  0
MTEXT
  5
31EA
330
31E8
100
AcDbEntity
  8
0
  6
Continuous
370
    30
100
AcDbMText
 10
1.999999982316158
 20
0.6000000059601299
 30
0.0
 40
0.1
 41
1.1
 71
     1
 72
     5
  1
{\fCourier New|b0|i0|c0|p49;06-15-07}
 73
     1
 44
1.0
  0
LINE
  5
31EB
330
31E8
100
AcDbEntity
  8
0
  6
Continuous
370
    30
100
AcDbLine
 10
-0.0000000176838428
 20
0.4000000059601306
 30
0.0
 11
3.899999982316158
 21
0.4000000059601306
 31
0.0
  0
MTEXT
  5
31EC
330
31E8
100
AcDbEntity
  8
0
  6
Continuous
370
    30
100
AcDbMText
 10
1.699999982316157
 20
1.100000005960129
 30
0.0
 40
0.14
 41
2.2
 71
     1
 72
     5
  1
{\fCourier New|b0|i0|c0|p49;123456789012345}
 73
     1
 44
1.0
  0
MTEXT
  5
31ED
330
31E8
100
AcDbEntity
  8
0
  6
Continuous
370
    30
100
AcDbMText
 10
2.724999982316156
 20
1.450000005960127
 30
0.0
 40
0.2
 41
2.35
 71
     2
 72
     5
  1
{\fArial|b0|i0|c0|p34;ITEM NUMBER}
 73
     1
 44
1.0
  0
LINE
  5
31EE
330
31E8
100
AcDbEntity
  8
0
  6
Continuous
370
    30
100
AcDbLine
 10
-0.0000000176838428
 20
0.8000000059601291
 30
0.0
 11
3.899999982316158
 21
0.8000000059601291
 31
0.0
  0
MTEXT
  5
31EF
330
31E8
100
AcDbEntity
  8
0
  6
Continuous
370
    30
100
AcDbMText
 10
0.0749999823161574
 20
0.9500000059601294
 30
0.0
 40
0.075
 41
1.425
 71
     1
 72
     5
  1
{\fTimes New Roman|b1|i1|c0|p18;Automation Components, Inc.}
 73
     1
 44
1.0
  0
MTEXT
  5
31F0
330
31E8
100
AcDbEntity
  8
0
  6
Continuous
370
    30
100
AcDbMText
 10
0.0749999823161574
 20
1.50000000596013
 30
0.0
 40
0.5
 41
1.425
 71
     1
 72
     5
  1
{\fTimes New Roman|b1|i1|c0|p18;ACI}
 73
     1
 44
1.0
  0
LINE
  5
31F1
330
31E8
100
AcDbEntity
  8
0
  6
Continuous
370
    30
100
AcDbLine
 10
-0.0000000176838428
 20
1.550000005960129
 30
0.0
 11
-0.0000000176838428
 21
0.0000000059601302
 31
0.0
  0
MTEXT
  5
31F2
330
31E8
100
AcDbEntity
  8
0
  6
Continuous
370
    30
100
AcDbMText
 10
0.1999999823161573
 20
0.6000000059601299
 30
0.0
 40
0.1
 41
1.077199999999999
 71
     1
 72
     5
  1
{\fCourier New|b0|i0|c0|p49;33nnnnnn}
 73
     1
 44
1.0
  0
MTEXT
  5
31F3
330
31E8
100
AcDbEntity
  8
0
  6
Continuous
370
    30
100
AcDbMText
 10
0.0999999823161577
 20
0.7500000059601302
 30
0.0
 40
0.075
 41
1.399999999999999
 71
     1
 72
     5
  1
{\fArial|b0|i0|c0|p34;DRAWING NUMBER}
 73
     1
 44
1.0
  0
MTEXT
  5
31F4
330
31E8
100
AcDbEntity
  8
0
  6
Continuous
370
    30
100
AcDbMText
 10
0.1999999823161573
 20
0.2000000059601295
 30
0.0
 40
0.1
 41
2.8
 71
     1
 72
     5
  1
{\fCourier New|b0|i0|c0|p49;ECO: }
 73
     1
 44
1.0
  0
MTEXT
  5
31F5
330
31E8
100
AcDbEntity
  8
0
  6
Continuous
370
    30
100
AcDbMText
 10
0.0999999823161577
 20
0.3500000059601298
 30
0.0
 40
0.075
 41
3.799999999999999
 71
     1
 72
     5
  1
{\fArial|b0|i0|c0|p34;ECO/REASON}
 73
     1
 44
1.0
  0
LINE
  5
31F6
330
31E8
100
AcDbEntity
  8
0
  6
Continuous
370
    30
100
AcDbLine
 10
1.499999982316157
 20
1.550000005960129
 30
0.0
 11
1.499999982316158
 21
0.8000000059601291
 31
0.0
  0
MTEXT
  5
31F7
330
31E8
100
AcDbEntity
  8
0
  6
Continuous
370
    30
100
AcDbMText
 10
1.599999982316157
 20
0.6000000059601299
 30
0.0
 40
0.1
 41
0.3
 71
     1
 72
     5
  1
{\fCourier New|b0|i0|c0|p49;1}
 73
     1
 44
1.0
  0
LINE
  5
31F8
330
31E8
100
AcDbEntity
  8
0
  6
Continuous
370
    30
100
AcDbLine
 10
1.499999982316158
 20
0.8000000059601291
 30
0.0
 11
1.499999982316158
 21
0.4000000059601306
 31
0.0
  0
MTEXT
  5
31F9
330
31E8
100
AcDbEntity
  8
0
  6
Continuous
370
    30
100
AcDbMText
 10
1.599999982316157
 20
0.7500000059601302
 30
0.0
 40
0.075
 41
0.4999999999999988
 71
     1
 72
     5
  1
{\fArial|b0|i0|c0|p34;REV}
 73
     1
 44
1.0
  0
LINE
  5
31FA
330
31E8
100
AcDbEntity
  8
0
  6
Continuous
370
    30
100
AcDbLine
 10
1.899999982316157
 20
0.7500000059601284
 30
0.0
 11
1.899999982316157
 21
0.4000000059601306
 31
0.0
  0
MTEXT
  5
31FB
330
31E8
100
AcDbEntity
  8
0
  6
Continuous
370
    30
100
AcDbMText
 10
1.999999982316158
 20
0.7500000059601302
 30
0.0
 40
0.075
 41
0.399999999999999
 71
     1
 72
     5
  1
{\fArial|b0|i0|c0|p34;DATE}
 73
     1
 44
1.0
  0
MTEXT
  5
31FC
330
31E8
100
AcDbEntity
  8
0
  6
Continuous
370
    30
100
AcDbMText
 10
3.099999982316157
 20
0.3500000059601298
 30
0.0
 40
0.075
 41
0.8000000000000005
 71
     1
 72
     5
  1
{\fArial|b0|i0|c0|p34;APPROVED BY}
 73
     1
 44
1.0
  0
MTEXT
  5
31FD
330
31E8
100
AcDbEntity
  8
0
  6
Continuous
370
    30
100
AcDbMText
 10
3.099999982316157
 20
0.2000000059601295
 30
0.0
 40
0.1
 41
0.3716
 71
     1
 72
     5
  1
{\fCourier New|b0|i0|c0|p49;INI}
 73
     1
 44
1.0
  0
MTEXT
  5
31FE
330
31E8
100
AcDbEntity
  8
0
  6
Continuous
370
    30
100
AcDbMText
 10
3.099999982316157
 20
0.6000000059601299
 30
0.0
 40
0.1
 41
0.5
 71
     1
 72
     5
  1
{\fCourier New|b0|i0|c0|p49;INI}
 73
     1
 44
1.0
  0
MTEXT
  5
31FF
330
31E8
100
AcDbEntity
  8
0
  6
Continuous
370
    30
100
AcDbMText
 10
3.099999982316157
 20
0.7500000059601302
 30
0.0
 40
0.075
 41
0.7999999999999992
 71
     1
 72
     5
  1
{\fArial|b0|i0|c0|p34;DRAWN BY}
 73
     1
 44
1.0
  0
LINE
  5
3200
330
31E8
100
AcDbEntity
  8
0
  6
Continuous
370
    30
100
AcDbLine
 10
2.999999982316158
 20
0.8000000059601291
 30
0.0
 11
2.999999982316158
 21
0.0000000059601302
 31
0.0
  0
ENDBLK
  5
3202
330
31E8
100
AcDbEntity
  8
0
370
    30
100
AcDbBlockEnd
  0
BLOCK
  5
2AA3
330
2A96
100
AcDbEntity
  8
0
370
    30
100
AcDbBlockBegin
  2
*Paper_Space14
 70
     0
 10
0.0
 20
0.0
 30
0.0
  3
*Paper_Space14
  1

  0
VIEWPORT
  5
2A97
330
2A96
100
AcDbEntity
  8
0
  6
Continuous
100
AcDbViewport
 10
5.82853876874466
 20
7.647372536837691
 30
0.0
 40
11.92942738997307
 41
6.442897493318793
 69
     0
 12
5.82853876874466
 22
7.647372536837691
 13
0.0
 23
0.0
 14
0.05
 24
0.05
 15
0.1
 25
0.1
 16
0.0
 26
0.0
 36
1.0
 17
0.0
 27
0.0
 37
0.0
 42
50.0
 43
0.0
 44
0.0
 45
6.442897493318793
 50
0.0
 51
0.0
 72
   100
 90
    33568
  1

281
     0
 71
     1
 74
     0
110
0.0
120
0.0
130
0.0
111
1.0
121
0.0
131
0.0
112
0.0
122
1.0
132
0.0
 79
     0
146
0.0
  0
VIEWPORT
  5
2A98
330
2A96
100
AcDbEntity
  8
Viewport Layer
  6
Continuous
370
    30
100
AcDbViewport
 10
4.125
 20
2.725
 30
0.0
 40
8.05
 41
4.25
 69
     0
 12
6.0
 22
3.0
 13
0.0
 23
0.0
 14
1.0
 24
1.0
 15
0.0
 25
0.0
 16
0.0
 26
0.0
 36
1.0
 17
0.0
 27
0.0
 37
0.0
 42
50.0
 43
0.0
 44
0.0
 45
5.666666666666666
 50
0.0
 51
0.0
 72
   100
 90
    32800
  1

281
     0
 71
     1
 74
     0
110
0.0
120
0.0
130
0.0
111
1.0
121
0.0
131
0.0
112
0.0
122
1.0
132
0.0
 79
     0
146
0.0
  0
LINE
  5
2A9B
330
2A96
100
AcDbEntity
  8
0
  6
Continuous
370
    30
100
AcDbLine
 10
8.200000000000001
 20
5.8
 30
0.0
 11
4.299999999999999
 21
5.8
 31
0.0
  0
LINE
  5
2A9D
330
2A96
100
AcDbEntity
  8
0
  6
Continuous
370
    30
100
AcDbLine
 10
4.299999999999999
 20
10.74999999999999
 30
0.0
 11
4.299999999999999
 21
4.9
 31
0.0
  0
MTEXT
  5
2A9E
330
2A96
100
AcDbEntity
  8
0
  6
Continuous
370
    30
100
AcDbMText
 10
4.5
 20
5.6
 30
0.0
 40
0.075
 41
1.999999999999999
 71
     1
 72
     5
  1
{\fCourier New|b0|i0|c0|p49;3 PLACE DECIMAL = ±0.005\P2 PLACE DECIMAL = ±0.015\P1 PLACE DECIMAL = ±0.050\PALL DIMENSIONS IN INCHES.\PDRAWING NOT TO SCALE.}
 73
     1
 44
1.0
  0
MTEXT
  5
2A9F
330
2A96
100
AcDbEntity
  8
0
  6
Continuous
370
    30
100
AcDbMText
 10
4.375
 20
10.7
 30
0.0
 40
0.5
 41
1.425
 71
     1
 72
     5
  1
{\fTimes New Roman|b1|i1|c0|p18;ACI}
 73
     1
 44
1.0
  0
MTEXT
  5
2AA0
330
2A96
100
AcDbEntity
  8
0
  6
Continuous
370
    30
100
AcDbMText
 10
4.375
 20
10.15
 30
0.0
 40
0.075
 41
1.425
 71
     1
 72
     5
  1
{\fTimes New Roman|b1|i1|c0|p18;Automation Components, Inc.}
 73
     1
 44
1.0
  0
LINE
  5
2AA1
330
2A96
100
AcDbEntity
  8
0
  6
Continuous
370
    30
100
AcDbLine
 10
6.5
 20
5.8
 30
0.0
 11
6.5
 21
4.9
 31
0.0
  0
MTEXT
  5
2AA2
330
2A96
100
AcDbEntity
  8
0
  6
Continuous
370
    30
100
AcDbMText
 10
6.7
 20
5.6
 30
0.0
 40
0.075
 41
1.5
 71
     1
 72
     5
  1
{\fCourier New|b0|i0|c0|p49;CONFIDENTIAL INFORMATION-- PROPERTY OF ACI. UNAUTHORIZED USE STRICTLY FORBIDDEN.}
 73
     1
 44
1.0
  0
LINE
  5
2B6D
330
2A96
100
AcDbEntity
  8
0
  6
Continuous
370
    30
100
AcDbLine
 10
4.299999999999999
 20
10.0
 30
0.0
 11
8.200000000000001
 21
10.0
 31
0.0
  0
LINE
  5
2B6E
330
2A96
100
AcDbEntity
  8
0
  6
Continuous
370
    30
100
AcDbLine
 10
5.799999999999999
 20
10.74999999999999
 30
0.0
 11
5.8
 21
10.0
 31
0.0
  0
MTEXT
  5
2B6F
330
2A96
100
AcDbEntity
  8
0
  6
Continuous
370
    30
100
AcDbMText
 10
7.0
 20
10.7
 30
0.0
 40
0.2
 41
2.399999999999999
 71
     2
 72
     5
  1
{\fArial|b0|i0|c0|p34;ITEM NUMBER}
 73
     1
 44
1.0
  0
MTEXT
  5
2B71
330
2A96
100
AcDbEntity
  8
0
  6
Continuous
370
    30
100
AcDbMText
 10
6.0
 20
10.4
 30
0.0
 40
0.14
 41
2.2
 71
     1
 72
     5
  1
{\fCourier New|b0|i0|c0|p49;123456789012345}
 73
     1
 44
1.0
  0
MTEXT
  5
2B72
330
2A96
100
AcDbEntity
  8
0
  6
Continuous
370
    30
100
AcDbMText
 10
4.4
 20
9.05
 30
0.0
 40
0.075
 41
3.799999999999999
 71
     1
 72
     5
  1
{\fArial|b0|i0|c0|p34;TECHNICAL DESCRIPTION}
 73
     1
 44
1.0
  0
MTEXT
  5
2B73
330
2A96
100
AcDbEntity
  8
0
  6
Continuous
370
    30
100
AcDbMText
 10
5.8
 20
9.649999999999998
 30
0.0
 40
0.075
 41
2.399999999999999
 71
     1
 72
     5
  1
{\fCourier New|b0|i0|c0|p49;Maximum 30 characters per box.}
 73
     1
 44
1.0
  0
MTEXT
  5
2B80
330
2A96
100
AcDbEntity
  8
0
  6
Continuous
370
    30
100
AcDbMText
 10
0.1
 20
10.7
 30
0.0
 40
0.075
 41
1.699999999999999
 71
     1
 72
     5
  1
{\fArial|b0|i0|c0|p34;APPROVED MANUFACTURER}
 73
     1
 44
1.0
  0
MTEXT
  5
2B81
330
2A96
100
AcDbEntity
  8
0
  6
Continuous
370
    30
100
AcDbMText
 10
3.5
 20
4.9
 30
0.0
 40
0.2
 41
2.799999999999999
 71
     1
 72
     5
  1

 73
     1
 44
1.0
  0
MTEXT
  5
2B82
330
2A96
100
AcDbEntity
  8
0
  6
Continuous
370
    30
100
AcDbMText
 10
2.3
 20
10.7
 30
0.0
 40
0.075
 41
1.8
 71
     1
 72
     5
  1
{\fArial|b0|i0|c0|p34;MANUFACTURER NUMBER}
 73
     1
 44
1.0
  0
MTEXT
  5
2B83
330
2A96
100
AcDbEntity
  8
0
  6
Continuous
370
    30
100
AcDbMText
 10
2.2
 20
7.4
 30
0.0
 40
0.075
 41
0.3999999999999998
 71
     1
 72
     5
  1
{\fArial|b0|i0|c0|p34;MTBF}
 73
     1
 44
1.0
  0
MTEXT
  5
2B85
330
2A96
100
AcDbEntity
  8
0
  6
Continuous
370
    30
100
AcDbMText
 10
0.3
 20
7.400000000000001
 30
0.0
 40
0.075
 41
0.5999999999999999
 71
     1
 72
     5
  1
{\fArial|b0|i0|c0|p34;UL}
 73
     1
 44
1.0
  0
MTEXT
  5
2B86
330
2A96
100
AcDbEntity
  8
0
  6
Continuous
370
    30
100
AcDbMText
 10
1.0
 20
7.400000000000001
 30
0.0
 40
0.075
 41
0.3
 71
     1
 72
     5
  1
{\fArial|b0|i0|c0|p34;CE}
 73
     1
 44
1.0
  0
MTEXT
  5
2B87
330
2A96
100
AcDbEntity
  8
0
  6
Continuous
370
    30
100
AcDbMText
 10
1.4
 20
7.400000000000001
 30
0.0
 40
0.075
 41
0.7000000000000001
 71
     1
 72
     5
  1
{\fArial|b0|i0|c0|p34;ROHS/CODE}
 73
     1
 44
1.0
  0
MTEXT
  5
2BEB
330
2A96
100
AcDbEntity
  8
0
  6
Continuous
370
    30
100
AcDbMText
 10
2.3
 20
10.5
 30
0.0
 40
0.075
 41
2.0
 71
     1
 72
     5
  1
{\fCourier New|b0|i0|c0|p49;Part}
 73
     1
 44
1.0
  0
MTEXT
  5
2BF1
330
2A96
100
AcDbEntity
  8
0
  6
Continuous
370
    30
100
AcDbMText
 10
0.3
 20
7.200000000000001
 30
0.0
 40
0.075
 41
0.6
 71
     1
 72
     5
  1
{\fCourier New|b0|i0|c0|p49;NO}
 73
     1
 44
1.0
  0
MTEXT
  5
2BF9
330
2A96
100
AcDbEntity
  8
0
  6
Continuous
370
    30
100
AcDbMText
 10
1.0
 20
7.200000000000001
 30
0.0
 40
0.075
 41
0.3
 71
     1
 72
     5
  1
{\fCourier New|b0|i0|c0|p49;NO}
 73
     1
 44
1.0
  0
MTEXT
  5
2C00
330
2A96
100
AcDbEntity
  8
0
  6
Continuous
370
    30
100
AcDbMText
 10
1.4
 20
7.200000000000001
 30
0.0
 40
0.075
 41
0.7
 71
     1
 72
     5
  1
{\fCourier New|b0|i0|c0|p49;NO}
 73
     1
 44
1.0
  0
MTEXT
  5
2C07
330
2A96
100
AcDbEntity
  8
0
  6
Continuous
370
    30
100
AcDbMText
 10
2.7
 20
7.2
 30
0.0
 40
0.075
 41
0.6
 71
     1
 72
     5
  1
{\fCourier New|b0|i0|c0|p49;INI}
 73
     1
 44
1.0
  0
MTEXT
  5
2C30
330
2A96
100
AcDbEntity
  8
0
  6
Continuous
370
    30
100
AcDbMText
 10
4.4
 20
9.450000000000001
 30
0.0
 40
0.075
 41
1.7
 71
     1
 72
     5
  1
{\fArial|b0|i0|c0|p34;INCOMING INSPECTION}
 73
     1
 44
1.0
  0
MTEXT
  5
2C36
330
2A96
100
AcDbEntity
  8
0
  6
Continuous
370
    30
100
AcDbMText
 10
4.5
 20
9.284230769230768
 30
0.0
 40
0.075
 41
3.7
 71
     1
 72
     5
  1
{\fCourier New|b0|i0|c0|p49;Incoming inspection per drawing 3400nnnn.}
 73
     1
 44
1.0
  0
LINE
  5
2C37
330
2A96
100
AcDbEntity
  8
0
  6
Continuous
370
    30
100
AcDbLine
 10
4.299999999999999
 20
9.099999999999999
 30
0.0
 11
8.200000000000001
 21
9.099999999999999
 31
0.0
  0
LINE
  5
2C7F
330
2A96
100
AcDbEntity
  8
0
  6
Continuous
370
    30
100
AcDbLine
 10
0.05
 20
10.6
 30
0.0
 11
4.299999999999999
 21
10.6
 31
0.0
  0
LINE
  5
2C81
330
2A96
100
AcDbEntity
  8
0
  6
Continuous
370
    30
100
AcDbLine
 10
2.2
 20
10.74999999999999
 30
0.0
 11
2.2
 21
8.200000000000001
 31
0.0
  0
LINE
  5
2C82
330
2A96
100
AcDbEntity
  8
0
  6
Continuous
370
    30
100
AcDbLine
 10
0.05
 20
10.3
 30
0.0
 11
4.299999999999999
 21
10.3
 31
0.0
  0
MTEXT
  5
2C88
330
2A96
100
AcDbEntity
  8
0
  6
Continuous
370
    30
100
AcDbMText
 10
0.1
 20
10.5
 30
0.0
 40
0.075
 41
0.2000000000000001
 71
     1
 72
     5
  1
{\fCourier New|b0|i0|c0|p49;1.}
 73
     1
 44
1.0
  0
MTEXT
  5
2C8E
330
2A96
100
AcDbEntity
  8
0
  6
Continuous
370
    30
100
AcDbMText
 10
0.1
 20
10.2
 30
0.0
 40
0.075
 41
0.2178
 71
     1
 72
     5
  1
{\fCourier New|b0|i0|c0|p49;2.}
 73
     1
 44
1.0
  0
MTEXT
  5
2C94
330
2A96
100
AcDbEntity
  8
0
  6
Continuous
370
    30
100
AcDbMText
 10
0.1
 20
9.9
 30
0.0
 40
0.075
 41
0.2178
 71
     1
 72
     5
  1
{\fCourier New|b0|i0|c0|p49;3.}
 73
     1
 44
1.0
  0
LINE
  5
2CA1
330
2A96
100
AcDbEntity
  8
0
  6
Continuous
370
    30
100
AcDbLine
 10
0.05
 20
10.0
 30
0.0
 11
4.299999999999999
 21
10.0
 31
0.0
  0
LINE
  5
2CA2
330
2A96
100
AcDbEntity
  8
0
  6
Continuous
370
    30
100
AcDbLine
 10
0.05
 20
9.700000000000001
 30
0.0
 11
4.299999999999999
 21
9.700000000000001
 31
0.0
  0
LINE
  5
2CB1
330
2A96
100
AcDbEntity
  8
0
  6
Continuous
370
    30
100
AcDbLine
 10
0.05
 20
7.450000000000001
 30
0.0
 11
4.299999999999999
 21
7.450000000000001
 31
0.0
  0
MTEXT
  5
2CB7
330
2A96
100
AcDbEntity
  8
0
  6
Continuous
370
    30
100
AcDbMText
 10
0.1
 20
7.200000000000001
 30
0.0
 40
0.075
 41
0.1677666583358786
 71
     1
 72
     5
  1
{\fCourier New|b0|i0|c0|p49;1.}
 73
     1
 44
1.0
  0
MTEXT
  5
2CBD
330
2A96
100
AcDbEntity
  8
0
  6
Continuous
370
    30
100
AcDbMText
 10
2.7
 20
7.400000000000001
 30
0.0
 40
0.075
 41
0.6000000000000001
 71
     1
 72
     5
  1
{\fArial|b0|i0|c0|p34;ENGINEER}
 73
     1
 44
1.0
  0
MTEXT
  5
2CC3
330
2A96
100
AcDbEntity
  8
0
  6
Continuous
370
    30
100
AcDbMText
 10
3.4
 20
7.400000000000001
 30
0.0
 40
0.075
 41
0.8999999999999996
 71
     1
 72
     5
  1
{\fArial|b0|i0|c0|p34;DATE}
 73
     1
 44
1.0
  0
MTEXT
  5
2CC9
330
2A96
100
AcDbEntity
  8
0
  6
Continuous
370
    30
100
AcDbMText
 10
3.4
 20
7.2
 30
0.0
 40
0.075
 41
0.9
 71
     1
 72
     5
  1
{\fCourier New|b0|i0|c0|p49;07-12-07}
 73
     1
 44
1.0
  0
MTEXT
  5
2CCF
330
2A96
100
AcDbEntity
  8
0
  6
Continuous
370
    30
100
AcDbMText
 10
2.2
 20
7.2
 30
0.0
 40
0.075
 41
0.4
 71
     1
 72
     5
  1
{\fCourier New|b0|i0|c0|p49;NO}
 73
     1
 44
1.0
  0
LINE
  5
2CD0
330
2A96
100
AcDbEntity
  8
0
  6
Continuous
370
    30
100
AcDbLine
 10
0.05
 20
7.299999999999999
 30
0.0
 11
4.299999999999999
 21
7.299999999999999
 31
0.0
  0
LINE
  5
2CD1
330
2A96
100
AcDbEntity
  8
0
  6
Continuous
370
    30
100
AcDbLine
 10
0.05
 20
6.999999999999999
 30
0.0
 11
4.299999999999999
 21
7.000000000000002
 31
0.0
  0
LINE
  5
2CD2
330
2A96
100
AcDbEntity
  8
0
  6
Continuous
370
    30
100
AcDbLine
 10
0.9
 20
7.450000000000001
 30
0.0
 11
0.9
 21
4.9
 31
0.0
  0
LINE
  5
2CD3
330
2A96
100
AcDbEntity
  8
0
  6
Continuous
370
    30
100
AcDbLine
 10
1.3
 20
7.450000000000001
 30
0.0
 11
1.3
 21
4.9
 31
0.0
  0
LINE
  5
2CD4
330
2A96
100
AcDbEntity
  8
0
  6
Continuous
370
    30
100
AcDbLine
 10
2.1
 20
7.450000000000001
 30
0.0
 11
2.1
 21
4.9
 31
0.0
  0
LINE
  5
2CD5
330
2A96
100
AcDbEntity
  8
0
  6
Continuous
370
    30
100
AcDbLine
 10
2.6
 20
7.450000000000001
 30
0.0
 11
2.6
 21
4.9
 31
0.0
  0
LINE
  5
2CD6
330
2A96
100
AcDbEntity
  8
0
  6
Continuous
370
    30
100
AcDbLine
 10
3.3
 20
7.450000000000001
 30
0.0
 11
3.3
 21
4.9
 31
0.0
  0
LINE
  5
2CD8
330
2A96
100
AcDbEntity
  8
0
  6
Continuous
370
    30
100
AcDbLine
 10
0.05
 20
6.700000000000001
 30
0.0
 11
4.299999999999999
 21
6.700000000000001
 31
0.0
  0
LINE
  5
2CD9
330
2A96
100
AcDbEntity
  8
0
  6
Continuous
370
    30
100
AcDbLine
 10
0.05
 20
6.4
 30
0.0
 11
4.299999999999999
 21
6.4
 31
0.0
  0
MTEXT
  5
2CDF
330
2A96
100
AcDbEntity
  8
0
  6
Continuous
370
    30
100
AcDbMText
 10
0.1
 20
6.900000000000001
 30
0.0
 40
0.075
 41
0.2000000000000001
 71
     1
 72
     5
  1
{\fCourier New|b0|i0|c0|p49;2.}
 73
     1
 44
1.0
  0
MTEXT
  5
2CE5
330
2A96
100
AcDbEntity
  8
0
  6
Continuous
370
    30
100
AcDbMText
 10
0.1
 20
6.600000000000001
 30
0.0
 40
0.075
 41
0.2
 71
     1
 72
     5
  1
{\fCourier New|b0|i0|c0|p49;3.}
 73
     1
 44
1.0
  0
MTEXT
  5
2CEB
330
2A96
100
AcDbEntity
  8
0
  6
Continuous
370
    30
100
AcDbMText
 10
4.4
 20
5.75
 30
0.0
 40
0.075
 41
2.099999999999999
 71
     1
 72
     5
  1
{\fArial|b0|i0|c0|p34;TOLERANCE: (UNLESS NOTED)}
 73
     1
 44
1.0
  0
MTEXT
  5
2CF1
330
2A96
100
AcDbEntity
  8
0
  6
Continuous
370
    30
100
AcDbMText
 10
6.6
 20
5.75
 30
0.0
 40
0.075
 41
1.599999999999999
 71
     1
 72
     5
  1
{\fArial|b0|i0|c0|p34;WARNING!}
 73
     1
 44
1.0
  0
LINE
  5
2CF8
330
2A96
100
AcDbEntity
  8
0
  6
Continuous
370
    30
100
AcDbLine
 10
0.05
 20
9.4
 30
0.0
 11
4.299999999999999
 21
9.4
 31
0.0
  0
LINE
  5
2CF9
330
2A96
100
AcDbEntity
  8
0
  6
Continuous
370
    30
100
AcDbLine
 10
0.05
 20
9.099999999999999
 30
0.0
 11
4.299999999999999
 21
9.099999999999999
 31
0.0
  0
LINE
  5
2CFA
330
2A96
100
AcDbEntity
  8
0
  6
Continuous
370
    30
100
AcDbLine
 10
0.05
 20
8.8
 30
0.0
 11
4.299999999999999
 21
8.8
 31
0.0
  0
MTEXT
  5
2D00
330
2A96
100
AcDbEntity
  8
0
  6
Continuous
370
    30
100
AcDbMText
 10
0.1
 20
9.600000000000001
 30
0.0
 40
0.075
 41
0.2
 71
     1
 72
     5
  1
{\fCourier New|b0|i0|c0|p49;4.}
 73
     1
 44
1.0
  0
MTEXT
  5
2D06
330
2A96
100
AcDbEntity
  8
0
  6
Continuous
370
    30
100
AcDbMText
 10
0.1
 20
9.3
 30
0.0
 40
0.075
 41
0.2
 71
     1
 72
     5
  1
{\fCourier New|b0|i0|c0|p49;5.}
 73
     1
 44
1.0
  0
MTEXT
  5
2D0C
330
2A96
100
AcDbEntity
  8
0
  6
Continuous
370
    30
100
AcDbMText
 10
0.1
 20
9.0
 30
0.0
 40
0.075
 41
0.2
 71
     1
 72
     5
  1
{\fCourier New|b0|i0|c0|p49;6.}
 73
     1
 44
1.0
  0
LINE
  5
2D0D
330
2A96
100
AcDbEntity
  8
0
  6
Continuous
370
    30
100
AcDbLine
 10
0.05
 20
6.1
 30
0.0
 11
4.299999999999999
 21
6.1
 31
0.0
  0
LINE
  5
2D0E
330
2A96
100
AcDbEntity
  8
0
  6
Continuous
370
    30
100
AcDbLine
 10
0.05
 20
5.799999999999999
 30
0.0
 11
4.299999999999999
 21
5.799999999999999
 31
0.0
  0
LINE
  5
2D0F
330
2A96
100
AcDbEntity
  8
0
  6
Continuous
370
    30
100
AcDbLine
 10
0.05
 20
5.5
 30
0.0
 11
4.299999999999999
 21
5.5
 31
0.0
  0
MTEXT
  5
2D15
330
2A96
100
AcDbEntity
  8
0
  6
Continuous
370
    30
100
AcDbMText
 10
0.1
 20
6.3
 30
0.0
 40
0.075
 41
0.2
 71
     1
 72
     5
  1
{\fCourier New|b0|i0|c0|p49;4.}
 73
     1
 44
1.0
  0
MTEXT
  5
2D1B
330
2A96
100
AcDbEntity
  8
0
  6
Continuous
370
    30
100
AcDbMText
 10
0.1
 20
6.0
 30
0.0
 40
0.075
 41
0.2
 71
     1
 72
     5
  1
{\fCourier New|b0|i0|c0|p49;5.}
 73
     1
 44
1.0
  0
MTEXT
  5
2D21
330
2A96
100
AcDbEntity
  8
0
  6
Continuous
370
    30
100
AcDbMText
 10
0.1
 20
5.7
 30
0.0
 40
0.075
 41
0.2
 71
     1
 72
     5
  1
{\fCourier New|b0|i0|c0|p49;6.}
 73
     1
 44
1.0
  0
LINE
  5
2D22
330
2A96
100
AcDbEntity
  8
0
  6
Continuous
370
    30
100
AcDbLine
 10
0.0499999999999998
 20
4.9
 30
0.0
 11
8.200000000000001
 21
4.899999999999999
 31
0.0
  0
LINE
  5
2D23
330
2A96
100
AcDbEntity
  8
0
  6
Continuous
370
    30
100
AcDbLine
 10
0.05
 20
8.5
 30
0.0
 11
4.299999999999999
 21
8.5
 31
0.0
  0
LINE
  5
2D24
330
2A96
100
AcDbEntity
  8
0
  6
Continuous
370
    30
100
AcDbLine
 10
0.05
 20
8.200000000000001
 30
0.0
 11
4.299999999999999
 21
8.200000000000001
 31
0.0
  0
MTEXT
  5
2D2A
330
2A96
100
AcDbEntity
  8
0
  6
Continuous
370
    30
100
AcDbMText
 10
0.1
 20
8.700000000000001
 30
0.0
 40
0.075
 41
0.2
 71
     1
 72
     5
  1
{\fCourier New|b0|i0|c0|p49;7.}
 73
     1
 44
1.0
  0
MTEXT
  5
2D30
330
2A96
100
AcDbEntity
  8
0
  6
Continuous
370
    30
100
AcDbMText
 10
0.1
 20
8.4
 30
0.0
 40
0.075
 41
0.2
 71
     1
 72
     5
  1
{\fCourier New|b0|i0|c0|p49;8.}
 73
     1
 44
1.0
  0
LINE
  5
2D31
330
2A96
100
AcDbEntity
  8
0
  6
Continuous
370
    30
100
AcDbLine
 10
0.05
 20
5.2
 30
0.0
 11
4.299999999999999
 21
5.2
 31
0.0
  0
MTEXT
  5
2D38
330
2A96
100
AcDbEntity
  8
0
  6
Continuous
370
    30
100
AcDbMText
 10
0.1
 20
5.4
 30
0.0
 40
0.075
 41
0.2000000000000002
 71
     1
 72
     5
  1
{\fCourier New|b0|i0|c0|p49;7.}
 73
     1
 44
1.0
  0
MTEXT
  5
2D3E
330
2A96
100
AcDbEntity
  8
0
  6
Continuous
370
    30
100
AcDbMText
 10
0.1
 20
5.1
 30
0.0
 40
0.075
 41
0.2000000000000002
 71
     1
 72
     5
  1
{\fCourier New|b0|i0|c0|p49;8.}
 73
     1
 44
1.0
  0
LWPOLYLINE
  5
2D50
330
2A96
100
AcDbEntity
  8
0
  6
Continuous
370
    30
100
AcDbPolyline
 90
        4
 70
     1
 43
0.0
 10
0.05
 20
10.74999999999999
 10
8.200000000000001
 20
10.74999999999999
 10
8.200000000000001
 20
0.15
 10
0.05
 20
0.15
  0
MTEXT
  5
2D5C
330
2A96
100
AcDbEntity
  8
0
  6
Continuous
370
    30
100
AcDbMText
 10
4.5
 20
8.9
 30
0.0
 40
0.075
 41
3.7
 71
     1
 72
     5
  1
{\fCourier New|b0|i0|c0|p49;List critical technical specs here.}
 73
     1
 44
1.0
  0
MTEXT
  5
2D71
330
2A96
100
AcDbEntity
  8
0
  6
Continuous
370
    30
100
AcDbMText
 10
0.3
 20
10.5
 30
0.0
 40
0.075
 41
1.898099999999999
 71
     1
 72
     5
  1
{\fCourier New|b0|i0|c0|p49;Name}
 73
     1
 44
1.0
  0
MTEXT
  5
2D8F
330
2A96
100
AcDbEntity
  8
0
  6
Continuous
370
    30
100
AcDbMText
 10
0.2
 20
8.0
 30
0.0
 40
0.075
 41
4.099999999999999
 71
     1
 72
     5
  1
{\fCourier New|b0|i0|c0|p49;Here}
 73
     1
 44
1.0
  0
MTEXT
  5
2D9D
330
2A96
100
AcDbEntity
  8
0
  6
Continuous
370
    30
100
AcDbMText
 10
0.1
 20
8.15
 30
0.0
 40
0.075
 41
2.1
 71
     1
 72
     5
  1
{\fArial|b0|i0|c0|p34;NOTES}
 73
     1
 44
1.0
  0
MTEXT
  5
2F1B
330
2A96
100
AcDbEntity
  8
0
  6
Continuous
370
    30
100
AcDbMText
 10
0.1
 20
0.1000000000000001
 30
0.0
 40
0.075
 41
2.799999999999999
 71
     1
 72
     5
  1
{\fArial|b0|i0|c0|p34;PART SPECIFICATION FORM   REV 5   DATE: 07-12-07}
 73
     1
 44
1.0
  0
MTEXT
  5
2FBA
330
2A96
100
AcDbEntity
  8
0
  6
Continuous
370
    30
100
AcDbMText
 10
4.4
 20
9.899999999999998
 30
0.0
 40
0.125
 41
1.3
 71
     1
 72
     5
  1
{\fArial|b0|i0|c0|p34;ACI SYSTEM\PDESCRIPTION:}
 73
     1
 44
1.0
  0
LINE
  5
2FBB
330
2A96
100
AcDbEntity
  8
0
  6
Continuous
370
    30
100
AcDbLine
 10
4.299999999999999
 20
9.5
 30
0.0
 11
8.200000000000001
 21
9.5
 31
0.0
  0
LINE
  5
2FBC
330
2A96
100
AcDbEntity
  8
0
  6
Continuous
370
    30
100
AcDbLine
 10
5.7
 20
10.0
 30
0.0
 11
5.7
 21
9.5
 31
0.0
  0
MTEXT
  5
2FC2
330
2A96
100
AcDbEntity
  8
0
  6
Continuous
370
    30
100
AcDbMText
 10
5.8
 20
9.899999999999998
 30
0.0
 40
0.075
 41
2.399999999999999
 71
     1
 72
     5
  1
{\fCourier New|b0|i0|c0|p49;Most important details here.}
 73
     1
 44
1.0
  0
LINE
  5
2FC3
330
2A96
100
AcDbEntity
  8
0
  6
Continuous
370
    30
100
AcDbLine
 10
5.7
 20
9.75
 30
0.0
 11
8.200000000000001
 21
9.75
 31
0.0
  0
LINE
  5
32BA
330
2A96
100
AcDbEntity
  8
0
  6
Continuous
370
    30
100
AcDbLine
 10
8.200000000000001
 20
0.35
 30
0.0
 11
0.05
 21
0.35
 31
0.0
  0
MTEXT
  5
32CD
330
2A96
100
AcDbEntity
  8
0
  6
Continuous
370
    30
100
AcDbMText
 10
6.5
 20
0.5
 30
0.0
 40
0.075
 41
1.1
 71
     1
 72
     5
  1
{\fArial|b0|i0|c0|p34;DRAWING NUMBER}
 73
     1
 44
1.0
  0
MTEXT
  5
32D3
330
2A96
100
AcDbEntity
  8
0
  6
Continuous
370
    30
100
AcDbMText
 10
7.7
 20
0.5
 30
0.0
 40
0.075
 41
0.5000000000000009
 71
     1
 72
     5
  1
{\fArial|b0|i0|c0|p34;REV}
 73
     1
 44
1.0
  0
MTEXT
  5
32D9
330
2A96
100
AcDbEntity
  8
0
  6
Continuous
370
    30
100
AcDbMText
 10
0.2
 20
0.5
 30
0.0
 40
0.075
 41
0.4
 71
     1
 72
     5
  1
{\fArial|b0|i0|c0|p34;DATE}
 73
     1
 44
1.0
  0
MTEXT
  5
32DF
330
2A96
100
AcDbEntity
  8
0
  6
Continuous
370
    30
100
AcDbMText
 10
4.7
 20
0.5
 30
0.0
 40
0.075
 41
0.7000000000000002
 71
     1
 72
     5
  1
{\fArial|b0|i0|c0|p34;DRAWN BY}
 73
     1
 44
1.0
  0
MTEXT
  5
32E5
330
2A96
100
AcDbEntity
  8
0
  6
Continuous
370
    30
100
AcDbMText
 10
5.5
 20
0.5
 30
0.0
 40
0.075
 41
0.9000000000000003
 71
     1
 72
     5
  1
{\fArial|b0|i0|c0|p34;APPROVED BY}
 73
     1
 44
1.0
  0
MTEXT
  5
32EB
330
2A96
100
AcDbEntity
  8
0
  6
Continuous
370
    30
100
AcDbMText
 10
1.2
 20
0.5
 30
0.0
 40
0.075
 41
0.9
 71
     1
 72
     5
  1
{\fArial|b0|i0|c0|p34;DESCRIPTION}
 73
     1
 44
1.0
  0
MTEXT
  5
32F3
330
2A96
100
AcDbEntity
  8
0
  6
Continuous
370
    30
100
AcDbMText
 10
12.61565383451102
 20
0.6025710303042624
 30
0.0
 40
0.075
 41
0.3999999999999995
 71
     1
 72
     5
  1
{\fArial|b0|i0|c0|p34;REV}
 73
     1
 44
1.0
  0
MTEXT
  5
32FF
330
2A96
100
AcDbEntity
  8
0
  6
Continuous
370
    30
100
AcDbMText
 10
4.7
 20
0.3
 30
0.0
 40
0.075
 41
0.7
 71
     1
 72
     5
  1
{\fCourier New|b0|i0|c0|p49;INI}
 73
     1
 44
1.0
  0
MTEXT
  5
3305
330
2A96
100
AcDbEntity
  8
0
  6
Continuous
370
    30
100
AcDbMText
 10
5.5
 20
0.3
 30
0.0
 40
0.075
 41
0.9
 71
     1
 72
     5
  1
{\fCourier New|b0|i0|c0|p49;INI}
 73
     1
 44
1.0
  0
MTEXT
  5
330B
330
2A96
100
AcDbEntity
  8
0
  6
Continuous
370
    30
100
AcDbMText
 10
6.5
 20
0.3
 30
0.0
 40
0.075
 41
1.1
 71
     1
 72
     5
  1
{\fCourier New|b0|i0|c0|p49;3000nnnn}
 73
     1
 44
1.0
  0
MTEXT
  5
3311
330
2A96
100
AcDbEntity
  8
0
  6
Continuous
370
    30
100
AcDbMText
 10
7.7
 20
0.3
 30
0.0
 40
0.075
 41
0.5
 71
     1
 72
     5
  1
{\fCourier New|b0|i0|c0|p49;1}
 73
     1
 44
1.0
  0
MTEXT
  5
331D
330
2A96
100
AcDbEntity
  8
0
  6
Continuous
370
    30
100
AcDbMText
 10
0.2
 20
0.3
 30
0.0
 40
0.075
 41
0.9
 71
     1
 72
     5
  1
{\fCourier New|b0|i0|c0|p49;07-12-07}
 73
     1
 44
1.0
  0
MTEXT
  5
3323
330
2A96
100
AcDbEntity
  8
0
  6
Continuous
370
    30
100
AcDbMText
 10
1.2
 20
0.3
 30
0.0
 40
0.075
 41
3.399999999999999
 71
     1
 72
     5
  1
{\fCourier New|b0|i0|c0|p49;INITIAL VERSION}
 73
     1
 44
1.0
  0
LINE
  5
3324
330
2A96
100
AcDbEntity
  8
0
  6
Continuous
370
    30
100
AcDbLine
 10
1.1
 20
0.55
 30
0.0
 11
1.1
 21
0.1500000000000001
 31
0.0
  0
LINE
  5
3325
330
2A96
100
AcDbEntity
  8
0
  6
Continuous
370
    30
100
AcDbLine
 10
7.6
 20
0.55
 30
0.0
 11
7.599999999999999
 21
0.1500000000000001
 31
0.0
  0
LINE
  5
3326
330
2A96
100
AcDbEntity
  8
0
  6
Continuous
370
    30
100
AcDbLine
 10
6.4
 20
0.55
 30
0.0
 11
6.4
 21
0.1500000000000001
 31
0.0
  0
LINE
  5
3327
330
2A96
100
AcDbEntity
  8
0
  6
Continuous
370
    30
100
AcDbLine
 10
5.4
 20
0.1500000000000001
 30
0.0
 11
5.4
 21
0.55
 31
0.0
  0
LINE
  5
3328
330
2A96
100
AcDbEntity
  8
0
  6
Continuous
370
    30
100
AcDbLine
 10
4.6
 20
0.1500000000000001
 30
0.0
 11
4.6
 21
0.55
 31
0.0
  0
LINE
  5
3329
330
2A96
100
AcDbEntity
  8
0
  6
Continuous
370
    30
100
AcDbLine
 10
8.200000000000001
 20
0.55
 30
0.0
 11
0.05
 21
0.55
 31
0.0
  0
MTEXT
  5
3335
330
2A96
100
AcDbEntity
  8
0
  6
Continuous
370
    30
100
AcDbMText
 10
7.4
 20
0.1000000000000001
 30
0.0
 40
0.075
 41
0.8
 71
     1
 72
     5
  1
{\fArial|b0|i0|c0|p34;PAGE 1}
 73
     1
 44
1.0
  0
LINE
  5
3C8D
330
2A96
100
AcDbEntity
  8
0
  6
Continuous
370
    30
100
AcDbLine
 10
5.8
 20
10.2
 30
0.0
 11
8.200000000000001
 21
10.2
 31
0.0
  0
MTEXT
  5
3C93
330
2A96
100
AcDbEntity
  8
0
  6
Continuous
370
    30
100
AcDbMText
 10
6.0
 20
10.15
 30
0.0
 40
0.075
 41
2.2
 71
     1
 72
     5
  1
{\fCourier New|b0|i0|c0|p49;Formerly 123456789012345}
 73
     1
 44
1.0
  0
ENDBLK
  5
2AA4
330
2A96
100
AcDbEntity
  8
0
370
    30
100
AcDbBlockEnd
  0
BLOCK
  5
33CF
330
3360
100
AcDbEntity
  8
0
370
    30
100
AcDbBlockBegin
  2
*Paper_Space15
 70
     0
 10
0.0
 20
0.0
 30
0.0
  3
*Paper_Space15
  1

  0
VIEWPORT
  5
3361
330
3360
100
AcDbEntity
  8
0
  6
Continuous
100
AcDbViewport
 10
5.8285388633846
 20
7.647873650176577
 30
0.0
 40
11.92756543099051
 41
6.441891878340866
 69
     0
 12
5.8285388633846
 22
7.647873650176577
 13
0.0
 23
0.0
 14
0.05
 24
0.05
 15
0.1
 25
0.1
 16
0.0
 26
0.0
 36
1.0
 17
0.0
 27
0.0
 37
0.0
 42
50.0
 43
0.0
 44
0.0
 45
6.441891878340866
 50
0.0
 51
0.0
 72
   100
 90
    33568
  1

281
     0
 71
     1
 74
     0
110
0.0
120
0.0
130
0.0
111
1.0
121
0.0
131
0.0
112
0.0
122
1.0
132
0.0
 79
     0
146
0.0
  0
VIEWPORT
  5
3362
330
3360
100
AcDbEntity
  8
Viewport Layer
  6
Continuous
370
    30
100
AcDbViewport
 10
4.125
 20
4.825
 30
0.0
 40
8.05
 41
8.450000000000001
 69
     0
 12
19.0
 22
6.0
 13
0.0
 23
0.0
 14
1.0
 24
1.0
 15
0.0
 25
0.0
 16
0.0
 26
0.0
 36
1.0
 17
0.0
 27
0.0
 37
0.0
 42
50.0
 43
0.0
 44
0.0
 45
11.26666666666666
 50
0.0
 51
0.0
 72
   100
 90
    32800
  1

281
     0
 71
     1
 74
     0
110
0.0
120
0.0
130
0.0
111
1.0
121
0.0
131
0.0
112
0.0
122
1.0
132
0.0
 79
     0
146
0.0
  0
MTEXT
  5
3365
330
3360
100
AcDbEntity
  8
0
  6
Continuous
370
    30
100
AcDbMText
 10
4.5
 20
9.8
 30
0.0
 40
0.075
 41
1.999999999999999
 71
     1
 72
     5
  1
{\fCourier New|b0|i0|c0|p49;3 PLACE DECIMAL = ±0.005\P2 PLACE DECIMAL = ±0.015\P1 PLACE DECIMAL = ±0.050\PALL DIMENSIONS IN INCHES.\PDRAWING NOT TO SCALE.}
 73
     1
 44
1.0
  0
MTEXT
  5
3366
330
3360
100
AcDbEntity
  8
0
  6
Continuous
370
    30
100
AcDbMText
 10
4.375
 20
10.7
 30
0.0
 40
0.5
 41
1.425
 71
     1
 72
     5
  1
{\fTimes New Roman|b1|i1|c0|p18;ACI}
 73
     1
 44
1.0
  0
MTEXT
  5
3367
330
3360
100
AcDbEntity
  8
0
  6
Continuous
370
    30
100
AcDbMText
 10
4.375
 20
10.15
 30
0.0
 40
0.075
 41
1.425
 71
     1
 72
     5
  1
{\fTimes New Roman|b1|i1|c0|p18;Automation Components, Inc.}
 73
     1
 44
1.0
  0
LINE
  5
3368
330
3360
100
AcDbEntity
  8
0
  6
Continuous
370
    30
100
AcDbLine
 10
6.5
 20
10.0
 30
0.0
 11
6.5
 21
9.099999999999999
 31
0.0
  0
MTEXT
  5
3369
330
3360
100
AcDbEntity
  8
0
  6
Continuous
370
    30
100
AcDbMText
 10
6.7
 20
9.8
 30
0.0
 40
0.075
 41
1.5
 71
     1
 72
     5
  1
{\fCourier New|b0|i0|c0|p49;CONFIDENTIAL INFORMATION-- PROPERTY OF ACI. UNAUTHORIZED USE STRICTLY FORBIDDEN.}
 73
     1
 44
1.0
  0
LINE
  5
336A
330
3360
100
AcDbEntity
  8
0
  6
Continuous
370
    30
100
AcDbLine
 10
4.299999999999999
 20
10.0
 30
0.0
 11
8.200000000000001
 21
10.0
 31
0.0
  0
MTEXT
  5
3371
330
3360
100
AcDbEntity
  8
0
  6
Continuous
370
    30
100
AcDbMText
 10
3.5
 20
4.9
 30
0.0
 40
0.2
 41
2.799999999999999
 71
     1
 72
     5
  1

 73
     1
 44
1.0
  0
MTEXT
  5
3398
330
3360
100
AcDbEntity
  8
0
  6
Continuous
370
    30
100
AcDbMText
 10
4.4
 20
9.949999999999999
 30
0.0
 40
0.075
 41
2.099999999999999
 71
     1
 72
     5
  1
{\fArial|b0|i0|c0|p34;TOLERANCE: (UNLESS NOTED)}
 73
     1
 44
1.0
  0
MTEXT
  5
3399
330
3360
100
AcDbEntity
  8
0
  6
Continuous
370
    30
100
AcDbMText
 10
6.6
 20
9.950000000000001
 30
0.0
 40
0.075
 41
1.599999999999999
 71
     1
 72
     5
  1
{\fArial|b0|i0|c0|p34;WARNING!}
 73
     1
 44
1.0
  0
LINE
  5
33A6
330
3360
100
AcDbEntity
  8
0
  6
Continuous
370
    30
100
AcDbLine
 10
4.299999999999999
 20
9.099999999999999
 30
0.0
 11
8.200000000000001
 21
9.099999999999997
 31
0.0
  0
LWPOLYLINE
  5
33AE
330
3360
100
AcDbEntity
  8
0
  6
Continuous
370
    30
100
AcDbPolyline
 90
        4
 70
     1
 43
0.0
 10
0.05
 20
10.74999999999999
 10
8.200000000000001
 20
10.74999999999999
 10
8.200000000000001
 20
0.15
 10
0.05
 20
0.15
  0
MTEXT
  5
33B4
330
3360
100
AcDbEntity
  8
0
  6
Continuous
370
    30
100
AcDbMText
 10
0.1
 20
0.1000000000000001
 30
0.0
 40
0.075
 41
2.799999999999999
 71
     1
 72
     5
  1
{\fArial|b0|i0|c0|p34;PART SPECIFICATION FORM   REV 5   DATE: 07-12-07}
 73
     1
 44
1.0
  0
LINE
  5
33BA
330
3360
100
AcDbEntity
  8
0
  6
Continuous
370
    30
100
AcDbLine
 10
8.200000000000001
 20
0.35
 30
0.0
 11
0.05
 21
0.35
 31
0.0
  0
MTEXT
  5
33BB
330
3360
100
AcDbEntity
  8
0
  6
Continuous
370
    30
100
AcDbMText
 10
6.5
 20
0.5
 30
0.0
 40
0.075
 41
1.1
 71
     1
 72
     5
  1
{\fArial|b0|i0|c0|p34;DRAWING NUMBER}
 73
     1
 44
1.0
  0
MTEXT
  5
33BC
330
3360
100
AcDbEntity
  8
0
  6
Continuous
370
    30
100
AcDbMText
 10
7.7
 20
0.5
 30
0.0
 40
0.075
 41
0.5000000000000009
 71
     1
 72
     5
  1
{\fArial|b0|i0|c0|p34;REV}
 73
     1
 44
1.0
  0
MTEXT
  5
33BD
330
3360
100
AcDbEntity
  8
0
  6
Continuous
370
    30
100
AcDbMText
 10
0.2
 20
0.5
 30
0.0
 40
0.075
 41
0.4
 71
     1
 72
     5
  1
{\fArial|b0|i0|c0|p34;DATE}
 73
     1
 44
1.0
  0
MTEXT
  5
33BE
330
3360
100
AcDbEntity
  8
0
  6
Continuous
370
    30
100
AcDbMText
 10
4.7
 20
0.5
 30
0.0
 40
0.075
 41
0.7000000000000002
 71
     1
 72
     5
  1
{\fArial|b0|i0|c0|p34;DRAWN BY}
 73
     1
 44
1.0
  0
MTEXT
  5
33BF
330
3360
100
AcDbEntity
  8
0
  6
Continuous
370
    30
100
AcDbMText
 10
5.5
 20
0.5
 30
0.0
 40
0.075
 41
0.9000000000000003
 71
     1
 72
     5
  1
{\fArial|b0|i0|c0|p34;APPROVED BY}
 73
     1
 44
1.0
  0
MTEXT
  5
33C0
330
3360
100
AcDbEntity
  8
0
  6
Continuous
370
    30
100
AcDbMText
 10
1.2
 20
0.5
 30
0.0
 40
0.075
 41
0.7999999999999999
 71
     1
 72
     5
  1
{\fArial|b0|i0|c0|p34;DESCRIPTION}
 73
     1
 44
1.0
  0
MTEXT
  5
33C1
330
3360
100
AcDbEntity
  8
0
  6
Continuous
370
    30
100
AcDbMText
 10
12.61565383451102
 20
0.6025710303042624
 30
0.0
 40
0.075
 41
0.3999999999999995
 71
     1
 72
     5
  1
{\fArial|b0|i0|c0|p34;REV}
 73
     1
 44
1.0
  0
MTEXT
  5
33C2
330
3360
100
AcDbEntity
  8
0
  6
Continuous
370
    30
100
AcDbMText
 10
4.7
 20
0.3
 30
0.0
 40
0.075
 41
0.7
 71
     1
 72
     5
  1
{\fCourier New|b0|i0|c0|p49;INI}
 73
     1
 44
1.0
  0
MTEXT
  5
33C3
330
3360
100
AcDbEntity
  8
0
  6
Continuous
370
    30
100
AcDbMText
 10
5.5
 20
0.3
 30
0.0
 40
0.075
 41
0.9
 71
     1
 72
     5
  1
{\fCourier New|b0|i0|c0|p49;INI}
 73
     1
 44
1.0
  0
MTEXT
  5
33C4
330
3360
100
AcDbEntity
  8
0
  6
Continuous
370
    30
100
AcDbMText
 10
6.5
 20
0.3
 30
0.0
 40
0.075
 41
1.1
 71
     1
 72
     5
  1
{\fCourier New|b0|i0|c0|p49;3000nnnn}
 73
     1
 44
1.0
  0
MTEXT
  5
33C5
330
3360
100
AcDbEntity
  8
0
  6
Continuous
370
    30
100
AcDbMText
 10
7.7
 20
0.3
 30
0.0
 40
0.075
 41
0.5
 71
     1
 72
     5
  1
{\fCourier New|b0|i0|c0|p49;1}
 73
     1
 44
1.0
  0
MTEXT
  5
33C6
330
3360
100
AcDbEntity
  8
0
  6
Continuous
370
    30
100
AcDbMText
 10
0.2
 20
0.3
 30
0.0
 40
0.075
 41
0.9
 71
     1
 72
     5
  1
{\fCourier New|b0|i0|c0|p49;07-12-07}
 73
     1
 44
1.0
  0
MTEXT
  5
33C7
330
3360
100
AcDbEntity
  8
0
  6
Continuous
370
    30
100
AcDbMText
 10
1.2
 20
0.3
 30
0.0
 40
0.075
 41
3.399999999999999
 71
     1
 72
     5
  1
{\fCourier New|b0|i0|c0|p49;INITIAL VERSION}
 73
     1
 44
1.0
  0
LINE
  5
33C8
330
3360
100
AcDbEntity
  8
0
  6
Continuous
370
    30
100
AcDbLine
 10
1.1
 20
0.55
 30
0.0
 11
1.1
 21
0.1500000000000001
 31
0.0
  0
LINE
  5
33C9
330
3360
100
AcDbEntity
  8
0
  6
Continuous
370
    30
100
AcDbLine
 10
7.6
 20
0.55
 30
0.0
 11
7.599999999999999
 21
0.1500000000000001
 31
0.0
  0
LINE
  5
33CA
330
3360
100
AcDbEntity
  8
0
  6
Continuous
370
    30
100
AcDbLine
 10
6.4
 20
0.55
 30
0.0
 11
6.4
 21
0.1500000000000001
 31
0.0
  0
LINE
  5
33CB
330
3360
100
AcDbEntity
  8
0
  6
Continuous
370
    30
100
AcDbLine
 10
5.4
 20
0.1500000000000001
 30
0.0
 11
5.4
 21
0.55
 31
0.0
  0
LINE
  5
33CC
330
3360
100
AcDbEntity
  8
0
  6
Continuous
370
    30
100
AcDbLine
 10
4.6
 20
0.1500000000000001
 30
0.0
 11
4.6
 21
0.55
 31
0.0
  0
LINE
  5
33CD
330
3360
100
AcDbEntity
  8
0
  6
Continuous
370
    30
100
AcDbLine
 10
8.200000000000001
 20
0.55
 30
0.0
 11
0.0
 21
0.55
 31
0.0
  0
MTEXT
  5
33CE
330
3360
100
AcDbEntity
  8
0
  6
Continuous
370
    30
100
AcDbMText
 10
7.4
 20
0.1000000000000001
 30
0.0
 40
0.075
 41
0.8
 71
     1
 72
     5
  1
{\fArial|b0|i0|c0|p34;PAGE 2}
 73
     1
 44
1.0
  0
LINE
  5
33D7
330
3360
100
AcDbEntity
  8
0
  6
Continuous
370
    30
100
AcDbLine
 10
4.299999999999999
 20
9.099999999999999
 30
0.0
 11
4.299999999999999
 21
10.74999999999999
 31
0.0
  0
MTEXT
  5
3C9D
330
3360
100
AcDbEntity
  8
0
  6
Continuous
370
    30
100
AcDbMText
 10
5.999999992923019
 20
10.14999999029272
 30
0.0
 40
0.075
 41
2.2
 71
     1
 72
     5
  1
{\fCourier New|b0|i0|c0|p49;Formerly 123456789012345}
 73
     1
 44
1.0
  0
LINE
  5
3C9E
330
3360
100
AcDbEntity
  8
0
  6
Continuous
370
    30
100
AcDbLine
 10
5.799999992923019
 20
10.19999999029272
 30
0.0
 11
8.19999999292302
 21
10.19999999029272
 31
0.0
  0
MTEXT
  5
3C9F
330
3360
100
AcDbEntity
  8
0
  6
Continuous
370
    30
100
AcDbMText
 10
5.999999992923019
 20
10.39999999029272
 30
0.0
 40
0.14
 41
2.200000000000001
 71
     1
 72
     5
  1
{\fCourier New|b0|i0|c0|p49;123456789012345}
 73
     1
 44
1.0
  0
MTEXT
  5
3CA0
330
3360
100
AcDbEntity
  8
0
  6
Continuous
370
    30
100
AcDbMText
 10
6.99999999292302
 20
10.69999999029272
 30
0.0
 40
0.2
 41
2.399999999999999
 71
     2
 72
     5
  1
{\fArial|b0|i0|c0|p34;ITEM NUMBER}
 73
     1
 44
1.0
  0
LINE
  5
3CA1
330
3360
100
AcDbEntity
  8
0
  6
Continuous
370
    30
100
AcDbLine
 10
5.799999992923019
 20
10.74999999029272
 30
0.0
 11
5.799999992923019
 21
9.999999990292721
 31
0.0
  0
ENDBLK
  5
33D0
330
3360
100
AcDbEntity
  8
0
370
    30
100
AcDbBlockEnd
  0
BLOCK
  5
3767
330
3743
100
AcDbEntity
  8
0
370
    30
100
AcDbBlockBegin
  2
A$C64F54320
 70
     0
 10
0.0
 20
0.0
 30
0.0
  3
A$C64F54320
  1

  0
LINE
  5
3744
330
3743
100
AcDbEntity
  8
0
  6
Continuous
370
    30
100
AcDbLine
 10
8.15000001151851
 20
0.4025710227329599
 30
0.0
 11
2.05000001151851
 21
0.4025710227329599
 31
0.0
  0
LINE
  5
3745
330
3743
100
AcDbEntity
  8
0
  6
Continuous
370
    30
100
AcDbLine
 10
8.15000001151851
 20
0.6025710227329598
 30
0.0
 11
0.0000000115185106
 21
0.6025710227329598
 31
0.0
  0
MTEXT
  5
3746
330
3743
100
AcDbEntity
  8
0
  6
Continuous
370
    30
100
AcDbMText
 10
2.400000017707228
 20
1.252571026041589
 30
0.0
 40
0.075
 41
1.599999999999999
 71
     1
 72
     5
  1
{\fCourier New|b0|i0|c0|p49;CONFIDENTIAL INFORMATION-- PROPERTY OF ACI. UNAUTHORIZED USE STRICTLY FORBIDDEN.}
 73
     1
 44
1.0
  0
MTEXT
  5
3747
330
3743
100
AcDbEntity
  8
0
  6
Continuous
370
    30
100
AcDbMText
 10
2.300000017707228
 20
1.40257102604159
 30
0.0
 40
0.075
 41
1.9
 71
     1
 72
     5
  1
{\fArial|b0|i0|c0|p34;WARNING!}
 73
     1
 44
1.0
  0
LINE
  5
3748
330
3743
100
AcDbEntity
  8
0
  6
Continuous
370
    30
100
AcDbLine
 10
8.150000017707228
 20
1.45257102604159
 30
0.0
 11
0.0000000177072281
 21
1.45257102604159
 31
0.0
  0
LINE
  5
3749
330
3743
100
AcDbEntity
  8
0
  6
Continuous
370
    30
100
AcDbLine
 10
0.0000000115185106
 20
0.4025710227329599
 30
0.0
 11
2.05000001151851
 21
0.4025710227329599
 31
0.0
  0
MTEXT
  5
374A
330
3743
100
AcDbEntity
  8
0
  6
Continuous
370
    30
100
AcDbMText
 10
0.2000000177072283
 20
1.252571026041589
 30
0.0
 40
0.075
 41
2.0
 71
     1
 72
     5
  1
{\fCourier New|b0|i0|c0|p49;3 PLACE DECIMAL = ±0.005\P2 PLACE DECIMAL = ±0.015\P1 PLACE DECIMAL = ±0.050\PALL DIMENSIONS IN INCHES.\PDRAWING NOT TO SCALE.}
 73
     1
 44
1.0
  0
MTEXT
  5
374B
330
3743
100
AcDbEntity
  8
0
  6
Continuous
370
    30
100
AcDbMText
 10
0.1000000177072282
 20
1.40257102604159
 30
0.0
 40
0.075
 41
2.1
 71
     1
 72
     5
  1
{\fArial|b0|i0|c0|p34;TOLERANCE: (UNLESS NOTED)}
 73
     1
 44
1.0
  0
MTEXT
  5
374C
330
3743
100
AcDbEntity
  8
0
  6
Continuous
370
    30
100
AcDbMText
 10
0.1500000115185101
 20
0.5525710227329598
 30
0.0
 40
0.075
 41
0.4000000000000001
 71
     1
 72
     5
  1
{\fArial|b0|i0|c0|p34;DATE}
 73
     1
 44
1.0
  0
MTEXT
  5
374D
330
3743
100
AcDbEntity
  8
0
  6
Continuous
370
    30
100
AcDbMText
 10
0.1500000115185101
 20
0.3525710227329598
 30
0.0
 40
0.1
 41
0.9
 71
     1
 72
     5
  1
{\fCourier New|b0|i0|c0|p49;06-15-07}
 73
     1
 44
1.0
  0
LINE
  5
374E
330
3743
100
AcDbEntity
  8
0
  6
Continuous
370
    30
100
AcDbLine
 10
0.0000000177072281
 20
1.45257102604159
 30
0.0
 11
0.0000000177072281
 21
0.60257102604159
 31
0.0
  0
LINE
  5
374F
330
3743
100
AcDbEntity
  8
0
  6
Continuous
370
    30
100
AcDbLine
 10
0.0000000177072281
 20
0.60257102604159
 30
0.0
 11
0.0000000177072281
 21
0.1525710260415899
 31
0.0
  0
LINE
  5
3750
330
3743
100
AcDbEntity
  8
0
  6
Continuous
370
    30
100
AcDbLine
 10
1.05000001151851
 20
0.6025710227329598
 30
0.0
 11
1.05000001151851
 21
0.1525710227329598
 31
0.0
  0
MTEXT
  5
3751
330
3743
100
AcDbEntity
  8
0
  6
Continuous
370
    30
100
AcDbMText
 10
1.15000001151851
 20
0.3525710227329598
 30
0.0
 40
0.1
 41
3.399999999999999
 71
     1
 72
     5
  1
{\fCourier New|b0|i0|c0|p49;INITIAL VERSION}
 73
     1
 44
1.0
  0
MTEXT
  5
3752
330
3743
100
AcDbEntity
  8
0
  6
Continuous
370
    30
100
AcDbMText
 10
1.15000001151851
 20
0.5525710227329598
 30
0.0
 40
0.075
 41
1.6
 71
     1
 72
     5
  1
{\fArial|b0|i0|c0|p34;DESCRIPTION}
 73
     1
 44
1.0
  0
LINE
  5
3753
330
3743
100
AcDbEntity
  8
0
  6
Continuous
370
    30
100
AcDbLine
 10
2.200000017707228
 20
1.45257102604159
 30
0.0
 11
2.200000017707227
 21
0.60257102604159
 31
0.0
  0
MTEXT
  5
3754
330
3743
100
AcDbEntity
  8
0
  6
Continuous
370
    30
100
AcDbMText
 10
6.950000017707228
 20
1.302571026041589
 30
0.0
 40
0.2
 41
2.399999999999999
 71
     2
 72
     5
  1
{\fArial|b0|i0|c0|p34;ITEM NUMBER}
 73
     1
 44
1.0
  0
MTEXT
  5
3755
330
3743
100
AcDbEntity
  8
0
  6
Continuous
370
    30
100
AcDbMText
 10
5.900000017707228
 20
0.9525710260415898
 30
0.0
 40
0.14
 41
2.25
 71
     1
 72
     5
  1
{\fCourier New|b0|i0|c0|p49;123456789012345}
 73
     1
 44
1.0
  0
MTEXT
  5
3756
330
3743
100
AcDbEntity
  8
0
  6
Continuous
370
    30
100
AcDbMText
 10
4.300000017707228
 20
1.352571026041589
 30
0.0
 40
0.5
 41
1.399999982316157
 71
     1
 72
     5
  1
{\fTimes New Roman|b1|i1|c0|p18;ACI}
 73
     1
 44
1.0
  0
MTEXT
  5
3757
330
3743
100
AcDbEntity
  8
0
  6
Continuous
370
    30
100
AcDbMText
 10
4.275000000023386
 20
0.8038868214754034
 30
0.0
 40
0.075
 41
1.425
 71
     1
 72
     5
  1
{\fTimes New Roman|b1|i1|c0|p18;Automation Components, Inc.}
 73
     1
 44
1.0
  0
LINE
  5
3758
330
3743
100
AcDbEntity
  8
0
  6
Continuous
370
    30
100
AcDbLine
 10
4.200000017707228
 20
1.45257102604159
 30
0.0
 11
4.200000017707228
 21
0.60257102604159
 31
0.0
  0
MTEXT
  5
3759
330
3743
100
AcDbEntity
  8
0
  6
Continuous
370
    30
100
AcDbMText
 10
4.650000017707228
 20
0.5525710260415899
 30
0.0
 40
0.075
 41
0.6999999938112822
 71
     1
 72
     5
  1
{\fArial|b0|i0|c0|p34;DRAWN BY}
 73
     1
 44
1.0
  0
MTEXT
  5
375A
330
3743
100
AcDbEntity
  8
0
  6
Continuous
370
    30
100
AcDbMText
 10
4.650000017707228
 20
0.3525710260415899
 30
0.0
 40
0.1
 41
0.6999999938112822
 71
     1
 72
     5
  1
{\fCourier New|b0|i0|c0|p49;INI}
 73
     1
 44
1.0
  0
LINE
  5
375B
330
3743
100
AcDbEntity
  8
0
  6
Continuous
370
    30
100
AcDbLine
 10
4.550000011518509
 20
0.1525710227329598
 30
0.0
 11
4.550000011518509
 21
0.6025710227329598
 31
0.0
  0
LINE
  5
375C
330
3743
100
AcDbEntity
  8
0
  6
Continuous
370
    30
100
AcDbLine
 10
5.35000001151851
 20
0.1525710227329598
 30
0.0
 11
5.35000001151851
 21
0.6025710227329598
 31
0.0
  0
LINE
  5
375D
330
3743
100
AcDbEntity
  8
0
  6
Continuous
370
    30
100
AcDbLine
 10
5.750000017707227
 20
1.45257102604159
 30
0.0
 11
5.750000017707227
 21
0.60257102604159
 31
0.0
  0
MTEXT
  5
375E
330
3743
100
AcDbEntity
  8
0
  6
Continuous
370
    30
100
AcDbMText
 10
5.450000011518511
 20
0.5525710227329598
 30
0.0
 40
0.075
 41
0.9000000000000003
 71
     1
 72
     5
  1
{\fArial|b0|i0|c0|p34;APPROVED BY}
 73
     1
 44
1.0
  0
MTEXT
  5
375F
330
3743
100
AcDbEntity
  8
0
  6
Continuous
370
    30
100
AcDbMText
 10
5.500000017707227
 20
0.3525710260415899
 30
0.0
 40
0.1
 41
0.8499999938112843
 71
     1
 72
     5
  1
{\fCourier New|b0|i0|c0|p49;INI}
 73
     1
 44
1.0
  0
MTEXT
  5
3760
330
3743
100
AcDbEntity
  8
0
  6
Continuous
370
    30
100
AcDbMText
 10
7.300000017707228
 20
0.1025710260415899
 30
0.0
 40
0.075
 41
0.8499999999999989
 71
     1
 72
     5
  1
{\fArial|b0|i0|c0|p34;PAGE 2}
 73
     1
 44
1.0
  0
MTEXT
  5
3761
330
3743
100
AcDbEntity
  8
0
  6
Continuous
370
    30
100
AcDbMText
 10
6.450000017707228
 20
0.5525710260415899
 30
0.0
 40
0.075
 41
1.099999999999999
 71
     1
 72
     5
  1
{\fArial|b0|i0|c0|p34;DRAWING NUMBER}
 73
     1
 44
1.0
  0
MTEXT
  5
3762
330
3743
100
AcDbEntity
  8
0
  6
Continuous
370
    30
100
AcDbMText
 10
6.450000017707228
 20
0.3525710260415899
 30
0.0
 40
0.1
 41
1.099999993811282
 71
     1
 72
     5
  1
{\fCourier New|b0|i0|c0|p49;3000nnnn}
 73
     1
 44
1.0
  0
LINE
  5
3763
330
3743
100
AcDbEntity
  8
0
  6
Continuous
370
    30
100
AcDbLine
 10
6.35000001151851
 20
0.6025710227329598
 30
0.0
 11
6.35000001151851
 21
0.1525710227329598
 31
0.0
  0
MTEXT
  5
3764
330
3743
100
AcDbEntity
  8
0
  6
Continuous
370
    30
100
AcDbMText
 10
7.650000017707228
 20
0.5525710260415899
 30
0.0
 40
0.075
 41
0.4999999938112838
 71
     1
 72
     5
  1
{\fArial|b0|i0|c0|p34;REV}
 73
     1
 44
1.0
  0
LINE
  5
3765
330
3743
100
AcDbEntity
  8
0
  6
Continuous
370
    30
100
AcDbLine
 10
7.550000011518509
 20
0.6025710227329598
 30
0.0
 11
7.550000011518509
 21
0.1525710227329598
 31
0.0
  0
MTEXT
  5
3766
330
3743
100
AcDbEntity
  8
0
  6
Continuous
370
    30
100
AcDbMText
 10
7.650000017707228
 20
0.3525710260415899
 30
0.0
 40
0.1
 41
0.4999999938112829
 71
     1
 72
     5
  1
{\fCourier New|b0|i0|c0|p49;1}
 73
     1
 44
1.0
  0
ENDBLK
  5
3768
330
3743
100
AcDbEntity
  8
0
370
    30
100
AcDbBlockEnd
  0
BLOCK
  5
4174
330
4169
100
AcDbEntity
  8
0
370
    30
100
AcDbBlockBegin
  2
*D17
 70
     1
 10
0.0
 20
0.0
 30
0.0
  3
*D17
  1

  0
LINE
  5
416A
330
4169
100
AcDbEntity
  8
0
 62
     0
370
    -2
100
AcDbLine
 10
31.43825396930332
 20
1.080942897008577
 30
0.0
 11
31.43825396930332
 21
0.5419439722359439
 31
0.0
  0
LINE
  5
416B
330
4169
100
AcDbEntity
  8
0
 62
     0
370
    -2
100
AcDbLine
 10
33.39825396930334
 20
1.080942897008579
 30
0.0
 11
33.39825396930334
 21
0.5419439722359439
 31
0.0
  0
LINE
  5
416C
330
4169
100
AcDbEntity
  8
0
 62
     0
370
    -2
100
AcDbLine
 10
31.51825396930332
 20
0.5919439722359439
 30
0.0
 11
31.83325396930333
 21
0.5919439722359439
 31
0.0
  0
LINE
  5
416D
330
4169
100
AcDbEntity
  8
0
 62
     0
370
    -2
100
AcDbLine
 10
33.31825396930334
 20
0.5919439722359439
 30
0.0
 11
33.00325396930333
 21
0.5919439722359439
 31
0.0
  0
SOLID
  5
416E
330
4169
100
AcDbEntity
  8
0
 62
     0
370
    30
100
AcDbTrace
 10
31.51825396930332
 20
0.6052773055692772
 30
0.0
 11
31.51825396930332
 21
0.5786106389026106
 31
0.0
 12
31.43825396930332
 22
0.5919439722359439
 32
0.0
 13
31.43825396930332
 23
0.5919439722359439
 33
0.0
  0
SOLID
  5
416F
330
4169
100
AcDbEntity
  8
0
 62
     0
370
    30
100
AcDbTrace
 10
33.31825396930334
 20
0.6052773055692772
 30
0.0
 11
33.31825396930334
 21
0.5786106389026106
 31
0.0
 12
33.39825396930334
 22
0.5919439722359439
 32
0.0
 13
33.39825396930334
 23
0.5919439722359439
 33
0.0
  0
MTEXT
  5
4170
330
4169
100
AcDbEntity
  8
0
 62
     0
370
    30
100
AcDbMText
 10
32.41825396930333
 20
0.5919439722359439
 30
0.0
 40
0.09
 41
0.0
 71
     5
 72
     1
  1
\A1;1.9600 [49.78]
 73
     1
 44
1.0
  0
POINT
  5
4171
330
4169
100
AcDbEntity
  8
Defpoints
 62
     0
370
    30
100
AcDbPoint
 10
31.43825396930332
 20
1.143442897008577
 30
0.0
  0
POINT
  5
4172
330
4169
100
AcDbEntity
  8
Defpoints
 62
     0
370
    30
100
AcDbPoint
 10
33.39825396930334
 20
1.143442897008579
 30
0.0
  0
POINT
  5
4173
330
4169
100
AcDbEntity
  8
Defpoints
 62
     0
370
    30
100
AcDbPoint
 10
33.39825396930334
 20
0.5919439722359439
 30
0.0
  0
ENDBLK
  5
4175
330
4169
100
AcDbEntity
  8
0
370
    30
100
AcDbBlockEnd
  0
BLOCK
  5
4181
330
4176
100
AcDbEntity
  8
0
370
    30
100
AcDbBlockBegin
  2
*D18
 70
     1
 10
0.0
 20
0.0
 30
0.0
  3
*D18
  1

  0
LINE
  5
4177
330
4176
100
AcDbEntity
  8
0
 62
     0
370
    -2
100
AcDbLine
 10
31.14325396930333
 20
1.080942897008574
 30
0.0
 11
31.14325396930333
 21
0.2979290734031419
 31
0.0
  0
LINE
  5
4178
330
4176
100
AcDbEntity
  8
0
 62
     0
370
    -2
100
AcDbLine
 10
33.69325396930334
 20
1.080942897008577
 30
0.0
 11
33.69325396930334
 21
0.2979290734031419
 31
0.0
  0
LINE
  5
4179
330
4176
100
AcDbEntity
  8
0
 62
     0
370
    -2
100
AcDbLine
 10
31.22325396930333
 20
0.3479290734031419
 30
0.0
 11
31.81825396930333
 21
0.3479290734031419
 31
0.0
  0
LINE
  5
417A
330
4176
100
AcDbEntity
  8
0
 62
     0
370
    -2
100
AcDbLine
 10
33.61325396930334
 20
0.3479290734031419
 30
0.0
 11
33.01825396930333
 21
0.3479290734031419
 31
0.0
  0
SOLID
  5
417B
330
4176
100
AcDbEntity
  8
0
 62
     0
370
    30
100
AcDbTrace
 10
31.22325396930333
 20
0.3612624067364752
 30
0.0
 11
31.22325396930333
 21
0.3345957400698087
 31
0.0
 12
31.14325396930333
 22
0.3479290734031419
 32
0.0
 13
31.14325396930333
 23
0.3479290734031419
 33
0.0
  0
SOLID
  5
417C
330
4176
100
AcDbEntity
  8
0
 62
     0
370
    30
100
AcDbTrace
 10
33.61325396930334
 20
0.3612624067364752
 30
0.0
 11
33.61325396930334
 21
0.3345957400698087
 31
0.0
 12
33.69325396930334
 22
0.3479290734031419
 32
0.0
 13
33.69325396930334
 23
0.3479290734031419
 33
0.0
  0
MTEXT
  5
417D
330
4176
100
AcDbEntity
  8
0
 62
     0
370
    30
100
AcDbMText
 10
32.41825396930333
 20
0.3479290734031419
 30
0.0
 40
0.09
 41
0.0
 71
     5
 72
     1
  1
\A1;2.5500 [64.77]
 73
     1
 44
1.0
  0
POINT
  5
417E
330
4176
100
AcDbEntity
  8
Defpoints
 62
     0
370
    30
100
AcDbPoint
 10
31.14325396930333
 20
1.143442897008574
 30
0.0
  0
POINT
  5
417F
330
4176
100
AcDbEntity
  8
Defpoints
 62
     0
370
    30
100
AcDbPoint
 10
33.69325396930334
 20
1.143442897008577
 30
0.0
  0
POINT
  5
4180
330
4176
100
AcDbEntity
  8
Defpoints
 62
     0
370
    30
100
AcDbPoint
 10
33.69325396930334
 20
0.3479290734031419
 30
0.0
  0
ENDBLK
  5
4182
330
4176
100
AcDbEntity
  8
0
370
    30
100
AcDbBlockEnd
  0
BLOCK
  5
418E
330
4183
100
AcDbEntity
  8
0
370
    30
100
AcDbBlockBegin
  2
*D19
 70
     1
 10
0.0
 20
0.0
 30
0.0
  3
*D19
  1

  0
LINE
  5
4184
330
4183
100
AcDbEntity
  8
0
 62
     0
370
    -2
100
AcDbLine
 10
31.37575396930333
 20
1.143442897008574
 30
0.0
 11
30.52915612089075
 21
1.143442897008574
 31
0.0
  0
LINE
  5
4185
330
4183
100
AcDbEntity
  8
0
 62
     0
370
    -2
100
AcDbLine
 10
31.37575396930333
 20
4.253442897008573
 30
0.0
 11
30.52915612089075
 21
4.253442897008573
 31
0.0
  0
LINE
  5
4186
330
4183
100
AcDbEntity
  8
0
 62
     0
370
    -2
100
AcDbLine
 10
30.57915612089075
 20
1.223442897008574
 30
0.0
 11
30.57915612089075
 21
2.563442897008574
 31
0.0
  0
LINE
  5
4187
330
4183
100
AcDbEntity
  8
0
 62
     0
370
    -2
100
AcDbLine
 10
30.57915612089075
 20
4.173442897008573
 30
0.0
 11
30.57915612089075
 21
2.833442897008574
 31
0.0
  0
SOLID
  5
4188
330
4183
100
AcDbEntity
  8
0
 62
     0
370
    30
100
AcDbTrace
 10
30.56582278755742
 20
1.223442897008574
 30
0.0
 11
30.59248945422408
 21
1.223442897008574
 31
0.0
 12
30.57915612089075
 22
1.143442897008574
 32
0.0
 13
30.57915612089075
 23
1.143442897008574
 33
0.0
  0
SOLID
  5
4189
330
4183
100
AcDbEntity
  8
0
 62
     0
370
    30
100
AcDbTrace
 10
30.56582278755742
 20
4.173442897008573
 30
0.0
 11
30.59248945422408
 21
4.173442897008573
 31
0.0
 12
30.57915612089075
 22
4.253442897008573
 32
0.0
 13
30.57915612089075
 23
4.253442897008573
 33
0.0
  0
MTEXT
  5
418A
330
4183
100
AcDbEntity
  8
0
 62
     0
370
    30
100
AcDbMText
 10
30.57915612089075
 20
2.698442897008579
 30
0.0
 40
0.09
 41
0.0
 71
     5
 72
     1
  1
\A1;3.1100 [78.99]
 73
     1
 44
1.0
  0
POINT
  5
418B
330
4183
100
AcDbEntity
  8
Defpoints
 62
     0
370
    30
100
AcDbPoint
 10
31.43825396930334
 20
1.143442897008574
 30
0.0
  0
POINT
  5
418C
330
4183
100
AcDbEntity
  8
Defpoints
 62
     0
370
    30
100
AcDbPoint
 10
31.43825396930334
 20
4.253442897008573
 30
0.0
  0
POINT
  5
418D
330
4183
100
AcDbEntity
  8
Defpoints
 62
     0
370
    30
100
AcDbPoint
 10
30.57915612089075
 20
4.253442897008573
 30
0.0
  0
ENDBLK
  5
418F
330
4183
100
AcDbEntity
  8
0
370
    30
100
AcDbBlockEnd
  0
BLOCK
  5
419B
330
4190
100
AcDbEntity
  8
0
370
    30
100
AcDbBlockBegin
  2
*D20
 70
     1
 10
0.0
 20
0.0
 30
0.0
  3
*D20
  1

  0
LINE
  5
4191
330
4190
100
AcDbEntity
  8
0
 62
     0
370
    -2
100
AcDbLine
 10
31.37575396930333
 20
4.548442897008575
 30
0.0
 11
29.93974215993089
 21
4.548442897008576
 31
0.0
  0
LINE
  5
4192
330
4190
100
AcDbEntity
  8
0
 62
     0
370
    -2
100
AcDbLine
 10
31.37575396930332
 20
0.8484428970085744
 30
0.0
 11
29.93974215993089
 21
0.8484428970085748
 31
0.0
  0
LINE
  5
4193
330
4190
100
AcDbEntity
  8
0
 62
     0
370
    -2
100
AcDbLine
 10
29.98974215993089
 20
4.468442897008576
 30
0.0
 11
29.98974215993089
 21
2.466613190409941
 31
0.0
  0
LINE
  5
4194
330
4190
100
AcDbEntity
  8
0
 62
     0
370
    -2
100
AcDbLine
 10
29.98974215993089
 20
0.9284428970085748
 30
0.0
 11
29.98974215993089
 21
2.196613190409941
 31
0.0
  0
SOLID
  5
4195
330
4190
100
AcDbEntity
  8
0
 62
     0
370
    30
100
AcDbTrace
 10
29.97640882659755
 20
4.468442897008576
 30
0.0
 11
30.00307549326422
 21
4.468442897008575
 31
0.0
 12
29.98974215993089
 22
4.548442897008576
 32
0.0
 13
29.98974215993089
 23
4.548442897008576
 33
0.0
  0
SOLID
  5
4196
330
4190
100
AcDbEntity
  8
0
 62
     0
370
    30
100
AcDbTrace
 10
29.97640882659755
 20
0.9284428970085748
 30
0.0
 11
30.00307549326422
 21
0.9284428970085748
 31
0.0
 12
29.98974215993089
 22
0.8484428970085748
 32
0.0
 13
29.98974215993089
 23
0.8484428970085748
 33
0.0
  0
MTEXT
  5
4197
330
4190
100
AcDbEntity
  8
0
 62
     0
370
    30
100
AcDbMText
 10
29.98974215993089
 20
2.331613190409946
 30
0.0
 40
0.09
 41
0.0
 71
     5
 72
     1
  1
\A1;3.7000 [93.98]
 73
     1
 44
1.0
  0
POINT
  5
4198
330
4190
100
AcDbEntity
  8
Defpoints
 62
     0
370
    30
100
AcDbPoint
 10
31.43825396930334
 20
4.548442897008575
 30
0.0
  0
POINT
  5
4199
330
4190
100
AcDbEntity
  8
Defpoints
 62
     0
370
    30
100
AcDbPoint
 10
31.43825396930332
 20
0.8484428970085744
 30
0.0
  0
POINT
  5
419A
330
4190
100
AcDbEntity
  8
Defpoints
 62
     0
370
    30
100
AcDbPoint
 10
29.98974215993089
 20
0.8484428970085748
 30
0.0
  0
ENDBLK
  5
419C
330
4190
100
AcDbEntity
  8
0
370
    30
100
AcDbBlockEnd
  0
BLOCK
  5
41A8
330
419D
100
AcDbEntity
  8
0
370
    30
100
AcDbBlockBegin
  2
*D21
 70
     1
 10
0.0
 20
0.0
 30
0.0
  3
*D21
  1

  0
LINE
  5
419E
330
419D
100
AcDbEntity
  8
0
 62
     0
370
    -2
100
AcDbLine
 10
35.27878909302263
 20
4.610942897008575
 30
0.0
 11
35.27878909302263
 21
5.110462898207509
 31
0.0
  0
LINE
  5
419F
330
419D
100
AcDbEntity
  8
0
 62
     0
370
    -2
100
AcDbLine
 10
36.81128909302263
 20
4.610942897008575
 30
0.0
 11
36.81128909302263
 21
5.110462898207509
 31
0.0
  0
LINE
  5
41A0
330
419D
100
AcDbEntity
  8
0
 62
     0
370
    -2
100
AcDbLine
 10
35.19878909302263
 20
5.060462898207509
 30
0.0
 11
35.11878909302264
 21
5.060462898207509
 31
0.0
  0
LINE
  5
41A1
330
419D
100
AcDbEntity
  8
0
 62
     0
370
    -2
100
AcDbLine
 10
36.89128909302263
 20
5.060462898207509
 30
0.0
 11
36.97128909302263
 21
5.060462898207509
 31
0.0
  0
SOLID
  5
41A2
330
419D
100
AcDbEntity
  8
0
 62
     0
370
    30
100
AcDbTrace
 10
35.19878909302263
 20
5.073796231540843
 30
0.0
 11
35.19878909302263
 21
5.047129564874175
 31
0.0
 12
35.27878909302263
 22
5.060462898207509
 32
0.0
 13
35.27878909302263
 23
5.060462898207509
 33
0.0
  0
SOLID
  5
41A3
330
419D
100
AcDbEntity
  8
0
 62
     0
370
    30
100
AcDbTrace
 10
36.89128909302263
 20
5.073796231540843
 30
0.0
 11
36.89128909302263
 21
5.047129564874175
 31
0.0
 12
36.81128909302263
 22
5.060462898207509
 32
0.0
 13
36.81128909302263
 23
5.060462898207509
 33
0.0
  0
MTEXT
  5
41A4
330
419D
100
AcDbEntity
  8
0
 62
     0
370
    30
100
AcDbMText
 10
36.04503909302263
 20
5.060462898207509
 30
0.0
 40
0.09
 41
0.0
 71
     5
 72
     1
  1
\A1;1.5325 [38.93]
 73
     1
 44
1.0
  0
POINT
  5
41A5
330
419D
100
AcDbEntity
  8
Defpoints
 62
     0
370
    30
100
AcDbPoint
 10
35.27878909302263
 20
4.548442897008575
 30
0.0
  0
POINT
  5
41A6
330
419D
100
AcDbEntity
  8
Defpoints
 62
     0
370
    30
100
AcDbPoint
 10
36.81128909302263
 20
4.548442897008575
 30
0.0
  0
POINT
  5
41A7
330
419D
100
AcDbEntity
  8
Defpoints
 62
     0
370
    30
100
AcDbPoint
 10
36.81128909302263
 20
5.060462898207509
 30
0.0
  0
ENDBLK
  5
41A9
330
419D
100
AcDbEntity
  8
0
370
    30
100
AcDbBlockEnd
  0
BLOCK
  5
41B5
330
41AA
100
AcDbEntity
  8
0
370
    30
100
AcDbBlockBegin
  2
*D22
 70
     1
 10
0.0
 20
0.0
 30
0.0
  3
*D22
  1

  0
LINE
  5
41AB
330
41AA
100
AcDbEntity
  8
0
 62
     0
370
    -2
100
AcDbLine
 10
37.52336588430303
 20
4.610942897008575
 30
0.0
 11
37.52336588430303
 21
5.110462898207509
 31
0.0
  0
LINE
  5
41AC
330
41AA
100
AcDbEntity
  8
0
 62
     0
370
    -2
100
AcDbLine
 10
38.12336588430303
 20
4.610942897008575
 30
0.0
 11
38.12336588430303
 21
5.110462898207509
 31
0.0
  0
LINE
  5
41AD
330
41AA
100
AcDbEntity
  8
0
 62
     0
370
    -2
100
AcDbLine
 10
37.60336588430303
 20
5.060462898207509
 30
0.0
 11
38.04336588430303
 21
5.060462898207509
 31
0.0
  0
LINE
  5
41AE
330
41AA
100
AcDbEntity
  8
0
 62
     0
370
    -2
100
AcDbLine
 10
38.12336588430303
 20
5.060462898207509
 30
0.0
 11
38.20336588430303
 21
5.060462898207509
 31
0.0
  0
SOLID
  5
41AF
330
41AA
100
AcDbEntity
  8
0
 62
     0
370
    30
100
AcDbTrace
 10
37.60336588430303
 20
5.073796231540843
 30
0.0
 11
37.60336588430303
 21
5.047129564874175
 31
0.0
 12
37.52336588430303
 22
5.060462898207509
 32
0.0
 13
37.52336588430303
 23
5.060462898207509
 33
0.0
  0
SOLID
  5
41B0
330
41AA
100
AcDbEntity
  8
0
 62
     0
370
    30
100
AcDbTrace
 10
38.04336588430303
 20
5.073796231540843
 30
0.0
 11
38.04336588430303
 21
5.047129564874175
 31
0.0
 12
38.12336588430303
 22
5.060462898207509
 32
0.0
 13
38.12336588430303
 23
5.060462898207509
 33
0.0
  0
MTEXT
  5
41B1
330
41AA
100
AcDbEntity
  8
0
 62
     0
370
    30
100
AcDbMText
 10
38.77336588430303
 20
5.060462898207509
 30
0.0
 40
0.09
 41
0.0
 71
     5
 72
     1
  1
\A1;0.6000 [15.24]
 73
     1
 44
1.0
  0
POINT
  5
41B2
330
41AA
100
AcDbEntity
  8
Defpoints
 62
     0
370
    30
100
AcDbPoint
 10
37.52336588430303
 20
4.548442897008575
 30
0.0
  0
POINT
  5
41B3
330
41AA
100
AcDbEntity
  8
Defpoints
 62
     0
370
    30
100
AcDbPoint
 10
38.12336588430303
 20
4.548442897008575
 30
0.0
  0
POINT
  5
41B4
330
41AA
100
AcDbEntity
  8
Defpoints
 62
     0
370
    30
100
AcDbPoint
 10
38.12336588430303
 20
5.060462898207509
 30
0.0
  0
ENDBLK
  5
41B6
330
41AA
100
AcDbEntity
  8
0
370
    30
100
AcDbBlockEnd
  0
BLOCK
  5
41C2
330
41B7
100
AcDbEntity
  8
0
370
    30
100
AcDbBlockBegin
  2
*D23
 70
     1
 10
0.0
 20
0.0
 30
0.0
  3
*D23
  1

  0
LINE
  5
41B8
330
41B7
100
AcDbEntity
  8
0
 62
     0
370
    -2
100
AcDbLine
 10
35.27878909302263
 20
0.7859428970085763
 30
0.0
 11
35.27878909302263
 21
0.4028412294065643
 31
0.0
  0
LINE
  5
41B9
330
41B7
100
AcDbEntity
  8
0
 62
     0
370
    -2
100
AcDbLine
 10
36.04128909302263
 20
2.034692897008573
 30
0.0
 11
36.04128909302263
 21
0.4028412294065643
 31
0.0
  0
LINE
  5
41BA
330
41B7
100
AcDbEntity
  8
0
 62
     0
370
    -2
100
AcDbLine
 10
35.35878909302264
 20
0.4528412294065643
 30
0.0
 11
35.96128909302263
 21
0.4528412294065643
 31
0.0
  0
LINE
  5
41BB
330
41B7
100
AcDbEntity
  8
0
 62
     0
370
    -2
100
AcDbLine
 10
36.04128909302263
 20
0.4528412294065643
 30
0.0
 11
36.12128909302263
 21
0.4528412294065643
 31
0.0
  0
SOLID
  5
41BC
330
41B7
100
AcDbEntity
  8
0
 62
     0
370
    30
100
AcDbTrace
 10
35.35878909302264
 20
0.4661745627398976
 30
0.0
 11
35.35878909302264
 21
0.439507896073231
 31
0.0
 12
35.27878909302263
 22
0.4528412294065643
 32
0.0
 13
35.27878909302263
 23
0.4528412294065643
 33
0.0
  0
SOLID
  5
41BD
330
41B7
100
AcDbEntity
  8
0
 62
     0
370
    30
100
AcDbTrace
 10
35.96128909302263
 20
0.4661745627398976
 30
0.0
 11
35.96128909302263
 21
0.439507896073231
 31
0.0
 12
36.04128909302263
 22
0.4528412294065643
 32
0.0
 13
36.04128909302263
 23
0.4528412294065643
 33
0.0
  0
MTEXT
  5
41BE
330
41B7
100
AcDbEntity
  8
0
 62
     0
370
    30
100
AcDbMText
 10
36.71378909302263
 20
0.4528412294065643
 30
0.0
 40
0.09
 41
0.0
 71
     5
 72
     1
  1
\A1;0.7625 [19.37]
 73
     1
 44
1.0
  0
POINT
  5
41BF
330
41B7
100
AcDbEntity
  8
Defpoints
 62
     0
370
    30
100
AcDbPoint
 10
35.27878909302263
 20
0.8484428970085762
 30
0.0
  0
POINT
  5
41C0
330
41B7
100
AcDbEntity
  8
Defpoints
 62
     0
370
    30
100
AcDbPoint
 10
36.04128909302263
 20
2.097192897008573
 30
0.0
  0
POINT
  5
41C1
330
41B7
100
AcDbEntity
  8
Defpoints
 62
     0
370
    30
100
AcDbPoint
 10
36.04128909302263
 20
0.4528412294065643
 30
0.0
  0
ENDBLK
  5
41C3
330
41B7
100
AcDbEntity
  8
0
370
    30
100
AcDbBlockEnd
  0
BLOCK
  5
41CF
330
41C4
100
AcDbEntity
  8
0
370
    30
100
AcDbBlockBegin
  2
*D24
 70
     1
 10
0.0
 20
0.0
 30
0.0
  3
*D24
  1

  0
LINE
  5
41C5
330
41C4
100
AcDbEntity
  8
0
 62
     0
370
    -2
100
AcDbLine
 10
35.21628909302263
 20
0.8484428970085764
 30
0.0
 11
34.66362785990451
 21
0.8484428970085764
 31
0.0
  0
LINE
  5
41C6
330
41C4
100
AcDbEntity
  8
0
 62
     0
370
    -2
100
AcDbLine
 10
35.97878909302263
 20
2.097192897008573
 30
0.0
 11
34.66362785990451
 21
2.097192897008574
 31
0.0
  0
LINE
  5
41C7
330
41C4
100
AcDbEntity
  8
0
 62
     0
370
    -2
100
AcDbLine
 10
34.7136278599045
 20
0.9284428970085764
 30
0.0
 11
34.7136278599045
 21
1.337817897008575
 31
0.0
  0
LINE
  5
41C8
330
41C4
100
AcDbEntity
  8
0
 62
     0
370
    -2
100
AcDbLine
 10
34.7136278599045
 20
2.017192897008574
 30
0.0
 11
34.7136278599045
 21
1.607817897008575
 31
0.0
  0
SOLID
  5
41C9
330
41C4
100
AcDbEntity
  8
0
 62
     0
370
    30
100
AcDbTrace
 10
34.70029452657117
 20
0.9284428970085764
 30
0.0
 11
34.72696119323784
 21
0.9284428970085764
 31
0.0
 12
34.7136278599045
 22
0.8484428970085764
 32
0.0
 13
34.7136278599045
 23
0.8484428970085764
 33
0.0
  0
SOLID
  5
41CA
330
41C4
100
AcDbEntity
  8
0
 62
     0
370
    30
100
AcDbTrace
 10
34.70029452657117
 20
2.017192897008574
 30
0.0
 11
34.72696119323784
 21
2.017192897008574
 31
0.0
 12
34.7136278599045
 22
2.097192897008574
 32
0.0
 13
34.7136278599045
 23
2.097192897008574
 33
0.0
  0
MTEXT
  5
41CB
330
41C4
100
AcDbEntity
  8
0
 62
     0
370
    30
100
AcDbMText
 10
34.7136278599045
 20
1.47281789700858
 30
0.0
 40
0.09
 41
0.0
 71
     5
 72
     1
  1
\A1;1.2488 [31.72]
 73
     1
 44
1.0
  0
POINT
  5
41CC
330
41C4
100
AcDbEntity
  8
Defpoints
 62
     0
370
    30
100
AcDbPoint
 10
35.27878909302263
 20
0.8484428970085762
 30
0.0
  0
POINT
  5
41CD
330
41C4
100
AcDbEntity
  8
Defpoints
 62
     0
370
    30
100
AcDbPoint
 10
36.04128909302263
 20
2.097192897008573
 30
0.0
  0
POINT
  5
41CE
330
41C4
100
AcDbEntity
  8
Defpoints
 62
     0
370
    30
100
AcDbPoint
 10
34.7136278599045
 20
2.097192897008574
 30
0.0
  0
ENDBLK
  5
41D0
330
41C4
100
AcDbEntity
  8
0
370
    30
100
AcDbBlockEnd
  0
BLOCK
  5
41DC
330
41D1
100
AcDbEntity
  8
0
370
    30
100
AcDbBlockBegin
  2
*D25
 70
     1
 10
0.0
 20
0.0
 30
0.0
  3
*D25
  1

  0
LINE
  5
41D2
330
41D1
100
AcDbEntity
  8
0
 62
     0
370
    -2
100
AcDbLine
 10
35.97878909302263
 20
2.097192897008573
 30
0.0
 11
34.66362785990451
 21
2.097192897008574
 31
0.0
  0
LINE
  5
41D3
330
41D1
100
AcDbEntity
  8
0
 62
     0
370
    -2
100
AcDbLine
 10
35.97878909302263
 20
3.299692897008576
 30
0.0
 11
34.66362785990451
 21
3.299692897008576
 31
0.0
  0
LINE
  5
41D4
330
41D1
100
AcDbEntity
  8
0
 62
     0
370
    -2
100
AcDbLine
 10
34.7136278599045
 20
2.177192897008574
 30
0.0
 11
34.7136278599045
 21
2.563442897008575
 31
0.0
  0
LINE
  5
41D5
330
41D1
100
AcDbEntity
  8
0
 62
     0
370
    -2
100
AcDbLine
 10
34.7136278599045
 20
3.219692897008576
 30
0.0
 11
34.7136278599045
 21
2.833442897008575
 31
0.0
  0
SOLID
  5
41D6
330
41D1
100
AcDbEntity
  8
0
 62
     0
370
    30
100
AcDbTrace
 10
34.70029452657117
 20
2.177192897008574
 30
0.0
 11
34.72696119323784
 21
2.177192897008574
 31
0.0
 12
34.7136278599045
 22
2.097192897008574
 32
0.0
 13
34.7136278599045
 23
2.097192897008574
 33
0.0
  0
SOLID
  5
41D7
330
41D1
100
AcDbEntity
  8
0
 62
     0
370
    30
100
AcDbTrace
 10
34.70029452657117
 20
3.219692897008576
 30
0.0
 11
34.72696119323784
 21
3.219692897008576
 31
0.0
 12
34.7136278599045
 22
3.299692897008576
 32
0.0
 13
34.7136278599045
 23
3.299692897008576
 33
0.0
  0
MTEXT
  5
41D8
330
41D1
100
AcDbEntity
  8
0
 62
     0
370
    30
100
AcDbMText
 10
34.7136278599045
 20
2.69844289700858
 30
0.0
 40
0.09
 41
0.0
 71
     5
 72
     1
  1
\A1;1.2025 [30.54]
 73
     1
 44
1.0
  0
POINT
  5
41D9
330
41D1
100
AcDbEntity
  8
Defpoints
 62
     0
370
    30
100
AcDbPoint
 10
36.04128909302263
 20
2.097192897008573
 30
0.0
  0
POINT
  5
41DA
330
41D1
100
AcDbEntity
  8
Defpoints
 62
     0
370
    30
100
AcDbPoint
 10
36.04128909302263
 20
3.299692897008576
 30
0.0
  0
POINT
  5
41DB
330
41D1
100
AcDbEntity
  8
Defpoints
 62
     0
370
    30
100
AcDbPoint
 10
34.7136278599045
 20
3.299692897008576
 30
0.0
  0
ENDBLK
  5
41DD
330
41D1
100
AcDbEntity
  8
0
370
    30
100
AcDbBlockEnd
  0
BLOCK
  5
41E9
330
41DE
100
AcDbEntity
  8
0
370
    30
100
AcDbBlockBegin
  2
*D26
 70
     1
 10
0.0
 20
0.0
 30
0.0
  3
*D26
  1

  0
LINE
  5
41DF
330
41DE
100
AcDbEntity
  8
0
 62
     0
370
    -2
100
AcDbLine
 10
35.97878909302263
 20
3.299692897008576
 30
0.0
 11
34.66362785990451
 21
3.299692897008576
 31
0.0
  0
LINE
  5
41E0
330
41DE
100
AcDbEntity
  8
0
 62
     0
370
    -2
100
AcDbLine
 10
35.21628909302263
 20
4.548442897008575
 30
0.0
 11
34.66362785990451
 21
4.548442897008575
 31
0.0
  0
LINE
  5
41E1
330
41DE
100
AcDbEntity
  8
0
 62
     0
370
    -2
100
AcDbLine
 10
34.7136278599045
 20
3.379692897008576
 30
0.0
 11
34.7136278599045
 21
3.789067897008576
 31
0.0
  0
LINE
  5
41E2
330
41DE
100
AcDbEntity
  8
0
 62
     0
370
    -2
100
AcDbLine
 10
34.7136278599045
 20
4.468442897008575
 30
0.0
 11
34.7136278599045
 21
4.059067897008575
 31
0.0
  0
SOLID
  5
41E3
330
41DE
100
AcDbEntity
  8
0
 62
     0
370
    30
100
AcDbTrace
 10
34.70029452657117
 20
3.379692897008576
 30
0.0
 11
34.72696119323784
 21
3.379692897008576
 31
0.0
 12
34.7136278599045
 22
3.299692897008576
 32
0.0
 13
34.7136278599045
 23
3.299692897008576
 33
0.0
  0
SOLID
  5
41E4
330
41DE
100
AcDbEntity
  8
0
 62
     0
370
    30
100
AcDbTrace
 10
34.70029452657117
 20
4.468442897008575
 30
0.0
 11
34.72696119323784
 21
4.468442897008575
 31
0.0
 12
34.7136278599045
 22
4.548442897008575
 32
0.0
 13
34.7136278599045
 23
4.548442897008575
 33
0.0
  0
MTEXT
  5
41E5
330
41DE
100
AcDbEntity
  8
0
 62
     0
370
    30
100
AcDbMText
 10
34.7136278599045
 20
3.924067897008581
 30
0.0
 40
0.09
 41
0.0
 71
     5
 72
     1
  1
\A1;1.2488 [31.72]
 73
     1
 44
1.0
  0
POINT
  5
41E6
330
41DE
100
AcDbEntity
  8
Defpoints
 62
     0
370
    30
100
AcDbPoint
 10
36.04128909302263
 20
3.299692897008576
 30
0.0
  0
POINT
  5
41E7
330
41DE
100
AcDbEntity
  8
Defpoints
 62
     0
370
    30
100
AcDbPoint
 10
35.27878909302263
 20
4.548442897008575
 30
0.0
  0
POINT
  5
41E8
330
41DE
100
AcDbEntity
  8
Defpoints
 62
     0
370
    30
100
AcDbPoint
 10
34.7136278599045
 20
4.548442897008575
 30
0.0
  0
ENDBLK
  5
41EA
330
41DE
100
AcDbEntity
  8
0
370
    30
100
AcDbBlockEnd
  0
BLOCK
  5
41F6
330
41EB
100
AcDbEntity
  8
0
370
    30
100
AcDbBlockBegin
  2
*D27
 70
     1
 10
0.0
 20
0.0
 30
0.0
  3
*D27
  1

  0
LINE
  5
41EC
330
41EB
100
AcDbEntity
  8
0
 62
     0
370
    -2
100
AcDbLine
 10
33.69325396930335
 20
5.262715897011197
 30
0.0
 11
33.69325396930335
 21
5.051436370840055
 31
0.0
  0
LINE
  5
41ED
330
41EB
100
AcDbEntity
  8
0
 62
     0
370
    -2
100
AcDbLine
 10
32.41825396930333
 20
6.025215897011193
 30
0.0
 11
32.41825396930333
 21
5.051436370840055
 31
0.0
  0
LINE
  5
41EE
330
41EB
100
AcDbEntity
  8
0
 62
     0
370
    -2
100
AcDbLine
 10
33.77325396930334
 20
5.101436370840055
 30
0.0
 11
33.85325396930334
 21
5.101436370840055
 31
0.0
  0
LINE
  5
41EF
330
41EB
100
AcDbEntity
  8
0
 62
     0
370
    -2
100
AcDbLine
 10
32.33825396930333
 20
5.101436370840055
 30
0.0
 11
32.25825396930334
 21
5.101436370840055
 31
0.0
  0
SOLID
  5
41F0
330
41EB
100
AcDbEntity
  8
0
 62
     0
370
    30
100
AcDbTrace
 10
33.77325396930334
 20
5.114769704173388
 30
0.0
 11
33.77325396930334
 21
5.088103037506721
 31
0.0
 12
33.69325396930335
 22
5.101436370840055
 32
0.0
 13
33.69325396930335
 23
5.101436370840055
 33
0.0
  0
SOLID
  5
41F1
330
41EB
100
AcDbEntity
  8
0
 62
     0
370
    30
100
AcDbTrace
 10
32.33825396930333
 20
5.114769704173388
 30
0.0
 11
32.33825396930333
 21
5.088103037506721
 31
0.0
 12
32.41825396930333
 22
5.101436370840055
 32
0.0
 13
32.41825396930333
 23
5.101436370840055
 33
0.0
  0
MTEXT
  5
41F2
330
41EB
100
AcDbEntity
  8
0
 62
     0
370
    30
100
AcDbMText
 10
33.08254638996771
 20
5.101436370840055
 30
0.0
 40
0.09
 41
0.0
 71
     5
 72
     1
  1
\A1;1.2750 [32.39]
 73
     1
 44
1.0
  0
POINT
  5
41F3
330
41EB
100
AcDbEntity
  8
Defpoints
 62
     0
370
    30
100
AcDbPoint
 10
33.69325396930335
 20
5.325215897011197
 30
0.0
  0
POINT
  5
41F4
330
41EB
100
AcDbEntity
  8
Defpoints
 62
     0
370
    30
100
AcDbPoint
 10
32.41825396930333
 20
6.087715897011193
 30
0.0
  0
POINT
  5
41F5
330
41EB
100
AcDbEntity
  8
Defpoints
 62
     0
370
    30
100
AcDbPoint
 10
32.41825396930333
 20
5.101436370840055
 30
0.0
  0
ENDBLK
  5
41F7
330
41EB
100
AcDbEntity
  8
0
370
    30
100
AcDbBlockEnd
  0
BLOCK
  5
4203
330
41F8
100
AcDbEntity
  8
0
370
    30
100
AcDbBlockBegin
  2
*D28
 70
     1
 10
0.0
 20
0.0
 30
0.0
  3
*D28
  1

  0
LINE
  5
41F9
330
41F8
100
AcDbEntity
  8
0
 62
     0
370
    -2
100
AcDbLine
 10
33.75575396930335
 20
5.325215897011197
 30
0.0
 11
34.39166274614693
 21
5.325215897011196
 31
0.0
  0
LINE
  5
41FA
330
41F8
100
AcDbEntity
  8
0
 62
     0
370
    -2
100
AcDbLine
 10
32.48075396930333
 20
6.087715897011193
 30
0.0
 11
34.39166274614693
 21
6.087715897011192
 31
0.0
  0
LINE
  5
41FB
330
41F8
100
AcDbEntity
  8
0
 62
     0
370
    -2
100
AcDbLine
 10
34.34166274614693
 20
5.405215897011196
 30
0.0
 11
34.34166274614693
 21
5.571465897011194
 31
0.0
  0
LINE
  5
41FC
330
41F8
100
AcDbEntity
  8
0
 62
     0
370
    -2
100
AcDbLine
 10
34.34166274614693
 20
6.007715897011192
 30
0.0
 11
34.34166274614693
 21
5.841465897011194
 31
0.0
  0
SOLID
  5
41FD
330
41F8
100
AcDbEntity
  8
0
 62
     0
370
    30
100
AcDbTrace
 10
34.3283294128136
 20
5.405215897011196
 30
0.0
 11
34.35499607948027
 21
5.405215897011196
 31
0.0
 12
34.34166274614693
 22
5.325215897011196
 32
0.0
 13
34.34166274614693
 23
5.325215897011196
 33
0.0
  0
SOLID
  5
41FE
330
41F8
100
AcDbEntity
  8
0
 62
     0
370
    30
100
AcDbTrace
 10
34.3283294128136
 20
6.007715897011192
 30
0.0
 11
34.35499607948027
 21
6.007715897011192
 31
0.0
 12
34.34166274614693
 22
6.087715897011192
 32
0.0
 13
34.34166274614693
 23
6.087715897011192
 33
0.0
  0
MTEXT
  5
41FF
330
41F8
100
AcDbEntity
  8
0
 62
     0
370
    30
100
AcDbMText
 10
34.34166274614693
 20
5.7064658970112
 30
0.0
 40
0.09
 41
0.0
 71
     5
 72
     1
  1
\A1;0.7625 [19.37]
 73
     1
 44
1.0
  0
POINT
  5
4200
330
41F8
100
AcDbEntity
  8
Defpoints
 62
     0
370
    30
100
AcDbPoint
 10
33.69325396930335
 20
5.325215897011197
 30
0.0
  0
POINT
  5
4201
330
41F8
100
AcDbEntity
  8
Defpoints
 62
     0
370
    30
100
AcDbPoint
 10
32.41825396930333
 20
6.087715897011193
 30
0.0
  0
POINT
  5
4202
330
41F8
100
AcDbEntity
  8
Defpoints
 62
     0
370
    30
100
AcDbPoint
 10
34.34166274614693
 20
6.087715897011192
 30
0.0
  0
ENDBLK
  5
4204
330
41F8
100
AcDbEntity
  8
0
370
    30
100
AcDbBlockEnd
  0
BLOCK
  5
420E
330
4205
100
AcDbEntity
  8
0
370
    30
100
AcDbBlockBegin
  2
*D29
 70
     1
 10
0.0
 20
0.0
 30
0.0
  3
*D29
  1

  0
LINE
  5
4206
330
4205
100
AcDbEntity
  8
0
 62
     0
370
    -2
100
AcDbLine
 10
32.71887037004116
 20
3.835168560499328
 30
0.0
 11
32.82199473672291
 21
3.835168560499326
 31
0.0
  0
LINE
  5
4207
330
4205
100
AcDbEntity
  8
0
 62
     0
370
    -2
100
AcDbLine
 10
32.82199473672291
 20
3.835168560499326
 30
0.0
 11
33.19997897036384
 21
4.109526168323071
 31
0.0
  0
MTEXT
  5
4208
330
4205
100
AcDbEntity
  8
0
 62
     0
370
    30
100
AcDbMText
 10
31.90137037004117
 20
3.835168560499324
 30
0.0
 40
0.09
 41
0.0
 71
     5
 72
     1
  1
\A1;\U+22050.3300 [\U+22058.38] x 4\PMOUNTING HOLE
 73
     1
 44
1.0
  0
SOLID
  5
4209
330
4205
100
AcDbEntity
  8
0
 62
     0
370
    30
100
AcDbTrace
 10
33.19214676744218
 20
4.120316644455833
 30
0.0
 11
33.2078111732855
 21
4.098735692190309
 31
0.0
 12
33.26472182716041
 22
4.156519385853034
 32
0.0
 13
33.26472182716041
 23
4.156519385853034
 33
0.0
  0
LINE
  5
420A
330
4205
100
AcDbEntity
  8
0
 62
     0
370
    -2
100
AcDbLine
 10
33.34825396930336
 20
4.253442897008577
 30
0.0
 11
33.44825396930335
 21
4.253442897008575
 31
0.0
  0
LINE
  5
420B
330
4205
100
AcDbEntity
  8
0
 62
     0
370
    -2
100
AcDbLine
 10
33.39825396930335
 20
4.203442897008576
 30
0.0
 11
33.39825396930335
 21
4.303442897008576
 31
0.0
  0
POINT
  5
420C
330
4205
100
AcDbEntity
  8
Defpoints
 62
     0
370
    30
100
AcDbPoint
 10
33.26472182716041
 20
4.156519385853034
 30
0.0
  0
POINT
  5
420D
330
4205
100
AcDbEntity
  8
Defpoints
 62
     0
370
    30
100
AcDbPoint
 10
33.53178611144628
 20
4.350366408164124
 30
0.0
  0
ENDBLK
  5
420F
330
4205
100
AcDbEntity
  8
0
370
    30
100
AcDbBlockEnd
  0
BLOCK
  5
4219
330
4210
100
AcDbEntity
  8
0
370
    30
100
AcDbBlockBegin
  2
*D30
 70
     1
 10
0.0
 20
0.0
 30
0.0
  3
*D30
  1

  0
LINE
  5
4211
330
4210
100
AcDbEntity
  8
0
 62
     0
370
    -2
100
AcDbLine
 10
32.91089990519599
 20
3.286544029384234
 30
0.0
 11
32.99089990519599
 21
3.286544029384236
 31
0.0
  0
LINE
  5
4212
330
4210
100
AcDbEntity
  8
0
 62
     0
370
    -2
100
AcDbLine
 10
32.99089990519599
 20
3.286544029384236
 30
0.0
 11
33.28372013696558
 21
3.981584475674935
 31
0.0
  0
MTEXT
  5
4213
330
4210
100
AcDbEntity
  8
0
 62
     0
370
    30
100
AcDbMText
 10
32.07089990519598
 20
3.286544029384236
 30
0.0
 40
0.09
 41
0.0
 71
     5
 72
     1
  1
\A1;\U+22050.4300 [\U+220510.92] x 4\PMOUNTING HOLE
 73
     1
 44
1.0
  0
SOLID
  5
4214
330
4210
100
AcDbEntity
  8
0
 62
     0
370
    30
100
AcDbTrace
 10
33.27143275069062
 20
3.986761146063082
 30
0.0
 11
33.29600752324054
 21
3.976407805286788
 31
0.0
 12
33.31478015929447
 22
4.055308793324735
 32
0.0
 13
33.31478015929447
 23
4.055308793324735
 33
0.0
  0
LINE
  5
4215
330
4210
100
AcDbEntity
  8
0
 62
     0
370
    -2
100
AcDbLine
 10
33.34825396930336
 20
4.253442897008577
 30
0.0
 11
33.44825396930335
 21
4.253442897008577
 31
0.0
  0
LINE
  5
4216
330
4210
100
AcDbEntity
  8
0
 62
     0
370
    -2
100
AcDbLine
 10
33.39825396930336
 20
4.20344289700858
 30
0.0
 11
33.39825396930336
 21
4.303442897008581
 31
0.0
  0
POINT
  5
4217
330
4210
100
AcDbEntity
  8
Defpoints
 62
     0
370
    30
100
AcDbPoint
 10
33.31478015929447
 20
4.055308793324735
 30
0.0
  0
POINT
  5
4218
330
4210
100
AcDbEntity
  8
Defpoints
 62
     0
370
    30
100
AcDbPoint
 10
33.48172777931225
 20
4.45157700069242
 30
0.0
  0
ENDBLK
  5
421A
330
4210
100
AcDbEntity
  8
0
370
    30
100
AcDbBlockEnd
  0
BLOCK
  5
4224
330
421B
100
AcDbEntity
  8
0
370
    30
100
AcDbBlockBegin
  2
*D31
 70
     1
 10
0.0
 20
0.0
 30
0.0
  3
*D31
  1

  0
LINE
  5
421C
330
421B
100
AcDbEntity
  8
0
 62
     0
370
    -2
100
AcDbLine
 10
31.07948792224797
 20
5.012819294505593
 30
0.0
 11
31.15948792224799
 21
5.012819294505593
 31
0.0
  0
LINE
  5
421D
330
421B
100
AcDbEntity
  8
0
 62
     0
370
    -2
100
AcDbLine
 10
31.15948792224799
 20
5.012819294505593
 30
0.0
 11
32.00760395114747
 21
5.737050012459263
 31
0.0
  0
MTEXT
  5
421E
330
421B
100
AcDbEntity
  8
0
 62
     0
370
    30
100
AcDbMText
 10
30.21698792224797
 20
5.012819294505597
 30
0.0
 40
0.09
 41
0.0
 71
     5
 72
     1
  1
\A1;\U+22050.9200 [\U+220523.37] x 6\PCONDUIT KNOCKOUTS
 73
     1
 44
1.0
  0
SOLID
  5
421F
330
421B
100
AcDbEntity
  8
0
 62
     0
370
    30
100
AcDbTrace
 10
31.99894553424495
 20
5.747189519080395
 30
0.0
 11
32.01626236804998
 21
5.726910505838132
 31
0.0
 12
32.06844099087426
 22
5.789000513874363
 32
0.0
 13
32.06844099087426
 23
5.789000513874363
 33
0.0
  0
LINE
  5
4220
330
421B
100
AcDbEntity
  8
0
 62
     0
370
    -2
100
AcDbLine
 10
32.36825396930333
 20
6.087715897011197
 30
0.0
 11
32.46825396930333
 21
6.087715897011198
 31
0.0
  0
LINE
  5
4221
330
421B
100
AcDbEntity
  8
0
 62
     0
370
    -2
100
AcDbLine
 10
32.41825396930333
 20
6.037715897011194
 30
0.0
 11
32.41825396930333
 21
6.137715897011197
 31
0.0
  0
POINT
  5
4222
330
421B
100
AcDbEntity
  8
Defpoints
 62
     0
370
    30
100
AcDbPoint
 10
32.06844099087426
 20
5.789000513874363
 30
0.0
  0
POINT
  5
4223
330
421B
100
AcDbEntity
  8
Defpoints
 62
     0
370
    30
100
AcDbPoint
 10
32.76806694773241
 20
6.38643128014803
 30
0.0
  0
ENDBLK
  5
4225
330
421B
100
AcDbEntity
  8
0
370
    30
100
AcDbBlockEnd
  0
BLOCK
  5
42BA
330
4226
100
AcDbEntity
  8
0
370
    30
100
AcDbBlockBegin
  2
A$C5DEF5365
 70
     0
 10
0.0
 20
0.0
 30
0.0
  3
A$C5DEF5365
  1

  0
DIMENSION
  5
4227
330
4226
100
AcDbEntity
  8
0
370
    30
100
AcDbDimension
  2
*D31
 10
3.323579073085262
 20
6.088502218868043
 30
0.0
 11
0.772500047600822
 21
4.714890233225609
 31
0.0
 12
-29.44448787464715
 22
-0.2979290612799872
 32
0.0
 70
   131
  1
<> x 6\PCONDUIT KNOCKOUTS
 71
     5
 42
0.9200000000000088
  3
DIM STYLE 1
100
AcDbDiametricDimension
 15
2.623953116227113
 25
5.491071452594376
 35
0.0
 40
0.0
1001
ACAD
1000
DSTYLE
1002
{
1070
   288
1070
     1
1002
}
  0
DIMENSION
  5
4228
330
4226
100
AcDbEntity
  8
0
370
    30
100
AcDbDimension
  2
*D20
 10
0.5452542852837397
 20
0.5505138357285877
 30
0.0
 11
0.5452542852837397
 21
2.033684129129959
 31
0.0
 12
-29.44448787464715
 22
-0.2979290612799872
 32
0.0
 70
   128
 71
     5
 42
3.700000000000001
  3
DIM STYLE 1
100
AcDbAlignedDimension
 13
1.993766094656187
 23
4.250513835728588
 33
0.0
 14
1.993766094656173
 24
0.5505138357285873
 34
0.0
 50
90.0
100
AcDbRotatedDimension
  0
DIMENSION
  5
4229
330
4226
100
AcDbEntity
  8
0
370
    30
100
AcDbDimension
  2
*D22
 10
8.678878009655882
 20
4.762533836927522
 30
0.0
 11
9.32887800965588
 21
4.762533836927522
 31
0.0
 12
-29.44448787464715
 22
-0.2979290612799872
 32
0.0
 71
     5
 42
0.6000000000000015
  3
DIM STYLE 1
100
AcDbAlignedDimension
 13
8.07887800965588
 23
4.250513835728588
 33
0.0
 14
8.678878009655882
 24
4.250513835728588
 34
0.0
100
AcDbRotatedDimension
  0
DIMENSION
  5
422A
330
4226
100
AcDbEntity
  8
0
370
    30
100
AcDbDimension
  2
*D24
 10
5.269139985257353
 20
1.799263835728587
 30
0.0
 11
5.269139985257353
 21
1.174888835728593
 31
0.0
 12
-29.44448787464715
 22
-0.2979290612799872
 32
0.0
 71
     5
 42
1.248749999999997
  3
DIM STYLE 1
100
AcDbAlignedDimension
 13
5.834301218375486
 23
0.5505138357285891
 33
0.0
 14
6.596801218375482
 24
1.799263835728586
 34
0.0
 50
90.0
100
AcDbRotatedDimension
  0
DIMENSION
  5
422B
330
4226
100
AcDbEntity
  8
0
370
    30
100
AcDbDimension
  2
*D23
 10
6.596801218375482
 20
0.154912168126577
 30
0.0
 11
7.269301218375481
 21
0.154912168126577
 31
0.0
 12
-29.44448787464715
 22
-0.2979290612799872
 32
0.0
 71
     5
 42
0.7624999999999958
  3
DIM STYLE 1
100
AcDbAlignedDimension
 13
5.834301218375486
 23
0.5505138357285891
 33
0.0
 14
6.596801218375482
 24
1.799263835728586
 34
0.0
100
AcDbRotatedDimension
  0
DIMENSION
  5
422C
330
4226
100
AcDbEntity
  8
0
370
    30
100
AcDbDimension
  2
*D19
 10
1.134668246243606
 20
3.955513835728586
 30
0.0
 11
1.134668246243606
 21
2.400513835728592
 31
0.0
 12
-29.44448787464715
 22
-0.2979290612799872
 32
0.0
 71
     5
 42
3.109999999999999
  3
DIM STYLE 1
100
AcDbAlignedDimension
 13
1.993766094656187
 23
0.8455138357285871
 33
0.0
 14
1.993766094656187
 24
3.955513835728586
 34
0.0
 50
90.0
100
AcDbRotatedDimension
  0
LINE
  5
422D
330
4226
100
AcDbEntity
  8
HIDDEN
370
    30
100
AcDbLine
 10
8.163878009655896
 20
0.6305138357285927
 30
0.0
 11
8.163878009655881
 21
4.170513835728588
 31
0.0
  0
LINE
  5
422E
330
4226
100
AcDbEntity
  8
0
  6
Continuous
370
    30
100
AcDbLine
 10
8.678878009655882
 20
4.250513835728588
 30
0.0
 11
8.678878009655882
 21
0.5505138357285891
 31
0.0
  0
LINE
  5
422F
330
4226
100
AcDbEntity
  8
0
  6
Continuous
370
    30
100
AcDbLine
 10
8.07887800965588
 20
0.5505138357285891
 30
0.0
 11
8.07887800965588
 21
4.250513835728588
 31
0.0
  0
LINE
  5
4230
330
4226
100
AcDbEntity
  8
0
  6
Continuous
370
    30
100
AcDbLine
 10
7.451801218375493
 20
0.6305138357285927
 30
0.0
 11
7.451801218375479
 21
4.170513835728588
 31
0.0
  0
LINE
  5
4231
330
4226
100
AcDbEntity
  8
0
  6
Continuous
370
    30
100
AcDbLine
 10
7.166801218375482
 20
1.000513835728588
 30
0.0
 11
7.166801218375482
 21
3.800513835728589
 31
0.0
  0
LINE
  5
4232
330
4226
100
AcDbEntity
  8
0
  6
Continuous
370
    30
100
AcDbLine
 10
6.026801218375481
 20
3.800513835728589
 30
0.0
 11
6.026801218375481
 21
1.000513835728588
 31
0.0
  0
LINE
  5
4233
330
4226
100
AcDbEntity
  8
0
  6
Continuous
370
    30
100
AcDbLine
 10
7.125551218375477
 20
1.059013835728588
 30
0.0
 11
7.125551218375477
 21
3.742013835728588
 31
0.0
  0
LINE
  5
4234
330
4226
100
AcDbEntity
  8
0
  6
Continuous
370
    30
100
AcDbLine
 10
6.06805121837548
 20
3.742013835728588
 30
0.0
 11
6.06805121837548
 21
1.059013835728588
 31
0.0
  0
LINE
  5
4235
330
4226
100
AcDbEntity
  8
0
  6
Continuous
370
    30
100
AcDbLine
 10
7.366801218375485
 20
0.5505138357285891
 30
0.0
 11
7.366801218375485
 21
4.250513835728588
 31
0.0
  0
LINE
  5
4236
330
4226
100
AcDbEntity
  8
0
  6
Continuous
370
    30
100
AcDbLine
 10
5.834301218375486
 20
4.250513835728588
 30
0.0
 11
5.834301218375486
 21
0.5505138357285891
 31
0.0
  0
LINE
  5
4237
330
4226
100
AcDbEntity
  8
0
  6
Continuous
370
    30
100
AcDbLine
 10
4.24876609465619
 20
0.8455138357285907
 30
0.0
 11
4.248766094656204
 21
3.955513835728586
 31
0.0
  0
LINE
  5
4238
330
4226
100
AcDbEntity
  8
0
  6
Continuous
370
    30
100
AcDbLine
 10
1.698766094656185
 20
3.955513835728586
 30
0.0
 11
1.698766094656185
 21
0.8455138357285871
 31
0.0
  0
DIMENSION
  5
4239
330
4226
100
AcDbEntity
  8
0
370
    30
100
AcDbDimension
  2
*D18
 10
4.24876609465619
 20
0.0500000121231548
 30
0.0
 11
2.973766094656184
 21
0.0500000121231548
 31
0.0
 12
-29.44448787464715
 22
-0.2979290612799872
 32
0.0
 71
     5
 42
2.550000000000011
  3
DIM STYLE 1
100
AcDbAlignedDimension
 13
1.698766094656178
 23
0.8455138357285871
 33
0.0
 14
4.24876609465619
 24
0.8455138357285907
 34
0.0
100
AcDbRotatedDimension
  0
DIMENSION
  5
423A
330
4226
100
AcDbEntity
  8
0
370
    30
100
AcDbDimension
  2
*D17
 10
3.953766094656188
 20
0.2940149109559567
 30
0.0
 11
2.973766094656184
 21
0.2940149109559567
 31
0.0
 12
-29.44448787464715
 22
-0.2979290612799872
 32
0.0
 71
     5
 42
1.960000000000015
  3
DIM STYLE 1
100
AcDbAlignedDimension
 13
1.993766094656173
 23
0.8455138357285907
 33
0.0
 14
3.953766094656188
 24
0.8455138357285925
 34
0.0
100
AcDbRotatedDimension
  0
LINE
  5
423B
330
4226
100
AcDbEntity
  8
0
  6
Continuous
370
    30
100
AcDbLine
 10
1.993766094656187
 20
0.5505138357285873
 30
0.0
 11
3.953766094656188
 21
0.5505138357285926
 31
0.0
  0
CIRCLE
  5
423C
330
4226
100
AcDbEntity
  8
0
370
    30
100
AcDbCircle
 10
1.993766094656173
 20
0.8455138357285907
 30
0.0
 40
0.165
  0
CIRCLE
  5
423D
330
4226
100
AcDbEntity
  8
0
  6
Continuous
370
    30
100
AcDbCircle
 10
1.993766094656173
 20
0.8455138357285907
 30
0.0
 40
0.215
  0
ARC
  5
423E
330
4226
100
AcDbEntity
  8
0
  6
Continuous
370
    30
100
AcDbCircle
 10
1.993766094656187
 20
0.8455138357285871
 30
0.0
 40
0.295
100
AcDbArc
 50
180.0
 51
270.0
  0
CIRCLE
  5
423F
330
4226
100
AcDbEntity
  8
0
370
    30
100
AcDbCircle
 10
3.953766094656188
 20
0.8455138357285925
 30
0.0
 40
0.165
  0
CIRCLE
  5
4240
330
4226
100
AcDbEntity
  8
0
  6
Continuous
370
    30
100
AcDbCircle
 10
3.953766094656188
 20
0.8455138357285925
 30
0.0
 40
0.215
  0
ARC
  5
4241
330
4226
100
AcDbEntity
  8
0
  6
Continuous
370
    30
100
AcDbCircle
 10
3.953766094656188
 20
0.8455138357285925
 30
0.0
 40
0.295
100
AcDbArc
 50
270.0
 51
359.9999999999996
  0
LINE
  5
4242
330
4226
100
AcDbEntity
  8
0
370
    30
100
AcDbLine
 10
7.366801218375485
 20
0.6805138357285934
 30
0.0
 11
7.451801218375493
 21
0.6805138357285934
 31
0.0
  0
LINE
  5
4243
330
4226
100
AcDbEntity
  8
0
370
    30
100
AcDbLine
 10
7.366801218375485
 20
1.010513835728591
 30
0.0
 11
7.451801218375493
 21
1.010513835728591
 31
0.0
  0
LINE
  5
4244
330
4226
100
AcDbEntity
  8
0
  6
Continuous
370
    30
100
AcDbLine
 10
7.366801218375478
 20
0.6305138357285927
 30
0.0
 11
7.451801218375486
 21
0.6305138357285927
 31
0.0
  0
LINE
  5
4245
330
4226
100
AcDbEntity
  8
HIDDEN
370
    30
100
AcDbLine
 10
6.084301218375486
 20
0.6805138357285934
 30
0.0
 11
7.366801218375485
 21
0.6805138357285934
 31
0.0
  0
LINE
  5
4246
330
4226
100
AcDbEntity
  8
HIDDEN
370
    30
100
AcDbLine
 10
6.084301218375486
 20
1.010513835728591
 30
0.0
 11
7.366801218375485
 21
1.010513835728591
 31
0.0
  0
LINE
  5
4247
330
4226
100
AcDbEntity
  8
0
  6
Continuous
370
    30
100
AcDbLine
 10
6.026801218375481
 20
1.000513835728588
 30
0.0
 11
7.166801218375482
 21
1.000513835728588
 31
0.0
  0
LINE
  5
4248
330
4226
100
AcDbEntity
  8
0
  6
Continuous
370
    30
100
AcDbLine
 10
6.06805121837548
 20
1.059013835728588
 30
0.0
 11
7.125551218375477
 21
1.059013835728588
 31
0.0
  0
LINE
  5
4249
330
4226
100
AcDbEntity
  8
0
  6
Continuous
370
    30
100
AcDbLine
 10
5.834301218375486
 20
0.5505138357285891
 30
0.0
 11
7.366801218375485
 21
0.5505138357285891
 31
0.0
  0
LINE
  5
424A
330
4226
100
AcDbEntity
  8
HIDDEN
  6
Continuous
370
    30
100
AcDbLine
 10
6.084301218375486
 20
1.010513835728591
 30
0.0
 11
6.084301218375493
 21
0.6805138357285952
 31
0.0
  0
LINE
  5
424B
330
4226
100
AcDbEntity
  8
0
  6
Continuous
370
    30
100
AcDbLine
 10
6.06805121837548
 20
1.059013835728588
 30
0.0
 11
6.026801218375481
 21
1.059013835728588
 31
0.0
  0
LINE
  5
424C
330
4226
100
AcDbEntity
  8
0
  6
Continuous
370
    30
100
AcDbLine
 10
7.125551218375477
 20
1.059013835728588
 30
0.0
 11
7.166801218375482
 21
1.059013835728588
 31
0.0
  0
LINE
  5
424D
330
4226
100
AcDbEntity
  8
HIDDEN
100
AcDbLine
 10
8.318878009655882
 20
0.6305138357285927
 30
0.0
 11
8.678878009655882
 21
0.6305138357285927
 31
0.0
  0
LINE
  5
424E
330
4226
100
AcDbEntity
  8
HIDDEN
100
AcDbLine
 10
8.318878009655882
 20
1.060513835728592
 30
0.0
 11
8.678878009655882
 21
1.060513835728592
 31
0.0
  0
LINE
  5
424F
330
4226
100
AcDbEntity
  8
0
  6
Continuous
370
    30
100
AcDbLine
 10
8.678878009655882
 20
0.5505138357285891
 30
0.0
 11
8.07887800965588
 21
0.5505138357285891
 31
0.0
  0
LEADER
  5
4250
330
4226
100
AcDbEntity
  8
0
370
    30
100
AcDbLeader
  3
Standard
 40
0.21
 41
1.32
 76
     2
 10
7.50323959740772
 20
0.8494046411292988
 30
0.0
 10
8.07887800965588
 20
0.8455138357285942
 30
0.0
213
0.8670767912803896
223
0.09
233
0.0
1001
ACAD
1000
DSTYLE
1002
{
1070
   147
1040
0.09
1070
    77
1070
     0
1002
}
  0
LINE
  5
4251
330
4226
100
AcDbEntity
  8
HIDDEN
370
    30
100
AcDbLine
 10
8.07887800965588
 20
0.6805138357285952
 30
0.0
 11
8.318878009655882
 21
0.6805138357285934
 31
0.0
  0
LINE
  5
4252
330
4226
100
AcDbEntity
  8
HIDDEN
370
    30
100
AcDbLine
 10
8.07887800965588
 20
1.010513835728593
 30
0.0
 11
8.318878009655882
 21
1.010513835728591
 31
0.0
  0
LINE
  5
4253
330
4226
100
AcDbEntity
  8
HIDDEN
100
AcDbLine
 10
8.318878009655882
 20
1.060513835728592
 30
0.0
 11
8.318878009655882
 21
0.6305138357285945
 31
0.0
  0
LINE
  5
4254
330
4226
100
AcDbEntity
  8
HIDDEN
370
    30
100
AcDbLine
 10
8.07887800965588
 20
0.6305138357285927
 30
0.0
 11
8.163878009655888
 21
0.6305138357285927
 31
0.0
  0
DIMENSION
  5
4255
330
4226
100
AcDbEntity
  8
0
370
    30
100
AcDbDimension
  2
*D28
 10
4.897174871499785
 20
5.789786835731205
 30
0.0
 11
4.897174871499785
 21
5.408536835731213
 31
0.0
 12
-29.44448787464715
 22
-0.2979290612799872
 32
0.0
 71
     5
 42
0.7624999999999958
  3
DIM STYLE 1
100
AcDbAlignedDimension
 13
4.248766094656197
 23
5.02728683573121
 33
0.0
 14
2.973766094656184
 24
5.789786835731206
 34
0.0
 50
90.0
100
AcDbRotatedDimension
  0
DIMENSION
  5
4256
330
4226
100
AcDbEntity
  8
0
370
    30
100
AcDbDimension
  2
*D26
 10
5.269139985257353
 20
4.250513835728588
 30
0.0
 11
5.269139985257353
 21
3.626138835728594
 31
0.0
 12
-29.44448787464715
 22
-0.2979290612799872
 32
0.0
 71
     5
 42
1.248749999999999
  3
DIM STYLE 1
100
AcDbAlignedDimension
 13
6.596801218375482
 23
3.001763835728588
 33
0.0
 14
5.834301218375486
 24
4.250513835728588
 34
0.0
 50
90.0
100
AcDbRotatedDimension
1001
ACAD
1000
DSTYLE
1002
{
1070
   279
1070
     1
1002
}
  0
DIMENSION
  5
4257
330
4226
100
AcDbEntity
  8
0
370
    30
100
AcDbDimension
  2
*D25
 10
5.269139985257353
 20
3.001763835728589
 30
0.0
 11
5.269139985257353
 21
2.400513835728593
 31
0.0
 12
-29.44448787464715
 22
-0.2979290612799872
 32
0.0
 71
     5
 42
1.202500000000002
  3
DIM STYLE 1
100
AcDbAlignedDimension
 13
6.596801218375482
 23
1.799263835728586
 33
0.0
 14
6.596801218375482
 24
3.001763835728588
 34
0.0
 50
90.0
100
AcDbRotatedDimension
1001
ACAD
1000
DSTYLE
1002
{
1070
   279
1070
     1
1002
}
  0
LINE
  5
4258
330
4226
100
AcDbEntity
  8
0
  6
Continuous
370
    30
100
AcDbLine
 10
2.207266094656183
 20
5.261036835731204
 30
0.0
 11
2.207266094656183
 21
6.318536835731201
 31
0.0
  0
LINE
  5
4259
330
4226
100
AcDbEntity
  8
HIDDEN
370
    30
100
AcDbLine
 10
2.158766094656179
 20
5.277286835731203
 30
0.0
 11
2.158766094656179
 21
6.644786835731203
 31
0.0
  0
LINE
  5
425A
330
4226
100
AcDbEntity
  8
HIDDEN
370
    30
100
AcDbLine
 10
1.828766094656181
 20
5.277286835731203
 30
0.0
 11
1.828766094656181
 21
6.644786835731196
 31
0.0
  0
MTEXT
  5
425B
330
4226
100
AcDbEntity
  8
0
370
    30
100
AcDbMText
 10
2.726289808767077
 20
5.839245557328567
 30
0.0
 40
0.09
 41
4.231799999999999
 71
     1
 72
     5
  1
Pg11/16
 73
     1
 44
1.0
  0
CIRCLE
  5
425C
330
4226
100
AcDbEntity
  8
0
  6
Continuous
370
    30
100
AcDbCircle
 10
2.973766094656184
 20
5.789786835731206
 30
0.0
 40
0.335
  0
CIRCLE
  5
425D
330
4226
100
AcDbEntity
  8
0
  6
Continuous
370
    30
100
AcDbCircle
 10
2.973766094656184
 20
5.789786835731206
 30
0.0
 40
0.375
  0
CIRCLE
  5
425E
330
4226
100
AcDbEntity
  8
0
  6
Continuous
370
    30
100
AcDbCircle
 10
2.973766094656184
 20
5.789786835731206
 30
0.0
 40
0.4185000000000001
  0
CIRCLE
  5
425F
330
4226
100
AcDbEntity
  8
0
  6
Continuous
370
    30
100
AcDbCircle
 10
2.973766094656184
 20
5.789786835731206
 30
0.0
 40
0.4600000000000001
  0
LINE
  5
4260
330
4226
100
AcDbEntity
  8
0
  6
Continuous
370
    30
100
AcDbLine
 10
1.698766094656178
 20
6.559786835731209
 30
0.0
 11
1.698766094656178
 21
5.02728683573121
 31
0.0
  0
LINE
  5
4261
330
4226
100
AcDbEntity
  8
0
  6
Continuous
370
    30
100
AcDbLine
 10
2.148766094656174
 20
6.359786835731206
 30
0.0
 11
2.148766094656174
 21
5.219786835731206
 31
0.0
  0
LINE
  5
4262
330
4226
100
AcDbEntity
  8
0
  6
Continuous
370
    30
100
AcDbLine
 10
3.740266094656199
 20
5.261036835731204
 30
0.0
 11
3.740266094656199
 21
6.318536835731201
 31
0.0
  0
LINE
  5
4263
330
4226
100
AcDbEntity
  8
HIDDEN
370
    30
100
AcDbLine
 10
3.788766094656203
 20
5.27728683573121
 30
0.0
 11
3.788766094656203
 21
6.559786835731209
 31
0.0
  0
LINE
  5
4264
330
4226
100
AcDbEntity
  8
HIDDEN
370
    30
100
AcDbLine
 10
4.118766094656201
 20
5.27728683573121
 30
0.0
 11
4.118766094656201
 21
6.559786835731209
 31
0.0
  0
LINE
  5
4265
330
4226
100
AcDbEntity
  8
0
  6
Continuous
370
    30
100
AcDbLine
 10
4.248766094656197
 20
5.02728683573121
 30
0.0
 11
4.248766094656197
 21
6.559786835731209
 31
0.0
  0
LINE
  5
4266
330
4226
100
AcDbEntity
  8
0
  6
Continuous
370
    30
100
AcDbLine
 10
3.798766094656201
 20
5.219786835731206
 30
0.0
 11
3.798766094656201
 21
6.359786835731206
 31
0.0
  0
MTEXT
  5
4267
102
{ACAD_REACTORS
330
426E
102
}
330
4226
100
AcDbEntity
  8
0
370
    30
100
AcDbMText
 10
2.34196983733473
 20
2.381083493819655
 30
0.0
 40
0.09
 41
0.0
 71
     1
 72
     1
  1
CL2 RATED CABLE &\P304 SERIES SS PROBE
 73
     1
 44
1.0
  0
DIMENSION
  5
4268
330
4226
100
AcDbEntity
  8
0
370
    30
100
AcDbDimension
  2
*D30
 10
4.037239904665099
 20
4.153647939412433
 30
0.0
 11
2.626412030548834
 21
2.988614968104249
 31
0.0
 12
-29.44448787464715
 22
-0.2979290612799872
 32
0.0
 70
   131
  1
<> x 4\PMOUNTING HOLE
 71
     5
 42
0.4299999999999998
  3
DIM STYLE 1
100
AcDbDiametricDimension
 15
3.87029228464732
 25
3.757379732044748
 35
0.0
 40
0.0
1001
ACAD
1000
DSTYLE
1002
{
1070
   288
1070
     1
1002
}
  0
DIMENSION
  5
4269
330
4226
100
AcDbEntity
  8
0
370
    30
100
AcDbDimension
  2
*D29
 10
4.087298236799128
 20
4.052437346884136
 30
0.0
 11
2.456882495394015
 21
3.537239499219337
 31
0.0
 12
-29.44448787464715
 22
-0.2979290612799872
 32
0.0
 70
   131
  1
<> x 4\PMOUNTING HOLE
 71
     5
 42
0.3299999999999983
  3
DIM STYLE 1
100
AcDbDiametricDimension
 15
3.820233952513262
 25
3.858590324573047
 35
0.0
 40
0.0
1001
ACAD
1000
DSTYLE
1002
{
1070
   288
1070
     1
1002
}
  0
LINE
  5
426A
330
4226
100
AcDbEntity
  8
0
  6
Continuous
370
    30
100
AcDbLine
 10
3.740266094656199
 20
5.219786835731198
 30
0.0
 11
2.148766094656174
 21
5.219786835731198
 31
0.0
  0
LINE
  5
426B
330
4226
100
AcDbEntity
  8
0
  6
Continuous
370
    30
100
AcDbLine
 10
3.740266094656192
 20
5.261036835731204
 30
0.0
 11
2.207266094656183
 21
5.261036835731204
 31
0.0
  0
LINE
  5
426C
330
4226
100
AcDbEntity
  8
0
  6
Continuous
370
    30
100
AcDbLine
 10
1.698766094656178
 20
5.02728683573121
 30
0.0
 11
4.248766094656197
 21
5.02728683573121
 31
0.0
  0
LINE
  5
426D
330
4226
100
AcDbEntity
  8
0
  6
Continuous
370
    30
100
AcDbLine
 10
3.953766094656202
 20
4.250513835728588
 30
0.0
 11
1.993766094656187
 21
4.250513835728586
 31
0.0
  0
LEADER
  5
426E
330
4226
100
AcDbEntity
  8
0
370
    30
100
AcDbLeader
  3
DIM STYLE 1
 73
     0
 40
0.24
 41
1.634999999999999
 76
     3
 10
1.29366394921319
 20
2.95176383572859
 30
0.0
 10
2.027403208572792
 20
2.336083493819655
 30
0.0
 10
2.25196983733473
 20
2.336083493819655
 30
0.0
340
4267
213
0.0
223
-0.045
233
0.0
1001
ACAD
1000
DSTYLE
1002
{
1070
   147
1040
0.09
1070
    77
1070
     0
1002
}
  0
LINE
  5
426F
330
4226
100
AcDbEntity
  8
0
370
    30
100
AcDbLine
 10
1.698766094656185
 20
2.951763835728588
 30
0.0
 11
0.8885618037701945
 21
2.95176383572859
 31
0.0
  0
LINE
  5
4270
330
4226
100
AcDbEntity
  8
0
370
    30
100
AcDbLine
 10
1.698766094656185
 20
3.051763835728589
 30
0.0
 11
0.9011355391961473
 21
3.051763835728587
 31
0.0
  0
LINE
  5
4271
330
4226
100
AcDbEntity
  8
0
370
    30
100
AcDbLine
 10
0.9207499055436443
 20
3.007515263399405
 30
0.0
 11
0.8439162020746024
 21
2.87443538525734
 31
0.0
  0
LINE
  5
4272
330
4226
100
AcDbEntity
  8
0
370
    30
100
AcDbLine
 10
0.8747552018309079
 20
2.995191019683469
 30
0.0
 11
0.9207499055436443
 21
3.007515263399405
 31
0.0
  0
LINE
  5
4273
330
4226
100
AcDbEntity
  8
0
370
    30
100
AcDbLine
 10
0.9260481009522578
 20
3.105188996822198
 30
0.0
 11
0.8747552018309079
 21
2.995191019683469
 31
0.0
  0
CIRCLE
  5
4274
330
4226
100
AcDbEntity
  8
0
370
    30
100
AcDbCircle
 10
1.993766094656187
 20
3.955513835728586
 30
0.0
 40
0.165
  0
CIRCLE
  5
4275
330
4226
100
AcDbEntity
  8
0
  6
Continuous
370
    30
100
AcDbCircle
 10
1.993766094656187
 20
3.955513835728586
 30
0.0
 40
0.215
  0
ARC
  5
4276
330
4226
100
AcDbEntity
  8
0
  6
Continuous
370
    30
100
AcDbCircle
 10
1.993766094656187
 20
3.955513835728586
 30
0.0
 40
0.295
100
AcDbArc
 50
90.0
 51
180.0
  0
LINE
  5
4277
330
4226
100
AcDbEntity
  8
HIDDEN
  6
Continuous
370
    30
100
AcDbLine
 10
1.828766094656181
 20
5.27728683573121
 30
0.0
 11
2.158766094656179
 21
5.277286835731203
 31
0.0
  0
LINE
  5
4278
330
4226
100
AcDbEntity
  8
0
  6
Continuous
370
    30
100
AcDbLine
 10
2.207266094656183
 20
5.261036835731204
 30
0.0
 11
2.207266094656183
 21
5.219786835731206
 31
0.0
  0
DIMENSION
  5
4279
330
4226
100
AcDbEntity
  8
0
370
    30
100
AcDbDimension
  2
*D27
 10
2.973766094656184
 20
4.803507309560067
 30
0.0
 11
3.638058515320565
 21
4.803507309560067
 31
0.0
 12
-29.44448787464715
 22
-0.2979290612799872
 32
0.0
 70
   128
 71
     5
 42
1.275000000000012
  3
DIM STYLE 1
100
AcDbAlignedDimension
 13
4.248766094656197
 23
5.02728683573121
 33
0.0
 14
2.973766094656184
 24
5.789786835731206
 34
0.0
100
AcDbRotatedDimension
  0
LINE
  5
427A
330
4226
100
AcDbEntity
  8
HIDDEN
  6
Continuous
370
    30
100
AcDbLine
 10
3.788766094656203
 20
5.27728683573121
 30
0.0
 11
4.118766094656194
 21
5.277286835731217
 31
0.0
  0
CIRCLE
  5
427B
330
4226
100
AcDbEntity
  8
0
370
    30
100
AcDbCircle
 10
3.953766094656202
 20
3.955513835728588
 30
0.0
 40
0.165
  0
CIRCLE
  5
427C
330
4226
100
AcDbEntity
  8
0
  6
Continuous
370
    30
100
AcDbCircle
 10
3.953766094656202
 20
3.955513835728588
 30
0.0
 40
0.215
  0
LINE
  5
427D
330
4226
100
AcDbEntity
  8
0
370
    30
100
AcDbLine
 10
3.740266094656199
 20
5.219786835731198
 30
0.0
 11
3.798766094656201
 21
5.219786835731206
 31
0.0
  0
LINE
  5
427E
330
4226
100
AcDbEntity
  8
0
  6
Continuous
370
    30
100
AcDbLine
 10
3.740266094656199
 20
5.261036835731204
 30
0.0
 11
3.740266094656199
 21
5.219786835731206
 31
0.0
  0
ARC
  5
427F
330
4226
100
AcDbEntity
  8
0
  6
Continuous
370
    30
100
AcDbCircle
 10
3.953766094656202
 20
3.955513835728588
 30
0.0
 40
0.295
100
AcDbArc
 50
359.9999999999997
 51
90.0
  0
LINE
  5
4280
330
4226
100
AcDbEntity
  8
0
  6
Continuous
370
    30
100
AcDbLine
 10
4.24876609465619
 20
7.271863627011601
 30
0.0
 11
1.698766094656178
 21
7.271863627011605
 31
0.0
  0
LINE
  5
4281
330
4226
100
AcDbEntity
  8
0
  6
Continuous
370
    30
100
AcDbLine
 10
1.698766094656178
 20
7.871863627011606
 30
0.0
 11
4.24876609465619
 21
7.871863627011606
 31
0.0
  0
LINE
  5
4282
330
4226
100
AcDbEntity
  8
HIDDEN
370
    30
100
AcDbLine
 10
4.168766094656199
 20
7.35686362701162
 30
0.0
 11
1.778766094656184
 21
7.356863627011605
 31
0.0
  0
LINE
  5
4283
330
4226
100
AcDbEntity
  8
0
  6
Continuous
370
    30
100
AcDbLine
 10
4.248766094656197
 20
6.559786835731205
 30
0.0
 11
1.698766094656178
 21
6.559786835731209
 31
0.0
  0
LINE
  5
4284
330
4226
100
AcDbEntity
  8
0
  6
Continuous
370
    30
100
AcDbLine
 10
4.168766094656199
 20
6.644786835731217
 30
0.0
 11
1.778766094656184
 21
6.644786835731203
 31
0.0
  0
LINE
  5
4285
330
4226
100
AcDbEntity
  8
0
  6
Continuous
370
    30
100
AcDbLine
 10
3.740266094656199
 20
6.359786835731206
 30
0.0
 11
2.148766094656174
 21
6.359786835731206
 31
0.0
  0
LINE
  5
4286
330
4226
100
AcDbEntity
  8
0
  6
Continuous
370
    30
100
AcDbLine
 10
3.740266094656192
 20
6.318536835731201
 30
0.0
 11
2.207266094656183
 21
6.318536835731201
 31
0.0
  0
LEADER
  5
4287
330
4226
100
AcDbEntity
  8
0
370
    30
100
AcDbLeader
  3
Standard
 40
0.21
 41
1.32
 76
     2
 10
1.989875289255472
 20
6.696225214763444
 30
0.0
 10
1.99376609465618
 20
7.271863627011605
 30
0.0
211
0.0000000000000001
221
1.0
231
0.0
213
-0.09
223
0.8670767912803896
233
0.0
1001
ACAD
1000
DSTYLE
1002
{
1070
   147
1040
0.09
1070
    77
1070
     0
1002
}
  0
LINE
  5
4288
330
4226
100
AcDbEntity
  8
0
  6
Continuous
370
    30
100
AcDbLine
 10
1.778766094656177
 20
6.559786835731202
 30
0.0
 11
1.778766094656177
 21
6.64478683573121
 31
0.0
  0
LINE
  5
4289
330
4226
100
AcDbEntity
  8
0
  6
Continuous
370
    30
100
AcDbLine
 10
2.207266094656183
 20
6.318536835731201
 30
0.0
 11
2.207266094656183
 21
6.359786835731206
 31
0.0
  0
LINE
  5
428A
330
4226
100
AcDbEntity
  8
HIDDEN
100
AcDbLine
 10
1.778766094656184
 20
7.511863627011607
 30
0.0
 11
2.208766094656176
 21
7.511863627011607
 31
0.0
  0
LINE
  5
428B
330
4226
100
AcDbEntity
  8
HIDDEN
370
    30
100
AcDbLine
 10
1.778766094656177
 20
7.271863627011605
 30
0.0
 11
1.778766094656177
 21
7.356863627011613
 31
0.0
  0
LINE
  5
428C
330
4226
100
AcDbEntity
  8
HIDDEN
370
    30
100
AcDbLine
 10
1.828766094656181
 20
7.271863627011597
 30
0.0
 11
1.828766094656181
 21
7.511863627011607
 31
0.0
  0
LINE
  5
428D
330
4226
100
AcDbEntity
  8
0
  6
Continuous
370
    30
100
AcDbLine
 10
1.698766094656178
 20
7.271863627011605
 30
0.0
 11
1.698766094656178
 21
7.871863627011606
 31
0.0
  0
LINE
  5
428E
330
4226
100
AcDbEntity
  8
HIDDEN
100
AcDbLine
 10
1.778766094656184
 20
7.511863627011599
 30
0.0
 11
1.778766094656184
 21
7.871863627011606
 31
0.0
  0
LINE
  5
428F
330
4226
100
AcDbEntity
  8
HIDDEN
370
    30
100
AcDbLine
 10
2.158766094656179
 20
7.271863627011597
 30
0.0
 11
2.158766094656179
 21
7.511863627011607
 31
0.0
  0
LINE
  5
4290
330
4226
100
AcDbEntity
  8
HIDDEN
100
AcDbLine
 10
2.208766094656176
 20
7.511863627011599
 30
0.0
 11
2.208766094656176
 21
7.871863627011606
 31
0.0
  0
LINE
  5
4291
330
4226
100
AcDbEntity
  8
HIDDEN
100
AcDbLine
 10
3.738766094656192
 20
7.511863627011607
 30
0.0
 11
4.168766094656199
 21
7.511863627011607
 31
0.0
  0
LINE
  5
4292
330
4226
100
AcDbEntity
  8
0
370
    30
100
AcDbLine
 10
3.740266094656199
 20
6.359786835731206
 30
0.0
 11
3.798766094656201
 21
6.359786835731206
 31
0.0
  0
LINE
  5
4293
330
4226
100
AcDbEntity
  8
0
370
    30
100
AcDbLine
 10
3.788766094656203
 20
6.559786835731209
 30
0.0
 11
3.788766094656203
 21
6.644786835731217
 31
0.0
  0
LINE
  5
4294
330
4226
100
AcDbEntity
  8
0
  6
Continuous
370
    30
100
AcDbLine
 10
3.740266094656199
 20
6.318536835731201
 30
0.0
 11
3.740266094656199
 21
6.359786835731206
 31
0.0
  0
LINE
  5
4295
330
4226
100
AcDbEntity
  8
HIDDEN
370
    30
100
AcDbLine
 10
3.788766094656196
 20
7.271863627011605
 30
0.0
 11
3.788766094656203
 21
7.511863627011607
 31
0.0
  0
LINE
  5
4296
330
4226
100
AcDbEntity
  8
HIDDEN
100
AcDbLine
 10
3.738766094656192
 20
7.511863627011607
 30
0.0
 11
3.738766094656192
 21
7.871863627011606
 31
0.0
  0
LEADER
  5
4297
330
4226
100
AcDbEntity
  8
0
370
    30
100
AcDbLeader
  3
Standard
 40
0.21
 41
1.32
 76
     2
 10
3.949875289255494
 20
6.696225214763444
 30
0.0
 10
3.953766094656195
 20
7.271863627011605
 30
0.0
211
0.0000000000000001
221
1.0
231
0.0
213
-0.09
223
0.8670767912803896
233
0.0
1001
ACAD
1000
DSTYLE
1002
{
1070
   147
1040
0.09
1070
    77
1070
     0
1002
}
  0
LINE
  5
4298
330
4226
100
AcDbEntity
  8
0
  6
Continuous
370
    30
100
AcDbLine
 10
4.168766094656199
 20
6.559786835731202
 30
0.0
 11
4.168766094656199
 21
6.64478683573121
 31
0.0
  0
LINE
  5
4299
330
4226
100
AcDbEntity
  8
0
370
    30
100
AcDbLine
 10
4.118766094656201
 20
6.559786835731209
 30
0.0
 11
4.118766094656201
 21
6.644786835731217
 31
0.0
  0
LINE
  5
429A
330
4226
100
AcDbEntity
  8
HIDDEN
370
    30
100
AcDbLine
 10
4.168766094656199
 20
7.271863627011605
 30
0.0
 11
4.168766094656199
 21
7.356863627011613
 31
0.0
  0
LINE
  5
429B
330
4226
100
AcDbEntity
  8
HIDDEN
370
    30
100
AcDbLine
 10
4.118766094656194
 20
7.271863627011605
 30
0.0
 11
4.118766094656201
 21
7.511863627011607
 31
0.0
  0
LINE
  5
429C
330
4226
100
AcDbEntity
  8
0
  6
Continuous
370
    30
100
AcDbLine
 10
4.248766094656197
 20
7.871863627011606
 30
0.0
 11
4.248766094656197
 21
7.271863627011605
 31
0.0
  0
LINE
  5
429D
330
4226
100
AcDbEntity
  8
HIDDEN
100
AcDbLine
 10
4.168766094656199
 20
7.511863627011607
 30
0.0
 11
4.168766094656199
 21
7.871863627011606
 31
0.0
  0
DIMENSION
  5
429E
330
4226
100
AcDbEntity
  8
0
370
    30
100
AcDbDimension
  2
*D21
 10
7.366801218375485
 20
4.762533836927522
 30
0.0
 11
6.600551218375485
 21
4.762533836927522
 31
0.0
 12
-29.44448787464715
 22
-0.2979290612799872
 32
0.0
 71
     5
 42
1.532499999999998
  3
DIM STYLE 1
100
AcDbAlignedDimension
 13
5.834301218375486
 23
4.250513835728588
 33
0.0
 14
7.366801218375485
 24
4.250513835728588
 34
0.0
100
AcDbRotatedDimension
  0
LINE
  5
429F
330
4226
100
AcDbEntity
  8
HIDDEN
370
    30
100
AcDbLine
 10
6.084301218375479
 20
4.120513835728587
 30
0.0
 11
7.451801218375472
 21
4.120513835728587
 31
0.0
  0
LINE
  5
42A0
330
4226
100
AcDbEntity
  8
HIDDEN
370
    30
100
AcDbLine
 10
6.084301218375479
 20
3.790513835728587
 30
0.0
 11
7.451801218375479
 21
3.790513835728589
 31
0.0
  0
LINE
  5
42A1
330
4226
100
AcDbEntity
  8
0
  6
Continuous
370
    30
100
AcDbLine
 10
7.366801218375478
 20
4.17051383572859
 30
0.0
 11
7.451801218375486
 21
4.17051383572859
 31
0.0
  0
CIRCLE
  5
42A2
330
4226
100
AcDbEntity
  8
0
  6
Continuous
370
    30
100
AcDbCircle
 10
6.596801218375482
 20
3.001763835728588
 30
0.0
 40
0.4600000000000001
  0
CIRCLE
  5
42A3
330
4226
100
AcDbEntity
  8
0
  6
Continuous
370
    30
100
AcDbCircle
 10
6.596801218375482
 20
3.001763835728588
 30
0.0
 40
0.4185000000000001
  0
CIRCLE
  5
42A4
330
4226
100
AcDbEntity
  8
0
  6
Continuous
370
    30
100
AcDbCircle
 10
6.596801218375482
 20
1.799263835728586
 30
0.0
 40
0.4185000000000001
  0
CIRCLE
  5
42A5
330
4226
100
AcDbEntity
  8
0
  6
Continuous
370
    30
100
AcDbCircle
 10
6.596801218375482
 20
1.799263835728586
 30
0.0
 40
0.4600000000000001
  0
CIRCLE
  5
42A6
330
4226
100
AcDbEntity
  8
0
  6
Continuous
370
    30
100
AcDbCircle
 10
6.596801218375482
 20
1.799263835728586
 30
0.0
 40
0.335
  0
CIRCLE
  5
42A7
330
4226
100
AcDbEntity
  8
0
  6
Continuous
370
    30
100
AcDbCircle
 10
6.596801218375482
 20
1.799263835728586
 30
0.0
 40
0.375
  0
MTEXT
  5
42A8
330
4226
100
AcDbEntity
  8
0
370
    30
100
AcDbMText
 10
6.646259939972843
 20
2.046740121617693
 30
0.0
 40
0.09
 41
4.231799999999999
 71
     1
 72
     5
  1
Pg11/16
 11
-0.0000000000000002
 21
-1.0
 31
0.0
 73
     1
 44
1.0
  0
CIRCLE
  5
42A9
330
4226
100
AcDbEntity
  8
0
  6
Continuous
370
    30
100
AcDbCircle
 10
6.596801218375482
 20
3.001763835728588
 30
0.0
 40
0.335
  0
CIRCLE
  5
42AA
330
4226
100
AcDbEntity
  8
0
  6
Continuous
370
    30
100
AcDbCircle
 10
6.596801218375482
 20
3.001763835728588
 30
0.0
 40
0.375
  0
MTEXT
  5
42AB
330
4226
100
AcDbEntity
  8
0
370
    30
100
AcDbMText
 10
6.646259939972843
 20
3.249240121617695
 30
0.0
 40
0.09
 41
4.231799999999999
 71
     1
 72
     5
  1
Pg11/16
 11
-0.0000000000000002
 21
-1.0
 31
0.0
 73
     1
 44
1.0
  0
LINE
  5
42AC
330
4226
100
AcDbEntity
  8
0
  6
Continuous
370
    30
100
AcDbLine
 10
7.166801218375482
 20
3.800513835728589
 30
0.0
 11
6.026801218375481
 21
3.800513835728589
 31
0.0
  0
LINE
  5
42AD
330
4226
100
AcDbEntity
  8
0
  6
Continuous
370
    30
100
AcDbLine
 10
6.06805121837548
 20
3.742013835728588
 30
0.0
 11
7.125551218375477
 21
3.742013835728588
 31
0.0
  0
LINE
  5
42AE
330
4226
100
AcDbEntity
  8
0
  6
Continuous
370
    30
100
AcDbLine
 10
7.366801218375485
 20
4.250513835728588
 30
0.0
 11
5.834301218375486
 21
4.250513835728588
 31
0.0
  0
LINE
  5
42AF
330
4226
100
AcDbEntity
  8
HIDDEN
  6
Continuous
370
    30
100
AcDbLine
 10
6.084301218375486
 20
4.120513835728587
 30
0.0
 11
6.084301218375479
 21
3.790513835728589
 31
0.0
  0
LINE
  5
42B0
330
4226
100
AcDbEntity
  8
0
  6
Continuous
370
    30
100
AcDbLine
 10
6.06805121837548
 20
3.742013835728588
 30
0.0
 11
6.026801218375481
 21
3.742013835728588
 31
0.0
  0
LINE
  5
42B1
330
4226
100
AcDbEntity
  8
0
  6
Continuous
370
    30
100
AcDbLine
 10
7.125551218375477
 20
3.742013835728588
 30
0.0
 11
7.166801218375482
 21
3.742013835728588
 31
0.0
  0
LINE
  5
42B2
330
4226
100
AcDbEntity
  8
HIDDEN
100
AcDbLine
 10
8.318878009655875
 20
4.170513835728586
 30
0.0
 11
8.678878009655882
 21
4.170513835728588
 31
0.0
  0
LINE
  5
42B3
330
4226
100
AcDbEntity
  8
HIDDEN
100
AcDbLine
 10
8.318878009655875
 20
3.740513835728586
 30
0.0
 11
8.678878009655882
 21
3.740513835728588
 31
0.0
  0
LINE
  5
42B4
330
4226
100
AcDbEntity
  8
0
  6
Continuous
370
    30
100
AcDbLine
 10
8.07887800965588
 20
4.250513835728588
 30
0.0
 11
8.678878009655882
 21
4.250513835728588
 31
0.0
  0
LEADER
  5
42B5
330
4226
100
AcDbEntity
  8
0
370
    30
100
AcDbLeader
  3
Standard
 40
0.21
 41
1.32
 76
     2
 10
7.50323959740772
 20
3.959404641129291
 30
0.0
 10
8.07887800965588
 20
3.955513835728586
 30
0.0
213
0.8670767912803896
223
0.09
233
0.0
1001
ACAD
1000
DSTYLE
1002
{
1070
   147
1040
0.09
1070
    77
1070
     0
1002
}
  0
LINE
  5
42B6
330
4226
100
AcDbEntity
  8
HIDDEN
370
    30
100
AcDbLine
 10
8.078878009655873
 20
4.120513835728587
 30
0.0
 11
8.318878009655882
 21
4.120513835728587
 31
0.0
  0
LINE
  5
42B7
330
4226
100
AcDbEntity
  8
HIDDEN
370
    30
100
AcDbLine
 10
8.078878009655873
 20
3.790513835728587
 30
0.0
 11
8.318878009655882
 21
3.790513835728589
 31
0.0
  0
LINE
  5
42B8
330
4226
100
AcDbEntity
  8
HIDDEN
100
AcDbLine
 10
8.318878009655882
 20
4.170513835728586
 30
0.0
 11
8.318878009655882
 21
3.740513835728588
 31
0.0
  0
LINE
  5
42B9
330
4226
100
AcDbEntity
  8
HIDDEN
370
    30
100
AcDbLine
 10
8.07887800965588
 20
4.17051383572859
 30
0.0
 11
8.163878009655888
 21
4.17051383572859
 31
0.0
  0
ENDBLK
  5
42BB
330
4226
100
AcDbEntity
  8
0
370
    30
100
AcDbBlockEnd
  0
BLOCK
  5
559E
330
5593
100
AcDbEntity
  8
0
370
    30
100
AcDbBlockBegin
  2
*D33
 70
     1
 10
0.0
 20
0.0
 30
0.0
  3
*D33
  1

  0
LINE
  5
5B6F
330
5593
100
AcDbEntity
  8
0
 62
     0
370
    -2
100
AcDbLine
 10
37.92384948228198
 20
5.842428366837992
 30
0.0
 11
37.92384948228198
 21
5.640071918051387
 31
0.0
  0
LINE
  5
5B70
330
5593
100
AcDbEntity
  8
0
 62
     0
370
    -2
100
AcDbLine
 10
36.64884948228197
 20
7.233928366837997
 30
0.0
 11
36.64884948228197
 21
5.640071918051387
 31
0.0
  0
LINE
  5
5B71
330
5593
100
AcDbEntity
  8
0
 62
     0
370
    -2
100
AcDbLine
 10
38.07384948228198
 20
5.690071918051387
 30
0.0
 11
38.22384948228198
 21
5.690071918051387
 31
0.0
  0
LINE
  5
5B72
330
5593
100
AcDbEntity
  8
0
 62
     0
370
    -2
100
AcDbLine
 10
36.49884948228197
 20
5.690071918051387
 30
0.0
 11
36.34884948228197
 21
5.690071918051387
 31
0.0
  0
SOLID
  5
5B73
330
5593
100
AcDbEntity
  8
0
 62
     0
370
    30
100
AcDbTrace
 10
38.07384948228198
 20
5.715071918051387
 30
0.0
 11
38.07384948228198
 21
5.665071918051387
 31
0.0
 12
37.92384948228198
 22
5.690071918051387
 32
0.0
 13
37.92384948228198
 23
5.690071918051387
 33
0.0
  0
SOLID
  5
5B74
330
5593
100
AcDbEntity
  8
0
 62
     0
370
    30
100
AcDbTrace
 10
36.49884948228197
 20
5.715071918051387
 30
0.0
 11
36.49884948228197
 21
5.665071918051387
 31
0.0
 12
36.64884948228197
 22
5.690071918051387
 32
0.0
 13
36.64884948228197
 23
5.690071918051387
 33
0.0
  0
MTEXT
  5
5B75
330
5593
100
AcDbEntity
  8
0
 62
     0
100
AcDbMText
 10
37.28634948228197
 20
5.690071918051387
 30
0.0
 40
0.09
 41
0.0
 71
     5
 72
     1
  1
\A1;1.28" [32.39mm]
 73
     1
 44
1.0
  0
POINT
  5
5B76
330
5593
100
AcDbEntity
  8
Defpoints
 62
     0
370
    30
100
AcDbPoint
 10
37.92384948228198
 20
5.904928366837992
 30
0.0
  0
POINT
  5
5B77
330
5593
100
AcDbEntity
  8
Defpoints
 62
     0
370
    30
100
AcDbPoint
 10
36.64884948228197
 20
7.296428366837997
 30
0.0
  0
POINT
  5
5B78
330
5593
100
AcDbEntity
  8
Defpoints
 62
     0
370
    30
100
AcDbPoint
 10
36.64884948228197
 20
5.690071918051387
 30
0.0
  0
ENDBLK
  5
559F
330
5593
100
AcDbEntity
  8
0
370
    30
100
AcDbBlockEnd
  0
BLOCK
  5
55AB
330
55A0
100
AcDbEntity
  8
0
370
    30
100
AcDbBlockBegin
  2
*D34
 70
     1
 10
0.0
 20
0.0
 30
0.0
  3
*D34
  1

  0
LINE
  5
5B64
330
55A0
100
AcDbEntity
  8
0
 62
     0
370
    -2
100
AcDbLine
 10
35.31134948228197
 20
8.058928366837992
 30
0.0
 11
34.73371461354945
 21
8.058928366837992
 31
0.0
  0
LINE
  5
5B65
330
55A0
100
AcDbEntity
  8
0
 62
     0
370
    -2
100
AcDbLine
 10
36.58634948228197
 20
7.296428366837997
 30
0.0
 11
34.73371461354945
 21
7.296428366837997
 31
0.0
  0
LINE
  5
5B66
330
55A0
100
AcDbEntity
  8
0
 62
     0
370
    -2
100
AcDbLine
 10
34.78371461354945
 20
7.908928366837991
 30
0.0
 11
34.78371461354945
 21
7.446428366837997
 31
0.0
  0
LINE
  5
5B67
330
55A0
100
AcDbEntity
  8
0
 62
     0
370
    -2
100
AcDbLine
 10
34.78371461354945
 20
7.296428366837997
 30
0.0
 11
34.78371461354945
 21
7.146428366837996
 31
0.0
  0
LINE
  5
5B68
330
55A0
100
AcDbEntity
  8
0
 62
     0
370
    -2
100
AcDbLine
 10
34.78371461354945
 20
7.146428366837996
 30
0.0
 11
34.63371461354945
 21
7.146428366837996
 31
0.0
  0
SOLID
  5
5B69
330
55A0
100
AcDbEntity
  8
0
 62
     0
370
    30
100
AcDbTrace
 10
34.75871461354945
 20
7.908928366837991
 30
0.0
 11
34.80871461354944
 21
7.908928366837991
 31
0.0
 12
34.78371461354945
 22
8.058928366837992
 32
0.0
 13
34.78371461354945
 23
8.058928366837992
 33
0.0
  0
SOLID
  5
5B6A
330
55A0
100
AcDbEntity
  8
0
 62
     0
370
    30
100
AcDbTrace
 10
34.75871461354945
 20
7.446428366837997
 30
0.0
 11
34.80871461354944
 21
7.446428366837997
 31
0.0
 12
34.78371461354945
 22
7.296428366837997
 32
0.0
 13
34.78371461354945
 23
7.296428366837997
 33
0.0
  0
MTEXT
  5
5B6B
330
55A0
100
AcDbEntity
  8
0
 62
     0
100
AcDbMText
 10
34.09439594015363
 20
7.146428366838002
 30
0.0
 40
0.09
 41
0.0
 71
     5
 72
     1
  1
\A1;0.76" [19.37mm]
 73
     1
 44
1.0
  0
POINT
  5
5B6C
330
55A0
100
AcDbEntity
  8
Defpoints
 62
     0
370
    30
100
AcDbPoint
 10
35.37384948228197
 20
8.058928366837992
 30
0.0
  0
POINT
  5
5B6D
330
55A0
100
AcDbEntity
  8
Defpoints
 62
     0
370
    30
100
AcDbPoint
 10
36.64884948228197
 20
7.296428366837997
 30
0.0
  0
POINT
  5
5B6E
330
55A0
100
AcDbEntity
  8
Defpoints
 62
     0
370
    30
100
AcDbPoint
 10
34.78371461354945
 20
7.296428366837997
 30
0.0
  0
ENDBLK
  5
55AC
330
55A0
100
AcDbEntity
  8
0
370
    30
100
AcDbBlockEnd
  0
BLOCK
  5
55B8
330
55AD
100
AcDbEntity
  8
0
370
    30
100
AcDbBlockBegin
  2
*D35
 70
     1
 10
0.0
 20
0.0
 30
0.0
  3
*D35
  1

  0
LINE
  5
5BA1
330
55AD
100
AcDbEntity
  8
0
 62
     0
370
    -2
100
AcDbLine
 10
35.60634948228197
 20
3.998129024226425
 30
0.0
 11
34.71288813296657
 21
3.998129024226426
 31
0.0
  0
LINE
  5
5BA2
330
55AD
100
AcDbEntity
  8
0
 62
     0
370
    -2
100
AcDbLine
 10
35.60634948228195
 20
0.2981290242264265
 30
0.0
 11
34.71288813296657
 21
0.2981290242264268
 31
0.0
  0
LINE
  5
5BA3
330
55AD
100
AcDbEntity
  8
0
 62
     0
370
    -2
100
AcDbLine
 10
34.76288813296657
 20
3.848129024226426
 30
0.0
 11
34.76288813296657
 21
2.253116729690988
 31
0.0
  0
LINE
  5
5BA4
330
55AD
100
AcDbEntity
  8
0
 62
     0
370
    -2
100
AcDbLine
 10
34.76288813296657
 20
0.4481290242264268
 30
0.0
 11
34.76288813296657
 21
1.956707212747945
 31
0.0
  0
SOLID
  5
5BA5
330
55AD
100
AcDbEntity
  8
0
 62
     0
370
    30
100
AcDbTrace
 10
34.73788813296657
 20
3.848129024226426
 30
0.0
 11
34.78788813296657
 21
3.848129024226426
 31
0.0
 12
34.76288813296657
 22
3.998129024226426
 32
0.0
 13
34.76288813296657
 23
3.998129024226426
 33
0.0
  0
SOLID
  5
5BA6
330
55AD
100
AcDbEntity
  8
0
 62
     0
370
    30
100
AcDbTrace
 10
34.73788813296657
 20
0.4481290242264268
 30
0.0
 11
34.78788813296657
 21
0.4481290242264268
 31
0.0
 12
34.76288813296657
 22
0.2981290242264268
 32
0.0
 13
34.76288813296657
 23
0.2981290242264268
 33
0.0
  0
MTEXT
  5
5BA7
330
55AD
100
AcDbEntity
  8
0
 62
     0
100
AcDbMText
 10
34.76288813296657
 20
2.104911971219472
 30
0.0
 40
0.09
 41
0.0
 71
     5
 72
     1
  1
\A1;3.70" [93.98mm]
 73
     1
 44
1.0
  0
POINT
  5
5BA8
330
55AD
100
AcDbEntity
  8
Defpoints
 62
     0
370
    30
100
AcDbPoint
 10
35.66884948228197
 20
3.998129024226425
 30
0.0
  0
POINT
  5
5BA9
330
55AD
100
AcDbEntity
  8
Defpoints
 62
     0
370
    30
100
AcDbPoint
 10
35.66884948228195
 20
0.2981290242264265
 30
0.0
  0
POINT
  5
5BAA
330
55AD
100
AcDbEntity
  8
Defpoints
 62
     0
370
    30
100
AcDbPoint
 10
34.76288813296657
 20
0.2981290242264268
 30
0.0
  0
ENDBLK
  5
55B9
330
55AD
100
AcDbEntity
  8
0
370
    30
100
AcDbBlockEnd
  0
BLOCK
  5
55C5
330
55BA
100
AcDbEntity
  8
0
370
    30
100
AcDbBlockBegin
  2
*D36
 70
     1
 10
0.0
 20
0.0
 30
0.0
  3
*D36
  1

  0
LINE
  5
5B97
330
55BA
100
AcDbEntity
  8
0
 62
     0
370
    -2
100
AcDbLine
 10
41.71119053230622
 20
0.3556290242261006
 30
0.0
 11
41.71119053230622
 21
-0.2638909769728308
 31
0.0
  0
LINE
  5
5B98
330
55BA
100
AcDbEntity
  8
0
 62
     0
370
    -2
100
AcDbLine
 10
39.49469053230621
 20
0.2356290242261032
 30
0.0
 11
39.49469053230621
 21
-0.2638909769728308
 31
0.0
  0
LINE
  5
5B99
330
55BA
100
AcDbEntity
  8
0
 62
     0
370
    -2
100
AcDbLine
 10
41.56119053230622
 20
-0.2138909769728308
 30
0.0
 11
41.1432325294223
 21
-0.2138909769728308
 31
0.0
  0
LINE
  5
5B9A
330
55BA
100
AcDbEntity
  8
0
 62
     0
370
    -2
100
AcDbLine
 10
39.64469053230621
 20
-0.2138909769728308
 30
0.0
 11
40.06264853519014
 21
-0.2138909769728308
 31
0.0
  0
SOLID
  5
5B9B
330
55BA
100
AcDbEntity
  8
0
 62
     0
370
    30
100
AcDbTrace
 10
41.56119053230622
 20
-0.1888909769728308
 30
0.0
 11
41.56119053230622
 21
-0.2388909769728308
 31
0.0
 12
41.71119053230622
 22
-0.2138909769728308
 32
0.0
 13
41.71119053230622
 23
-0.2138909769728308
 33
0.0
  0
SOLID
  5
5B9C
330
55BA
100
AcDbEntity
  8
0
 62
     0
370
    30
100
AcDbTrace
 10
39.64469053230621
 20
-0.1888909769728308
 30
0.0
 11
39.64469053230621
 21
-0.2388909769728308
 31
0.0
 12
39.49469053230621
 22
-0.2138909769728308
 32
0.0
 13
39.49469053230621
 23
-0.2138909769728308
 33
0.0
  0
MTEXT
  5
5B9D
330
55BA
100
AcDbEntity
  8
0
 62
     0
100
AcDbMText
 10
40.60294053230622
 20
-0.2138909769728308
 30
0.0
 40
0.09
 41
0.0
 71
     5
 72
     1
  1
\A1;2.22" [56.30mm]
 73
     1
 44
1.0
  0
POINT
  5
5B9E
330
55BA
100
AcDbEntity
  8
Defpoints
 62
     0
370
    30
100
AcDbPoint
 10
41.71119053230622
 20
0.4181290242261007
 30
0.0
  0
POINT
  5
5B9F
330
55BA
100
AcDbEntity
  8
Defpoints
 62
     0
370
    30
100
AcDbPoint
 10
39.49469053230621
 20
0.2981290242261032
 30
0.0
  0
POINT
  5
5BA0
330
55BA
100
AcDbEntity
  8
Defpoints
 62
     0
370
    30
100
AcDbPoint
 10
39.49469053230621
 20
-0.2138909769728308
 30
0.0
  0
ENDBLK
  5
55C6
330
55BA
100
AcDbEntity
  8
0
370
    30
100
AcDbBlockEnd
  0
BLOCK
  5
55D2
330
55C7
100
AcDbEntity
  8
0
370
    30
100
AcDbBlockBegin
  2
*D37
 70
     1
 10
0.0
 20
0.0
 30
0.0
  3
*D37
  1

  0
LINE
  5
5B8D
330
55C7
100
AcDbEntity
  8
0
 62
     0
370
    -2
100
AcDbLine
 10
41.64869053230622
 20
4.060629024226098
 30
0.0
 11
41.64869053230622
 21
4.24364564162906
 31
0.0
  0
LINE
  5
5B8E
330
55C7
100
AcDbEntity
  8
0
 62
     0
370
    -2
100
AcDbLine
 10
40.88619053230622
 20
2.811879024226104
 30
0.0
 11
40.88619053230622
 21
4.24364564162906
 31
0.0
  0
LINE
  5
5B8F
330
55C7
100
AcDbEntity
  8
0
 62
     0
370
    -2
100
AcDbLine
 10
41.49869053230622
 20
4.193645641629061
 30
0.0
 11
41.03619053230622
 21
4.193645641629061
 31
0.0
  0
LINE
  5
5B90
330
55C7
100
AcDbEntity
  8
0
 62
     0
370
    -2
100
AcDbLine
 10
40.88619053230622
 20
4.193645641629061
 30
0.0
 11
40.65300920570204
 21
4.193645641629061
 31
0.0
  0
SOLID
  5
5B91
330
55C7
100
AcDbEntity
  8
0
 62
     0
370
    30
100
AcDbTrace
 10
41.49869053230622
 20
4.218645641629061
 30
0.0
 11
41.49869053230622
 21
4.16864564162906
 31
0.0
 12
41.64869053230622
 22
4.193645641629061
 32
0.0
 13
41.64869053230622
 23
4.193645641629061
 33
0.0
  0
SOLID
  5
5B92
330
55C7
100
AcDbEntity
  8
0
 62
     0
370
    30
100
AcDbTrace
 10
41.03619053230622
 20
4.218645641629061
 30
0.0
 11
41.03619053230622
 21
4.16864564162906
 31
0.0
 12
40.88619053230622
 22
4.193645641629061
 32
0.0
 13
40.88619053230622
 23
4.193645641629061
 33
0.0
  0
MTEXT
  5
5B93
330
55C7
100
AcDbEntity
  8
0
 62
     0
100
AcDbMText
 10
40.11369053230622
 20
4.193645641629061
 30
0.0
 40
0.09
 41
0.0
 71
     5
 72
     1
  1
\A1;0.76" [19.37mm]
 73
     1
 44
1.0
  0
POINT
  5
5B94
330
55C7
100
AcDbEntity
  8
Defpoints
 62
     0
370
    30
100
AcDbPoint
 10
41.64869053230622
 20
3.998129024226098
 30
0.0
  0
POINT
  5
5B95
330
55C7
100
AcDbEntity
  8
Defpoints
 62
     0
370
    30
100
AcDbPoint
 10
40.88619053230622
 20
2.749379024226104
 30
0.0
  0
POINT
  5
5B96
330
55C7
100
AcDbEntity
  8
Defpoints
 62
     0
370
    30
100
AcDbPoint
 10
40.88619053230622
 20
4.193645641629061
 30
0.0
  0
ENDBLK
  5
55D3
330
55C7
100
AcDbEntity
  8
0
370
    30
100
AcDbBlockEnd
  0
BLOCK
  5
55DF
330
55D4
100
AcDbEntity
  8
0
370
    30
100
AcDbBlockBegin
  2
*D38
 70
     1
 10
0.0
 20
0.0
 30
0.0
  3
*D38
  1

  0
LINE
  5
5B83
330
55D4
100
AcDbEntity
  8
0
 62
     0
370
    -2
100
AcDbLine
 10
37.92384948228199
 20
5.863928366837985
 30
0.0
 11
37.92384948228199
 21
5.385124707916578
 31
0.0
  0
LINE
  5
5B84
330
55D4
100
AcDbEntity
  8
0
 62
     0
370
    -2
100
AcDbLine
 10
35.37384948228197
 20
5.863928366837985
 30
0.0
 11
35.37384948228197
 21
5.385124707916578
 31
0.0
  0
LINE
  5
5B85
330
55D4
100
AcDbEntity
  8
0
 62
     0
370
    -2
100
AcDbLine
 10
37.77384948228199
 20
5.435124707916578
 30
0.0
 11
37.18914147939806
 21
5.435124707916578
 31
0.0
  0
LINE
  5
5B86
330
55D4
100
AcDbEntity
  8
0
 62
     0
370
    -2
100
AcDbLine
 10
35.52384948228197
 20
5.435124707916578
 30
0.0
 11
36.10855748516591
 21
5.435124707916578
 31
0.0
  0
SOLID
  5
5B87
330
55D4
100
AcDbEntity
  8
0
 62
     0
370
    30
100
AcDbTrace
 10
37.77384948228199
 20
5.460124707916579
 30
0.0
 11
37.77384948228199
 21
5.410124707916578
 31
0.0
 12
37.92384948228199
 22
5.435124707916578
 32
0.0
 13
37.92384948228199
 23
5.435124707916578
 33
0.0
  0
SOLID
  5
5B88
330
55D4
100
AcDbEntity
  8
0
 62
     0
370
    30
100
AcDbTrace
 10
35.52384948228197
 20
5.460124707916579
 30
0.0
 11
35.52384948228197
 21
5.410124707916578
 31
0.0
 12
35.37384948228197
 22
5.435124707916578
 32
0.0
 13
35.37384948228197
 23
5.435124707916578
 33
0.0
  0
MTEXT
  5
5B89
330
55D4
100
AcDbEntity
  8
0
 62
     0
100
AcDbMText
 10
36.64884948228198
 20
5.435124707916578
 30
0.0
 40
0.09
 41
0.0
 71
     5
 72
     1
  1
\A1;2.55" [64.77mm]
 73
     1
 44
1.0
  0
POINT
  5
5B8A
330
55D4
100
AcDbEntity
  8
Defpoints
 62
     0
370
    30
100
AcDbPoint
 10
37.92384948228199
 20
5.926428366837985
 30
0.0
  0
POINT
  5
5B8B
330
55D4
100
AcDbEntity
  8
Defpoints
 62
     0
370
    30
100
AcDbPoint
 10
35.37384948228197
 20
5.926428366837985
 30
0.0
  0
POINT
  5
5B8C
330
55D4
100
AcDbEntity
  8
Defpoints
 62
     0
370
    30
100
AcDbPoint
 10
35.37384948228197
 20
5.435124707916578
 30
0.0
  0
ENDBLK
  5
55E0
330
55D4
100
AcDbEntity
  8
0
370
    30
100
AcDbBlockEnd
  0
BLOCK
  5
55EC
330
55E1
100
AcDbEntity
  8
0
370
    30
100
AcDbBlockBegin
  2
*D39
 70
     1
 10
0.0
 20
0.0
 30
0.0
  3
*D39
  1

  0
LINE
  5
5B79
330
55E1
100
AcDbEntity
  8
0
 62
     0
370
    -2
100
AcDbLine
 10
40.82369053230622
 20
1.546879024226104
 30
0.0
 11
38.96313374911071
 21
1.546879024226105
 31
0.0
  0
LINE
  5
5B7A
330
55E1
100
AcDbEntity
  8
0
 62
     0
370
    -2
100
AcDbLine
 10
40.82369053230622
 20
2.749379024226104
 30
0.0
 11
38.96313374911071
 21
2.749379024226105
 31
0.0
  0
LINE
  5
5B7B
330
55E1
100
AcDbEntity
  8
0
 62
     0
370
    -2
100
AcDbLine
 10
39.01313374911071
 20
1.696879024226104
 30
0.0
 11
39.01313374911071
 21
1.999924265754583
 31
0.0
  0
LINE
  5
5B7C
330
55E1
100
AcDbEntity
  8
0
 62
     0
370
    -2
100
AcDbLine
 10
39.01313374911071
 20
2.599379024226105
 30
0.0
 11
39.01313374911071
 21
2.296333782697626
 31
0.0
  0
SOLID
  5
5B7D
330
55E1
100
AcDbEntity
  8
0
 62
     0
370
    30
100
AcDbTrace
 10
38.98813374911071
 20
1.696879024226104
 30
0.0
 11
39.0381337491107
 21
1.696879024226104
 31
0.0
 12
39.01313374911071
 22
1.546879024226105
 32
0.0
 13
39.01313374911071
 23
1.546879024226105
 33
0.0
  0
SOLID
  5
5B7E
330
55E1
100
AcDbEntity
  8
0
 62
     0
370
    30
100
AcDbTrace
 10
38.98813374911071
 20
2.599379024226105
 30
0.0
 11
39.0381337491107
 21
2.599379024226105
 31
0.0
 12
39.01313374911071
 22
2.749379024226104
 32
0.0
 13
39.01313374911071
 23
2.749379024226104
 33
0.0
  0
MTEXT
  5
5B7F
330
55E1
100
AcDbEntity
  8
0
 62
     0
100
AcDbMText
 10
39.01313374911071
 20
2.148129024226111
 30
0.0
 40
0.09
 41
0.0
 71
     5
 72
     1
  1
\A1;1.20" [30.54mm]
 73
     1
 44
1.0
  0
POINT
  5
5B80
330
55E1
100
AcDbEntity
  8
Defpoints
 62
     0
370
    30
100
AcDbPoint
 10
40.88619053230622
 20
1.546879024226104
 30
0.0
  0
POINT
  5
5B81
330
55E1
100
AcDbEntity
  8
Defpoints
 62
     0
370
    30
100
AcDbPoint
 10
40.88619053230622
 20
2.749379024226104
 30
0.0
  0
POINT
  5
5B82
330
55E1
100
AcDbEntity
  8
Defpoints
 62
     0
370
    30
100
AcDbPoint
 10
39.01313374911071
 20
2.749379024226104
 30
0.0
  0
ENDBLK
  5
55ED
330
55E1
100
AcDbEntity
  8
0
370
    30
100
AcDbBlockEnd
  0
BLOCK
  5
5A0D
330
5A01
100
AcDbEntity
  8
0
370
    30
100
AcDbBlockBegin
  2
*D40
 70
     1
 10
0.0
 20
0.0
 30
0.0
  3
*D40
  1

  0
LINE
  5
5C80
330
5A01
100
AcDbEntity
  8
0
 62
     0
370
    -2
100
AcDbLine
 10
43.0535350092787
 20
3.98312902422609
 30
0.0
 11
43.19782222585739
 21
3.98312902422609
 31
0.0
  0
LINE
  5
5C81
330
5A01
100
AcDbEntity
  8
0
 62
     0
370
    -2
100
AcDbLine
 10
43.1383444683901
 20
3.423129024226096
 30
0.0
 11
43.19782222585739
 21
3.423129024226096
 31
0.0
  0
LINE
  5
5C82
330
5A01
100
AcDbEntity
  8
0
 62
     0
370
    -2
100
AcDbLine
 10
43.1478222258574
 20
3.573129024226096
 30
0.0
 11
43.1478222258574
 21
3.83312902422609
 31
0.0
  0
LINE
  5
5C83
330
5A01
100
AcDbEntity
  8
0
 62
     0
370
    -2
100
AcDbLine
 10
43.1478222258574
 20
3.98312902422609
 30
0.0
 11
43.1478222258574
 21
4.344615907730048
 31
0.0
  0
LINE
  5
5C84
330
5A01
100
AcDbEntity
  8
0
 62
     0
370
    -2
100
AcDbLine
 10
43.1478222258574
 20
4.344615907730048
 30
0.0
 11
43.29782222585739
 21
4.344615907730048
 31
0.0
  0
SOLID
  5
5C85
330
5A01
100
AcDbEntity
  8
0
 62
     0
370
    30
100
AcDbTrace
 10
43.12282222585739
 20
3.573129024226096
 30
0.0
 11
43.17282222585739
 21
3.573129024226096
 31
0.0
 12
43.1478222258574
 22
3.423129024226096
 32
0.0
 13
43.1478222258574
 23
3.423129024226096
 33
0.0
  0
SOLID
  5
5C86
330
5A01
100
AcDbEntity
  8
0
 62
     0
370
    30
100
AcDbTrace
 10
43.12282222585739
 20
3.83312902422609
 30
0.0
 11
43.17282222585739
 21
3.83312902422609
 31
0.0
 12
43.1478222258574
 22
3.98312902422609
 32
0.0
 13
43.1478222258574
 23
3.98312902422609
 33
0.0
  0
MTEXT
  5
5C87
330
5A01
100
AcDbEntity
  8
0
 62
     0
370
    30
100
AcDbMText
 10
43.98190658057981
 20
4.344615907730055
 30
0.0
 40
0.09
 41
0.0
 71
     5
 72
     1
  1
\A1;0.56" [14.22mm] (2X)
 73
     1
 44
1.0
  0
POINT
  5
5C88
330
5A01
100
AcDbEntity
  8
Defpoints
 62
     0
370
    30
100
AcDbPoint
 10
42.99103500927871
 20
3.983129024226091
 30
0.0
  0
POINT
  5
5C89
330
5A01
100
AcDbEntity
  8
Defpoints
 62
     0
370
    30
100
AcDbPoint
 10
43.0758444683901
 20
3.423129024226096
 30
0.0
  0
POINT
  5
5C8A
330
5A01
100
AcDbEntity
  8
Defpoints
 62
     0
370
    30
100
AcDbPoint
 10
43.1478222258574
 20
3.423129024226096
 30
0.0
  0
ENDBLK
  5
5A0E
330
5A01
100
AcDbEntity
  8
0
370
    30
100
AcDbBlockEnd
  0
ENDSEC
  0
SECTION
  2
ENTITIES
  0
LINE
  5
3811
330
1E
100
AcDbEntity
  8
0
  6
Continuous
370
    30
100
AcDbLine
 10
0.0
 20
0.0
 30
0.0
 11
0.0
 21
6.0
 31
0.0
  0
LINE
  5
3812
330
1E
100
AcDbEntity
  8
0
  6
Continuous
370
    30
100
AcDbLine
 10
0.0
 20
6.0
 30
0.0
 11
12.0
 21
6.0
 31
0.0
  0
LINE
  5
3813
330
1E
100
AcDbEntity
  8
0
  6
Continuous
370
    30
100
AcDbLine
 10
12.0
 20
6.0
 30
0.0
 11
12.0
 21
0.0
 31
0.0
  0
LINE
  5
3814
330
1E
100
AcDbEntity
  8
0
  6
Continuous
370
    30
100
AcDbLine
 10
12.0
 20
0.0
 30
0.0
 11
0.0
 21
0.0
 31
0.0
  0
LINE
  5
3915
330
1E
100
AcDbEntity
  8
0
  6
Continuous
370
    30
100
AcDbLine
 10
13.0
 20
0.0
 30
0.0
 11
25.0
 21
0.0
 31
0.0
  0
LINE
  5
3916
330
1E
100
AcDbEntity
  8
0
  6
Continuous
370
    30
100
AcDbLine
 10
25.0
 20
0.0
 30
0.0
 11
25.0
 21
12.0
 31
0.0
  0
LINE
  5
3917
330
1E
100
AcDbEntity
  8
0
  6
Continuous
370
    30
100
AcDbLine
 10
25.0
 20
12.0
 30
0.0
 11
13.0
 21
12.0
 31
0.0
  0
LINE
  5
3918
330
1E
100
AcDbEntity
  8
0
  6
Continuous
370
    30
100
AcDbLine
 10
13.0
 20
12.0
 30
0.0
 11
13.0
 21
0.0
 31
0.0
  0
LINE
  5
3922
330
1E
100
AcDbEntity
  8
Viewport Layer
  6
Continuous
370
    30
100
AcDbLine
 10
26.0
 20
8.5
 30
0.0
 11
26.00000000158828
 21
0.0000000059643366
 31
0.0
  0
LINE
  5
3923
330
1E
100
AcDbEntity
  8
Viewport Layer
  6
Continuous
370
    30
100
AcDbLine
 10
42.0
 20
0.0
 30
0.0
 11
42.0
 21
8.5
 31
0.0
  0
LINE
  5
3924
330
1E
100
AcDbEntity
  8
Viewport Layer
  6
Continuous
370
    30
100
AcDbLine
 10
26.00000000158828
 20
0.0000000059643366
 30
0.0
 11
42.0
 21
0.0
 31
0.0
  0
LINE
  5
3925
330
1E
100
AcDbEntity
  8
Viewport Layer
  6
Continuous
370
    30
100
AcDbLine
 10
42.0
 20
8.5
 30
0.0
 11
26.0
 21
8.5
 31
0.0
  0
MTEXT
  5
3926
330
1E
100
AcDbEntity
  8
0
  6
Continuous
370
    30
100
AcDbMText
 10
0.0
 20
-0.1
 30
0.0
 40
0.2
 41
2.6
 71
     1
 72
     5
  1
{\fCourier New|b0|i0|c0|p49;Page 1 Space}
 73
     1
 44
1.0
  0
MTEXT
  5
392D
330
1E
100
AcDbEntity
  8
0
  6
Continuous
370
    30
100
AcDbMText
 10
13.0
 20
-0.1
 30
0.0
 40
0.2
 41
4.5
 71
     1
 72
     5
  1
{\fCourier New|b0|i0|c0|p49;Page 2 Portrait Space}
 73
     1
 44
1.0
  0
MTEXT
  5
3B5F
330
1E
100
AcDbEntity
  8
Viewport Layer
  6
Continuous
370
    30
100
AcDbMText
 10
26.0
 20
-0.1
 30
0.0
 40
0.2
 41
4.700000000000002
 71
     1
 72
     5
  1
{\fCourier New|b0|i0|c0|p49;Page 2 Landscape Space}
 73
     1
 44
1.0
  0
MTEXT
  5
3DCF
330
1E
100
AcDbEntity
  8
0
  6
Continuous
100
AcDbMText
 10
33.34921979301771
 20
1.849136723317599
 30
0.0
 40
0.18
 41
0.0
 71
     6
 72
     1
  1

 73
     1
 44
1.0
  0
MTEXT
  5
3F15
330
1E
100
AcDbEntity
  8
0
370
    30
100
AcDbMText
 10
40.50932256815213
 20
13.34981862052706
 30
0.0
 40
0.18
 41
0.0
 71
     9
 72
     1
  1

 73
     1
 44
1.0
  0
LINE
  5
53C5
330
1E
100
AcDbEntity
  8
0
100
AcDbLine
 10
35.37384948228197
 20
3.703129024226424
 30
0.0
 11
35.37384948228197
 21
0.5931290242264247
 31
0.0
  0
LINE
  5
53C6
330
1E
100
AcDbEntity
  8
0
100
AcDbLine
 10
35.66884948228197
 20
0.2981290242264265
 30
0.0
 11
37.62884948228197
 21
0.29812902422643
 31
0.0
  0
LINE
  5
53C7
330
1E
100
AcDbEntity
  8
0
100
AcDbLine
 10
37.92384948228197
 20
0.5931290242264318
 30
0.0
 11
37.92384948228198
 21
3.703129024226424
 31
0.0
  0
LINE
  5
53C8
330
1E
100
AcDbEntity
  8
0
100
AcDbLine
 10
37.62884948228198
 20
3.998129024226425
 30
0.0
 11
35.66884948228197
 21
3.998129024226422
 31
0.0
  0
ARC
  5
53C9
330
1E
100
AcDbEntity
  8
0
100
AcDbCircle
 10
37.62884948228198
 20
3.703129024226427
 30
0.0
 40
0.295
100
AcDbArc
 50
359.9999999999997
 51
90.0
  0
ARC
  5
53CA
330
1E
100
AcDbEntity
  8
0
100
AcDbCircle
 10
35.66884948228197
 20
3.703129024226424
 30
0.0
 40
0.295
100
AcDbArc
 50
90.0
 51
180.0
  0
ARC
  5
53CB
330
1E
100
AcDbEntity
  8
0
100
AcDbCircle
 10
35.66884948228197
 20
0.5931290242264247
 30
0.0
 40
0.295
100
AcDbArc
 50
180.0
 51
270.0
  0
ARC
  5
53CC
330
1E
100
AcDbEntity
  8
0
100
AcDbCircle
 10
37.62884948228197
 20
0.5931290242264318
 30
0.0
 40
0.295
100
AcDbArc
 50
270.0
 51
359.9999999999996
  0
LINE
  5
53CD
330
1E
100
AcDbEntity
  8
0
100
AcDbLine
 10
41.64869053230622
 20
0.2981290242261032
 30
0.0
 11
41.64869053230622
 21
3.998129024226098
 31
0.0
  0
LINE
  5
53CE
330
1E
100
AcDbEntity
  8
0
100
AcDbLine
 10
41.64869053230622
 20
3.998129024226098
 30
0.0
 11
40.11619053230622
 21
3.998129024226102
 31
0.0
  0
LINE
  5
53CF
330
1E
100
AcDbEntity
  8
0
100
AcDbLine
 10
40.11619053230622
 20
3.998129024226102
 30
0.0
 11
40.11619053230622
 21
0.2981290242261032
 31
0.0
  0
LINE
  5
53D0
330
1E
100
AcDbEntity
  8
0
100
AcDbLine
 10
40.11619053230622
 20
0.2981290242261032
 30
0.0
 11
41.64869053230622
 21
0.2981290242261032
 31
0.0
  0
CIRCLE
  5
53D1
330
1E
100
AcDbEntity
  8
0
100
AcDbCircle
 10
40.88619053230622
 20
2.749379024226104
 30
0.0
 40
0.4600000000000001
  0
CIRCLE
  5
53D2
330
1E
100
AcDbEntity
  8
0
100
AcDbCircle
 10
40.88619053230622
 20
1.546879024226104
 30
0.0
 40
0.4600000000000001
  0
CIRCLE
  5
53D3
330
1E
100
AcDbEntity
  8
0
100
AcDbCircle
 10
40.88619053230622
 20
2.749379024226104
 30
0.0
 40
0.4185000000000001
  0
CIRCLE
  5
53D4
330
1E
100
AcDbEntity
  8
0
100
AcDbCircle
 10
40.88619053230622
 20
1.546879024226104
 30
0.0
 40
0.4185000000000001
  0
CIRCLE
  5
53D5
330
1E
100
AcDbEntity
  8
0
100
AcDbCircle
 10
40.88619053230622
 20
2.749379024226104
 30
0.0
 40
0.375
  0
CIRCLE
  5
53D6
330
1E
100
AcDbEntity
  8
0
100
AcDbCircle
 10
40.88619053230622
 20
1.546879024226104
 30
0.0
 40
0.375
  0
CIRCLE
  5
53D7
330
1E
100
AcDbEntity
  8
0
100
AcDbCircle
 10
40.88619053230622
 20
2.749379024226104
 30
0.0
 40
0.335
  0
CIRCLE
  5
53D8
330
1E
100
AcDbEntity
  8
0
100
AcDbCircle
 10
40.88619053230622
 20
1.546879024226104
 30
0.0
 40
0.335
  0
LINE
  5
53D9
330
1E
100
AcDbEntity
  8
HIDDEN
100
AcDbLine
 10
40.03119053230621
 20
3.918129024226097
 30
0.0
 11
40.03119053230622
 21
0.3781290242261051
 31
0.0
  0
LINE
  5
53DA
330
1E
100
AcDbEntity
  8
0
100
AcDbLine
 10
40.11619053230623
 20
3.918129024226097
 30
0.0
 11
40.03119053230622
 21
3.918129024226097
 31
0.0
  0
LINE
  5
53DB
330
1E
100
AcDbEntity
  8
HIDDEN
100
AcDbLine
 10
40.11619053230623
 20
0.3781290242261015
 30
0.0
 11
40.03119053230622
 21
0.3781290242261015
 31
0.0
  0
LINE
  5
53DC
330
1E
100
AcDbEntity
  8
0
100
AcDbLine
 10
40.11619053230622
 20
3.998129024226102
 30
0.0
 11
40.11619053230622
 21
0.2981290242261032
 31
0.0
  0
LINE
  5
53DD
330
1E
100
AcDbEntity
  8
0
100
AcDbLine
 10
40.09469053230621
 20
0.2981290242261032
 30
0.0
 11
39.49469053230621
 21
0.2981290242261032
 31
0.0
  0
LINE
  5
53DE
330
1E
100
AcDbEntity
  8
0
100
AcDbLine
 10
39.49469053230621
 20
0.2981290242261032
 30
0.0
 11
39.49469053230621
 21
3.998129024226102
 31
0.0
  0
LINE
  5
53DF
330
1E
100
AcDbEntity
  8
0
100
AcDbLine
 10
39.49469053230621
 20
3.998129024226102
 30
0.0
 11
40.09469053230621
 21
3.998129024226102
 31
0.0
  0
LINE
  5
53E0
330
1E
100
AcDbEntity
  8
HIDDEN
100
AcDbLine
 10
40.11619053230622
 20
3.918129024226097
 30
0.0
 11
40.03119053230621
 21
3.918129024226097
 31
0.0
  0
LINE
  5
53E1
330
1E
100
AcDbEntity
  8
HIDDEN
100
AcDbLine
 10
39.85469053230621
 20
0.3781290242261051
 30
0.0
 11
39.85469053230621
 21
0.8081290242261047
 31
0.0
  0
LINE
  5
53E2
330
1E
100
AcDbEntity
  8
HIDDEN
100
AcDbLine
 10
39.85469053230621
 20
3.488129024226097
 30
0.0
 11
39.49469053230621
 21
3.488129024226097
 31
0.0
  0
LINE
  5
53E3
330
1E
100
AcDbEntity
  8
HIDDEN
100
AcDbLine
 10
39.85469053230621
 20
3.918129024226097
 30
0.0
 11
39.49469053230621
 21
3.918129024226097
 31
0.0
  0
LINE
  5
53E4
330
1E
100
AcDbEntity
  8
HIDDEN
100
AcDbLine
 10
39.85469053230622
 20
0.8081290242261047
 30
0.0
 11
39.49469053230621
 21
0.8081290242261047
 31
0.0
  0
LINE
  5
53E5
330
1E
100
AcDbEntity
  8
HIDDEN
100
AcDbLine
 10
39.85469053230622
 20
0.3781290242261051
 30
0.0
 11
39.49469053230621
 21
0.3781290242261051
 31
0.0
  0
LINE
  5
53E6
330
1E
100
AcDbEntity
  8
HIDDEN
100
AcDbLine
 10
39.85469053230621
 20
3.488129024226097
 30
0.0
 11
39.85469053230621
 21
3.918129024226097
 31
0.0
  0
LINE
  5
53E7
330
1E
100
AcDbEntity
  8
HIDDEN
100
AcDbLine
 10
41.37719053230621
 20
3.538129024226098
 30
0.0
 11
40.00969053230621
 21
3.538129024226098
 31
0.0
  0
LINE
  5
53E8
330
1E
100
AcDbEntity
  8
HIDDEN
100
AcDbLine
 10
41.37719053230621
 20
3.868129024226096
 30
0.0
 11
40.00969053230621
 21
3.868129024226096
 31
0.0
  0
LINE
  5
53E9
330
1E
100
AcDbEntity
  8
HIDDEN
100
AcDbLine
 10
41.37719053230622
 20
0.7581290242261006
 30
0.0
 11
40.00969053230622
 21
0.7581290242261006
 31
0.0
  0
LINE
  5
53EA
330
1E
100
AcDbEntity
  8
HIDDEN
100
AcDbLine
 10
41.37719053230622
 20
0.4281290242261023
 30
0.0
 11
40.00969053230623
 21
0.4281290242261023
 31
0.0
  0
LINE
  5
53EB
330
1E
100
AcDbEntity
  8
HIDDEN
100
AcDbLine
 10
41.37719053230621
 20
0.4281290242261023
 30
0.0
 11
41.37719053230622
 21
0.7581290242261006
 31
0.0
  0
LINE
  5
53EC
330
1E
100
AcDbEntity
  8
HIDDEN
100
AcDbLine
 10
41.37719053230621
 20
3.538129024226098
 30
0.0
 11
41.37719053230621
 21
3.868129024226092
 31
0.0
  0
LINE
  5
53ED
330
1E
100
AcDbEntity
  8
HIDDEN
100
AcDbLine
 10
40.09469053230622
 20
0.7581290242261006
 30
0.0
 11
39.85469053230621
 21
0.7581290242261006
 31
0.0
  0
LINE
  5
53EE
330
1E
100
AcDbEntity
  8
HIDDEN
100
AcDbLine
 10
40.09469053230622
 20
0.4281290242261023
 30
0.0
 11
39.85469053230621
 21
0.4281290242261023
 31
0.0
  0
LINE
  5
53EF
330
1E
100
AcDbEntity
  8
HIDDEN
100
AcDbLine
 10
40.09469053230621
 20
3.538129024226094
 30
0.0
 11
39.85469053230621
 21
3.538129024226098
 31
0.0
  0
LINE
  5
53F0
330
1E
100
AcDbEntity
  8
HIDDEN
100
AcDbLine
 10
40.09469053230621
 20
3.868129024226092
 30
0.0
 11
39.85469053230621
 21
3.868129024226096
 31
0.0
  0
LINE
  5
53F1
330
1E
100
AcDbEntity
  8
0
100
AcDbLine
 10
35.37384948228197
 20
8.058928366837992
 30
0.0
 11
37.92384948228198
 21
8.058928366837992
 31
0.0
  0
LINE
  5
53F2
330
1E
100
AcDbEntity
  8
0
100
AcDbLine
 10
37.92384948228198
 20
8.058928366837992
 30
0.0
 11
37.92384948228198
 21
6.526428366837993
 31
0.0
  0
LINE
  5
53F3
330
1E
100
AcDbEntity
  8
HIDDEN
100
AcDbLine
 10
37.79384948228199
 20
7.787428366838
 30
0.0
 11
37.79384948228199
 21
6.504928366838001
 31
0.0
  0
LINE
  5
53F4
330
1E
100
AcDbEntity
  8
HIDDEN
100
AcDbLine
 10
37.46384948228199
 20
7.787428366838
 30
0.0
 11
37.46384948228199
 21
6.504928366838001
 31
0.0
  0
LINE
  5
53F5
330
1E
100
AcDbEntity
  8
HIDDEN
100
AcDbLine
 10
37.46384948228199
 20
7.787428366838
 30
0.0
 11
37.79384948228198
 21
7.787428366837993
 31
0.0
  0
LINE
  5
53F6
330
1E
100
AcDbEntity
  8
0
100
AcDbLine
 10
35.37384948228197
 20
6.526428366837993
 30
0.0
 11
35.37384948228197
 21
8.058928366837992
 31
0.0
  0
LINE
  5
53F7
330
1E
100
AcDbEntity
  8
HIDDEN
100
AcDbLine
 10
35.50384948228197
 20
7.787428366838007
 30
0.0
 11
35.50384948228197
 21
6.504928366838004
 31
0.0
  0
LINE
  5
53F8
330
1E
100
AcDbEntity
  8
HIDDEN
100
AcDbLine
 10
35.83384948228196
 20
7.787428366838007
 30
0.0
 11
35.83384948228196
 21
6.504928366838004
 31
0.0
  0
LINE
  5
53F9
330
1E
100
AcDbEntity
  8
HIDDEN
100
AcDbLine
 10
35.50384948228197
 20
7.787428366838
 30
0.0
 11
35.83384948228196
 21
7.787428366838007
 31
0.0
  0
LINE
  5
53FA
330
1E
100
AcDbEntity
  8
0
100
AcDbLine
 10
37.92384948228198
 20
6.526428366838
 30
0.0
 11
35.37384948228197
 21
6.526428366837993
 31
0.0
  0
LINE
  5
53FB
330
1E
100
AcDbEntity
  8
HIDDEN
100
AcDbLine
 10
37.84384948228199
 20
6.441428366837971
 30
0.0
 11
35.45384948228198
 21
6.441428366837985
 31
0.0
  0
LINE
  5
53FC
330
1E
100
AcDbEntity
  8
0
100
AcDbLine
 10
35.37384948228197
 20
5.904928366837992
 30
0.0
 11
37.92384948228198
 21
5.904928366837992
 31
0.0
  0
LINE
  5
53FD
330
1E
100
AcDbEntity
  8
0
100
AcDbLine
 10
37.92384948228198
 20
6.504928366838001
 30
0.0
 11
35.37384948228197
 21
6.504928366837994
 31
0.0
  0
LINE
  5
53FE
330
1E
100
AcDbEntity
  8
HIDDEN
100
AcDbLine
 10
37.84384948228199
 20
6.264928366837992
 30
0.0
 11
37.84384948228199
 21
5.904928366837992
 31
0.0
  0
LINE
  5
53FF
330
1E
100
AcDbEntity
  8
HIDDEN
100
AcDbLine
 10
37.41384948228199
 20
6.264928366837992
 30
0.0
 11
37.41384948228199
 21
5.904928366837992
 31
0.0
  0
LINE
  5
5400
330
1E
100
AcDbEntity
  8
0
100
AcDbLine
 10
37.92384948228199
 20
5.926428366837985
 30
0.0
 11
37.92384948228199
 21
6.526428366837986
 31
0.0
  0
LINE
  5
5401
330
1E
100
AcDbEntity
  8
HIDDEN
100
AcDbLine
 10
37.79384948228199
 20
6.504928366837994
 30
0.0
 11
37.793849482282
 21
6.264928366837992
 31
0.0
  0
LINE
  5
5402
330
1E
100
AcDbEntity
  8
HIDDEN
100
AcDbLine
 10
37.46384948228199
 20
6.504928366837994
 30
0.0
 11
37.463849482282
 21
6.264928366837992
 31
0.0
  0
LINE
  5
5403
330
1E
100
AcDbEntity
  8
HIDDEN
100
AcDbLine
 10
37.41384948228199
 20
6.264928366837992
 30
0.0
 11
37.84384948228199
 21
6.264928366837992
 31
0.0
  0
LINE
  5
5404
330
1E
100
AcDbEntity
  8
HIDDEN
100
AcDbLine
 10
37.84384948228199
 20
6.526428366837986
 30
0.0
 11
37.84384948228199
 21
6.441428366837978
 31
0.0
  0
LINE
  5
5405
330
1E
100
AcDbEntity
  8
HIDDEN
100
AcDbLine
 10
35.45384948228198
 20
6.264928366837999
 30
0.0
 11
35.45384948228198
 21
5.904928366837992
 31
0.0
  0
LINE
  5
5406
330
1E
100
AcDbEntity
  8
HIDDEN
100
AcDbLine
 10
35.88384948228197
 20
6.264928366837999
 30
0.0
 11
35.88384948228197
 21
5.904928366837992
 31
0.0
  0
LINE
  5
5407
330
1E
100
AcDbEntity
  8
0
100
AcDbLine
 10
35.37384948228197
 20
6.504928366837994
 30
0.0
 11
35.37384948228197
 21
5.904928366837992
 31
0.0
  0
LINE
  5
5408
330
1E
100
AcDbEntity
  8
HIDDEN
100
AcDbLine
 10
35.50384948228197
 20
6.504928366838001
 30
0.0
 11
35.50384948228197
 21
6.264928366837992
 31
0.0
  0
LINE
  5
5409
330
1E
100
AcDbEntity
  8
HIDDEN
100
AcDbLine
 10
35.83384948228197
 20
6.504928366838001
 30
0.0
 11
35.83384948228197
 21
6.264928366837992
 31
0.0
  0
LINE
  5
540A
330
1E
100
AcDbEntity
  8
HIDDEN
100
AcDbLine
 10
35.45384948228198
 20
6.264928366837992
 30
0.0
 11
35.88384948228197
 21
6.264928366837992
 31
0.0
  0
LINE
  5
540B
330
1E
100
AcDbEntity
  8
HIDDEN
100
AcDbLine
 10
35.45384948228197
 20
6.526428366837986
 30
0.0
 11
35.45384948228197
 21
6.441428366837978
 31
0.0
  0
DIMENSION
  5
540C
330
1E
100
AcDbEntity
  8
0
100
AcDbDimension
  2
*D35
 10
34.76288813296657
 20
0.2981290242264268
 30
0.0
 11
34.76288813296657
 21
2.104911971219472
 31
0.0
 70
   160
 71
     5
 42
3.699999999999999
  3
DIM STYLE 1
100
AcDbAlignedDimension
 13
35.66884948228197
 23
3.998129024226425
 33
0.0
 14
35.66884948228195
 24
0.2981290242264265
 34
0.0
 50
90.0
100
AcDbRotatedDimension
  0
DIMENSION
  5
540D
330
1E
100
AcDbEntity
  8
0
100
AcDbDimension
  2
*D36
 10
39.49469053230621
 20
-0.2138909769728308
 30
0.0
 11
40.60294053230622
 21
-0.2138909769728308
 31
0.0
 70
    32
 71
     5
 42
2.21650000000001
  3
DIM STYLE 1
100
AcDbAlignedDimension
 13
41.71119053230622
 23
0.4181290242261007
 33
0.0
 14
39.49469053230621
 24
0.2981290242261032
 34
0.0
 50
180.0
100
AcDbRotatedDimension
  0
DIMENSION
  5
540E
330
1E
100
AcDbEntity
  8
0
100
AcDbDimension
  2
*D37
 10
40.88619053230622
 20
4.193645641629061
 30
0.0
 11
40.11369053230622
 21
4.193645641629061
 31
0.0
 70
   160
 71
     5
 42
0.7624999999999958
  3
DIM STYLE 1
100
AcDbAlignedDimension
 13
41.64869053230622
 23
3.998129024226098
 33
0.0
 14
40.88619053230622
 24
2.749379024226104
 34
0.0
 50
180.0
100
AcDbRotatedDimension
  0
LINE
  5
540F
330
1E
100
AcDbEntity
  8
0
100
AcDbLine
 10
37.19884948228198
 20
0.2981290242264265
 30
0.0
 11
36.09884948228197
 21
0.2981290242264265
 31
0.0
  0
DIMENSION
  5
5410
330
1E
100
AcDbEntity
  8
0
100
AcDbDimension
  2
*D38
 10
35.37384948228197
 20
5.435124707916578
 30
0.0
 11
36.64884948228198
 21
5.435124707916578
 31
0.0
 70
    32
 71
     5
 42
2.550000000000018
  3
DIM STYLE 1
100
AcDbAlignedDimension
 13
37.92384948228199
 23
5.926428366837985
 33
0.0
 14
35.37384948228197
 24
5.926428366837985
 34
0.0
100
AcDbRotatedDimension
  0
CIRCLE
  5
5411
330
1E
100
AcDbEntity
  8
0
100
AcDbCircle
 10
37.62884948228197
 20
0.5931290242264318
 30
0.0
 40
0.2
  0
CIRCLE
  5
5412
330
1E
100
AcDbEntity
  8
0
100
AcDbCircle
 10
37.62884948228198
 20
3.703129024226427
 30
0.0
 40
0.2
  0
CIRCLE
  5
5413
330
1E
100
AcDbEntity
  8
0
100
AcDbCircle
 10
35.66884948228197
 20
3.703129024226424
 30
0.0
 40
0.2
  0
CIRCLE
  5
5414
330
1E
100
AcDbEntity
  8
0
100
AcDbCircle
 10
35.66884948228197
 20
0.5931290242264247
 30
0.0
 40
0.2
  0
ARC
  5
5415
330
1E
100
AcDbEntity
  8
0
100
AcDbCircle
 10
37.62884948228197
 20
0.5931290242264318
 30
0.0
 40
0.275
100
AcDbArc
 50
90.0
 51
180.0
  0
ARC
  5
5416
330
1E
100
AcDbEntity
  8
0
100
AcDbCircle
 10
37.62884948228198
 20
3.703129024226427
 30
0.0
 40
0.275
100
AcDbArc
 50
180.0
 51
270.0
  0
ARC
  5
5417
330
1E
100
AcDbEntity
  8
0
100
AcDbCircle
 10
35.66884948228197
 20
3.703129024226424
 30
0.0
 40
0.275
100
AcDbArc
 50
270.0
 51
0.0
  0
ARC
  5
5418
330
1E
100
AcDbEntity
  8
0
100
AcDbCircle
 10
35.66884948228197
 20
0.5931290242264247
 30
0.0
 40
0.275
100
AcDbArc
 50
0.0000000000022391
 51
90.0
  0
LINE
  5
5419
330
1E
100
AcDbEntity
  8
0
100
AcDbLine
 10
37.80884948228197
 20
0.9306290242264303
 30
0.0
 11
37.80884948228199
 21
3.365629024226425
 31
0.0
  0
LINE
  5
541A
330
1E
100
AcDbEntity
  8
0
100
AcDbLine
 10
36.00634948228197
 20
0.4131290242264285
 30
0.0
 11
37.29134948228197
 21
0.4131290242264285
 31
0.0
  0
LINE
  5
541B
330
1E
100
AcDbEntity
  8
0
100
AcDbLine
 10
35.48884948228197
 20
3.365629024226421
 30
0.0
 11
35.48884948228197
 21
0.9306290242264267
 31
0.0
  0
LINE
  5
541C
330
1E
100
AcDbEntity
  8
0
100
AcDbLine
 10
37.29134948228198
 20
3.88312902422643
 30
0.0
 11
36.00634948228197
 21
3.883129024226423
 31
0.0
  0
LINE
  5
541D
330
1E
100
AcDbEntity
  8
0
100
AcDbLine
 10
37.35384948228198
 20
3.82062902422643
 30
0.0
 11
37.35384948228198
 21
3.703129024226427
 31
0.0
  0
LINE
  5
541E
330
1E
100
AcDbEntity
  8
0
100
AcDbLine
 10
37.74634948228199
 20
3.428129024226425
 30
0.0
 11
37.62884948228198
 21
3.428129024226429
 31
0.0
  0
LINE
  5
541F
330
1E
100
AcDbEntity
  8
0
100
AcDbLine
 10
35.94384948228197
 20
3.820629024226423
 30
0.0
 11
35.94384948228197
 21
3.70312902422642
 31
0.0
  0
LINE
  5
5420
330
1E
100
AcDbEntity
  8
0
100
AcDbLine
 10
35.55134948228197
 20
3.428129024226421
 30
0.0
 11
35.66884948228197
 21
3.428129024226425
 31
0.0
  0
LINE
  5
5421
330
1E
100
AcDbEntity
  8
0
100
AcDbLine
 10
37.74634948228197
 20
0.8681290242264303
 30
0.0
 11
37.62884948228197
 21
0.8681290242264303
 31
0.0
  0
LINE
  5
5422
330
1E
100
AcDbEntity
  8
0
100
AcDbLine
 10
37.35384948228197
 20
0.4756290242264285
 30
0.0
 11
37.35384948228197
 21
0.5931290242264318
 31
0.0
  0
LINE
  5
5423
330
1E
100
AcDbEntity
  8
0
100
AcDbLine
 10
35.55134948228197
 20
0.8681290242264267
 30
0.0
 11
35.66884948228197
 21
0.8681290242264267
 31
0.0
  0
LINE
  5
5424
330
1E
100
AcDbEntity
  8
0
100
AcDbLine
 10
35.94384948228197
 20
0.475629024226425
 30
0.0
 11
35.94384948228196
 21
0.5931290242264283
 31
0.0
  0
ARC
  5
5425
330
1E
100
AcDbEntity
  8
0
100
AcDbCircle
 10
36.00634948228197
 20
3.820629024226423
 30
0.0
 40
0.0625
100
AcDbArc
 50
90.00000000000019
 51
180.0
  0
ARC
  5
5426
330
1E
100
AcDbEntity
  8
0
100
AcDbCircle
 10
37.29134948228198
 20
3.82062902422643
 30
0.0
 40
0.0625
100
AcDbArc
 50
0.0
 51
90.00000000000019
  0
ARC
  5
5427
330
1E
100
AcDbEntity
  8
0
100
AcDbCircle
 10
37.74634948228199
 20
3.365629024226425
 30
0.0
 40
0.0625
100
AcDbArc
 50
359.9999999999997
 51
90.0
  0
ARC
  5
5428
330
1E
100
AcDbEntity
  8
0
100
AcDbCircle
 10
37.74634948228197
 20
0.9306290242264303
 30
0.0
 40
0.0625
100
AcDbArc
 50
270.0
 51
359.9999999999994
  0
ARC
  5
5429
330
1E
100
AcDbEntity
  8
0
100
AcDbCircle
 10
37.29134948228197
 20
0.4756290242264285
 30
0.0
 40
0.0625
100
AcDbArc
 50
270.0000000000002
 51
0.0
  0
ARC
  5
542A
330
1E
100
AcDbEntity
  8
0
100
AcDbCircle
 10
36.00634948228197
 20
0.4756290242264285
 30
0.0
 40
0.0625
100
AcDbArc
 50
180.0000000000022
 51
270.0000000000002
  0
ARC
  5
542B
330
1E
100
AcDbEntity
  8
0
100
AcDbCircle
 10
35.55134948228197
 20
0.9306290242264267
 30
0.0
 40
0.0625
100
AcDbArc
 50
180.0
 51
269.9999999999996
  0
ARC
  5
542C
330
1E
100
AcDbEntity
  8
0
100
AcDbCircle
 10
35.55134948228197
 20
3.365629024226421
 30
0.0
 40
0.0625
100
AcDbArc
 50
90.00000000000062
 51
180.0
  0
LINE
  5
542D
330
1E
100
AcDbEntity
  8
0
100
AcDbLine
 10
35.92782583255357
 20
3.610629024226426
 30
0.0
 11
37.36987313201038
 21
3.610629024226437
 31
0.0
  0
LINE
  5
542E
330
1E
100
AcDbEntity
  8
0
100
AcDbLine
 10
35.92782583255357
 20
0.6856290242264294
 30
0.0
 11
37.36987313201037
 21
0.6856290242264294
 31
0.0
  0
LINE
  5
542F
330
1E
100
AcDbEntity
  8
0
100
AcDbLine
 10
37.53634948228198
 20
3.444152673954825
 30
0.0
 11
37.53634948228198
 21
0.8521053744980378
 31
0.0
  0
LINE
  5
5430
330
1E
100
AcDbEntity
  8
0
100
AcDbLine
 10
35.76134948228197
 20
0.8521053744980271
 30
0.0
 11
35.76134948228197
 21
3.444152673954825
 31
0.0
  0
LINE
  5
5431
330
1E
100
AcDbEntity
  8
0
100
AcDbLine
 10
41.71119053230622
 20
0.4126499304661096
 30
0.0
 11
41.71119053230622
 21
3.878129024226101
 31
0.0
  0
LINE
  5
5432
330
1E
100
AcDbEntity
  8
0
100
AcDbLine
 10
41.71119053230622
 20
3.878129024226101
 30
0.0
 11
41.64869053230622
 21
3.878129024226101
 31
0.0
  0
LINE
  5
5433
330
1E
100
AcDbEntity
  8
0
100
AcDbLine
 10
41.71119053230622
 20
0.4181290242261007
 30
0.0
 11
41.64869053230622
 21
0.4181290242261007
 31
0.0
  0
LINE
  5
5434
330
1E
100
AcDbEntity
  8
0
100
AcDbLine
 10
30.49517785355066
 20
3.703129024226424
 30
0.0
 11
30.49517785355066
 21
0.5931290242264247
 31
0.0
  0
LINE
  5
5435
330
1E
100
AcDbEntity
  8
0
100
AcDbLine
 10
30.79017785355066
 20
0.2981290242264265
 30
0.0
 11
32.75017785355066
 21
0.29812902422643
 31
0.0
  0
LINE
  5
5436
330
1E
100
AcDbEntity
  8
0
100
AcDbLine
 10
33.04517785355066
 20
0.5931290242264318
 30
0.0
 11
33.04517785355067
 21
3.703129024226424
 31
0.0
  0
LINE
  5
5437
330
1E
100
AcDbEntity
  8
0
100
AcDbLine
 10
32.75017785355067
 20
3.998129024226425
 30
0.0
 11
30.79017785355066
 21
3.998129024226422
 31
0.0
  0
ARC
  5
5438
330
1E
100
AcDbEntity
  8
0
100
AcDbCircle
 10
32.75017785355067
 20
3.703129024226427
 30
0.0
 40
0.295
100
AcDbArc
 50
359.9999999999997
 51
90.0
  0
ARC
  5
5439
330
1E
100
AcDbEntity
  8
0
100
AcDbCircle
 10
30.79017785355066
 20
3.703129024226424
 30
0.0
 40
0.295
100
AcDbArc
 50
90.0
 51
180.0
  0
ARC
  5
543A
330
1E
100
AcDbEntity
  8
0
100
AcDbCircle
 10
30.79017785355066
 20
0.5931290242264247
 30
0.0
 40
0.295
100
AcDbArc
 50
180.0
 51
270.0
  0
ARC
  5
543B
330
1E
100
AcDbEntity
  8
0
100
AcDbCircle
 10
32.75017785355066
 20
0.5931290242264318
 30
0.0
 40
0.295
100
AcDbArc
 50
270.0
 51
359.9999999999996
  0
CIRCLE
  5
543C
330
1E
100
AcDbEntity
  8
0
100
AcDbCircle
 10
30.79017785355066
 20
3.703129024226424
 30
0.0
 40
0.215
  0
CIRCLE
  5
543D
330
1E
100
AcDbEntity
  8
0
100
AcDbCircle
 10
32.75017785355067
 20
3.703129024226427
 30
0.0
 40
0.215
  0
CIRCLE
  5
543E
330
1E
100
AcDbEntity
  8
0
100
AcDbCircle
 10
32.75017785355066
 20
0.5931290242264318
 30
0.0
 40
0.215
  0
CIRCLE
  5
543F
330
1E
100
AcDbEntity
  8
0
100
AcDbCircle
 10
30.79017785355066
 20
0.5931290242264247
 30
0.0
 40
0.215
  0
DIMENSION
  5
5440
330
1E
100
AcDbEntity
  8
0
100
AcDbDimension
  2
*D39
 10
39.01313374911071
 20
2.749379024226104
 30
0.0
 11
39.01313374911071
 21
2.148129024226111
 31
0.0
 70
    32
 71
     5
 42
1.2025
  3
DIM STYLE 1
100
AcDbAlignedDimension
 13
40.88619053230622
 23
1.546879024226104
 33
0.0
 14
40.88619053230622
 24
2.749379024226104
 34
0.0
 50
90.0
100
AcDbRotatedDimension
  0
MTEXT
  5
5441
330
1E
100
AcDbEntity
  8
0
100
AcDbMText
 10
31.36600323982811
 20
4.796047352592069
 30
0.0
 40
0.2
 41
3.3744
 71
     1
 72
     5
  1
{\fTimes New Roman|b1|i0|c0|p18;Cover:}
 73
     1
 44
1.0
  0
MTEXT
  5
5442
330
1E
100
AcDbEntity
  8
0
100
AcDbMText
 10
34.94367328040634
 20
4.814512820803361
 30
0.0
 40
0.2
 41
3.3744
 71
     1
 72
     5
  1
{\fTimes New Roman|b1|i0|c0|p18;Front View, No Cover:}
 73
     1
 44
1.0
  0
MTEXT
  5
5443
330
1E
100
AcDbEntity
  8
0
100
AcDbMText
 10
32.93041247370659
 20
8.874208998667462
 30
0.0
 40
0.2
 41
3.3744
 71
     1
 72
     5
  1
{\fTimes New Roman|b1|i0|c0|p18;End View:}
 73
     1
 44
1.0
  0
MTEXT
  5
5444
330
1E
100
AcDbEntity
  8
0
100
AcDbMText
 10
39.6848270672879
 20
4.849432870398473
 30
0.0
 40
0.2
 41
3.3744
 71
     1
 72
     5
  1
{\fTimes New Roman|b1|i0|c0|p18;Side View:}
 73
     1
 44
1.0
  0
LINE
  5
5445
330
1E
100
AcDbEntity
  8
0
100
AcDbLine
 10
36.15884948228196
 20
3.883129024226427
 30
0.0
 11
37.13884948228197
 21
3.883129024226427
 31
0.0
  0
CIRCLE
  5
5447
330
1E
100
AcDbEntity
  8
0
100
AcDbCircle
 10
36.64884948228197
 20
7.296428366837997
 30
0.0
 40
0.4600000000000001
  0
CIRCLE
  5
5448
330
1E
100
AcDbEntity
  8
0
100
AcDbCircle
 10
36.64884948228197
 20
7.296428366837997
 30
0.0
 40
0.4185000000000001
  0
CIRCLE
  5
5449
330
1E
100
AcDbEntity
  8
0
100
AcDbCircle
 10
36.64884948228197
 20
7.296428366837997
 30
0.0
 40
0.375
  0
CIRCLE
  5
544A
330
1E
100
AcDbEntity
  8
0
100
AcDbCircle
 10
36.64884948228197
 20
7.296428366837997
 30
0.0
 40
0.335
  0
LINE
  5
5465
330
1E
100
AcDbEntity
  8
HIDDEN
100
AcDbLine
 10
41.41869053230622
 20
2.638129024226103
 30
0.0
 11
41.41869053230622
 21
1.658129024226099
 31
0.0
  0
LINE
  5
54B5
330
1E
100
AcDbEntity
  8
0
100
AcDbLine
 10
37.92384948228198
 20
8.037428366838
 30
0.0
 11
37.92384948228198
 21
5.904928366837992
 31
0.0
  0
LWPOLYLINE
  5
54B6
330
1E
100
AcDbEntity
  8
0
100
AcDbPolyline
 90
        4
 70
     1
 43
0.0
 10
35.49084948228197
 20
8.058928366837992
 10
37.80684948228197
 20
8.058928366837992
 10
37.80684948228197
 20
8.133928366837992
 10
35.49084948228197
 20
8.133928366837992
  0
LINE
  5
54D0
330
1E
100
AcDbEntity
  8
0
100
AcDbLine
 10
36.16014689771297
 20
7.829428366837987
 30
0.0
 11
37.14014689771298
 21
7.829428366837987
 31
0.0
  0
LINE
  5
551C
330
1E
100
AcDbEntity
  8
0
100
AcDbLine
 10
39.51619053230622
 20
0.2981290242261032
 30
0.0
 11
39.49469053230621
 21
0.2981290242261032
 31
0.0
  0
LINE
  5
551D
330
1E
100
AcDbEntity
  8
0
100
AcDbLine
 10
40.09469053230621
 20
3.998129024226102
 30
0.0
 11
40.09469053230621
 21
0.2981290242261032
 31
0.0
  0
CIRCLE
  5
551F
330
1E
100
AcDbEntity
  8
0
100
AcDbCircle
 10
35.66884948228197
 20
3.703129024226424
 30
0.0
 40
0.0975
  0
CIRCLE
  5
5520
330
1E
100
AcDbEntity
  8
0
100
AcDbCircle
 10
37.62884948228198
 20
3.703129024226427
 30
0.0
 40
0.0975
  0
CIRCLE
  5
5521
330
1E
100
AcDbEntity
  8
0
100
AcDbCircle
 10
35.66884948228197
 20
0.5931290242264247
 30
0.0
 40
0.0975
  0
CIRCLE
  5
5522
330
1E
100
AcDbEntity
  8
0
100
AcDbCircle
 10
37.62884948228197
 20
0.5931290242264318
 30
0.0
 40
0.0975
  0
CIRCLE
  5
5523
330
1E
100
AcDbEntity
  8
0
100
AcDbCircle
 10
30.79017785355066
 20
3.703129024226424
 30
0.0
 40
0.203
  0
CIRCLE
  5
5524
330
1E
100
AcDbEntity
  8
0
100
AcDbCircle
 10
30.79017785355066
 20
3.703129024226424
 30
0.0
 40
0.1375
  0
LWPOLYLINE
  5
5525
330
1E
100
AcDbEntity
  8
0
100
AcDbPolyline
 90
        2
 70
     0
 43
0.0
 10
30.69286308110975
 20
3.800268537632533
 10
30.81899320322234
 20
3.568682285242921
  0
LWPOLYLINE
  5
5526
330
1E
100
AcDbEntity
  8
0
100
AcDbPolyline
 90
        2
 70
     0
 43
0.0
 10
30.88749262599157
 20
3.605989510820318
 10
30.76136250387898
 20
3.83757576320993
  0
CIRCLE
  5
5527
330
1E
100
AcDbEntity
  8
0
100
AcDbCircle
 10
32.75017785355066
 20
3.703129024226427
 30
0.0
 40
0.203
  0
CIRCLE
  5
5528
330
1E
100
AcDbEntity
  8
0
100
AcDbCircle
 10
32.75017785355066
 20
3.703129024226427
 30
0.0
 40
0.1375
  0
LWPOLYLINE
  5
5529
330
1E
100
AcDbEntity
  8
0
100
AcDbPolyline
 90
        2
 70
     0
 43
0.0
 10
32.61825462947066
 20
3.741891286135857
 10
32.83978900276615
 20
3.59884052085102
  0
LWPOLYLINE
  5
552A
330
1E
100
AcDbEntity
  8
0
100
AcDbPolyline
 90
        2
 70
     0
 43
0.0
 10
32.88210107763069
 20
3.664366762316994
 10
32.6605667043352
 20
3.807417527601835
  0
CIRCLE
  5
552B
330
1E
100
AcDbEntity
  8
0
100
AcDbCircle
 10
30.79017785355066
 20
0.5931290242264247
 30
0.0
 40
0.203
  0
CIRCLE
  5
552C
330
1E
100
AcDbEntity
  8
0
100
AcDbCircle
 10
30.79017785355066
 20
0.5931290242264247
 30
0.0
 40
0.1375
  0
LWPOLYLINE
  5
552D
330
1E
100
AcDbEntity
  8
0
100
AcDbPolyline
 90
        2
 70
     0
 43
0.0
 10
30.68800576026214
 20
0.5011121053851433
 10
30.92596552967937
 20
0.61476133828576
  0
LWPOLYLINE
  5
552E
330
1E
100
AcDbEntity
  8
0
100
AcDbPolyline
 90
        2
 70
     0
 43
0.0
 10
30.89234994683916
 20
0.6851459430677203
 10
30.65439017742193
 20
0.5714967101671001
  0
CIRCLE
  5
552F
330
1E
100
AcDbEntity
  8
0
100
AcDbCircle
 10
32.75017785355066
 20
0.5931290242264318
 30
0.0
 40
0.203
  0
CIRCLE
  5
5530
330
1E
100
AcDbEntity
  8
0
100
AcDbCircle
 10
32.75017785355066
 20
0.5931290242264318
 30
0.0
 40
0.1375
  0
LWPOLYLINE
  5
5531
330
1E
100
AcDbEntity
  8
0
100
AcDbPolyline
 90
        2
 70
     0
 43
0.0
 10
32.66526563835763
 20
0.4849802114219735
 10
32.88025811358755
 20
0.6376865819325453
  0
LWPOLYLINE
  5
5532
330
1E
100
AcDbEntity
  8
0
100
AcDbPolyline
 90
        2
 70
     0
 43
0.0
 10
32.83509006874369
 20
0.7012778370308866
 10
32.62009759351376
 20
0.5485714665203148
  0
LINE
  5
5533
330
1E
100
AcDbEntity
  8
0
100
AcDbLine
 10
41.64869053230622
 20
3.998129024226098
 30
0.0
 11
41.41869053230622
 21
3.998129024226098
 31
0.0
  0
LINE
  5
5534
330
1E
100
AcDbEntity
  8
0
100
AcDbLine
 10
41.64869053230622
 20
0.2981290242261032
 30
0.0
 11
41.64869053230622
 21
0.7481290242261025
 31
0.0
  0
LINE
  5
5535
330
1E
100
AcDbEntity
  8
0
100
AcDbLine
 10
41.64869053230622
 20
3.998129024226098
 30
0.0
 11
41.64869053230622
 21
3.548129024226099
 31
0.0
  0
LINE
  5
5546
330
1E
100
AcDbEntity
  8
0
100
AcDbLine
 10
41.71119053230622
 20
2.523129024226101
 30
0.0
 11
41.71119053230622
 21
1.773129024226101
 31
0.0
  0
DIMENSION
  5
5547
330
1E
100
AcDbEntity
  8
0
100
AcDbDimension
  2
*D33
 10
36.64884948228197
 20
5.690071918051387
 30
0.0
 11
37.28634948228197
 21
5.690071918051387
 31
0.0
 70
    32
 71
     5
 42
1.275000000000012
  3
DIM STYLE 1
100
AcDbAlignedDimension
 13
37.92384948228198
 23
5.904928366837992
 33
0.0
 14
36.64884948228197
 24
7.296428366837997
 34
0.0
100
AcDbRotatedDimension
  0
DIMENSION
  5
5548
330
1E
100
AcDbEntity
  8
0
100
AcDbDimension
  2
*D34
 10
34.78371461354945
 20
7.296428366837997
 30
0.0
 11
34.09439594015363
 21
7.146428366838002
 31
0.0
 70
    32
 71
     5
 42
0.7624999999999949
  3
DIM STYLE 1
100
AcDbAlignedDimension
 13
35.37384948228197
 23
8.058928366837992
 33
0.0
 14
36.64884948228197
 24
7.296428366837997
 34
0.0
 50
90.0
100
AcDbRotatedDimension
  0
LINE
  5
5549
330
1E
100
AcDbEntity
  8
0
100
AcDbLine
 10
41.52669053230623
 20
3.878129024226101
 30
0.0
 11
40.11619053230623
 21
3.878129024226105
 31
0.0
  0
LINE
  5
554A
330
1E
100
AcDbEntity
  8
0
100
AcDbLine
 10
41.41869053230623
 20
3.548129024226099
 30
0.0
 11
41.41869053230622
 21
0.7481290242261025
 31
0.0
  0
LINE
  5
554B
330
1E
100
AcDbEntity
  8
0
100
AcDbLine
 10
41.64869053230622
 20
0.7481290242261025
 30
0.0
 11
41.41869053230622
 21
0.7481290242261025
 31
0.0
  0
LINE
  5
554C
330
1E
100
AcDbEntity
  8
0
100
AcDbLine
 10
41.64869053230622
 20
3.548129024226099
 30
0.0
 11
41.41869053230623
 21
3.548129024226099
 31
0.0
  0
LINE
  5
554D
330
1E
100
AcDbEntity
  8
0
100
AcDbLine
 10
41.52669053230622
 20
0.4201290242261031
 30
0.0
 11
40.11619053230623
 21
0.4201290242261031
 31
0.0
  0
LINE
  5
554E
330
1E
100
AcDbEntity
  8
0
100
AcDbLine
 10
41.52669053230622
 20
0.4201290242261031
 30
0.0
 11
41.52669053230622
 21
0.7481290242261025
 31
0.0
  0
LINE
  5
554F
330
1E
100
AcDbEntity
  8
0
100
AcDbLine
 10
41.52669053230623
 20
3.548129024226099
 30
0.0
 11
41.52669053230622
 21
3.878129024226101
 31
0.0
  0
LINE
  5
5550
330
1E
100
AcDbEntity
  8
HIDDEN
100
AcDbLine
 10
35.76134948228197
 20
7.828928384017007
 30
0.0
 11
35.76134948228197
 21
8.058928384017008
 31
0.0
  0
LINE
  5
5551
330
1E
100
AcDbEntity
  8
HIDDEN
100
AcDbLine
 10
37.53634948228198
 20
7.828928384017007
 30
0.0
 11
37.53634948228198
 21
8.058928384017008
 31
0.0
  0
LINE
  5
5552
330
1E
100
AcDbEntity
  8
HIDDEN
100
AcDbLine
 10
35.37384948228197
 20
7.93892838401701
 30
0.0
 11
35.76134948228197
 21
7.93892838401701
 31
0.0
  0
LINE
  5
5553
330
1E
100
AcDbEntity
  8
HIDDEN
100
AcDbLine
 10
37.53634948228198
 20
7.828928384017007
 30
0.0
 11
35.76134948228197
 21
7.828928384017007
 31
0.0
  0
LINE
  5
5554
330
1E
100
AcDbEntity
  8
HIDDEN
100
AcDbLine
 10
37.53634948228198
 20
7.93892838401701
 30
0.0
 11
37.92384948228198
 21
7.93892838401701
 31
0.0
  0
ARC
  5
56E4
330
1E
100
AcDbEntity
  8
0
100
AcDbCircle
 10
36.64818712731602
 20
10.29177341409472
 30
0.0
 40
2.317846428051022
100
AcDbArc
 50
112.2057655462589
 51
241.9258666970327
  0
ARC
  5
56E5
330
1E
100
AcDbEntity
  8
0
100
AcDbCircle
 10
36.64884948228197
 20
10.29104972654495
 30
0.0
 40
2.36929790454979
100
AcDbArc
 50
115.860748394912
 51
242.5694344967813
  0
ARC
  5
56E6
330
1E
100
AcDbEntity
  8
0
100
AcDbCircle
 10
36.64818712731602
 20
10.29177341409472
 30
0.0
 40
2.317846428051022
100
AcDbArc
 50
314.4330638380027
 51
101.1454318690299
  0
ARC
  5
56E7
330
1E
100
AcDbEntity
  8
0
100
AcDbCircle
 10
36.64719095707333
 20
10.29017374429038
 30
0.0
 40
2.369843145584272
100
AcDbArc
 50
314.7629049859173
 51
96.0566464621479
  0
LINE
  5
56E8
330
1E
100
AcDbEntity
  8
0
100
AcDbLine
 10
35.30568858403404
 20
12.784543296274
 30
0.0
 11
35.42853893342939
 21
12.40564088256428
 31
0.0
  0
LINE
  5
56E9
330
1E
100
AcDbEntity
  8
0
100
AcDbLine
 10
36.33863518240419
 20
13.30029205282723
 30
0.0
 11
35.30568858403404
 21
12.784543296274
 31
0.0
  0
LINE
  5
56EA
330
1E
100
AcDbEntity
  8
0
100
AcDbLine
 10
35.40180798001557
 20
12.9598007426227
 30
0.0
 11
35.3566703086238
 21
12.98586098935134
 31
0.0
  0
LINE
  5
56EB
330
1E
100
AcDbEntity
  8
0
100
AcDbLine
 10
35.37863042607834
 20
13.44811855826605
 30
0.0
 11
35.3110809115894
 21
13.48711828863985
 31
0.0
  0
LINE
  5
56EC
330
1E
100
AcDbEntity
  8
0
100
AcDbLine
 10
35.26360104589885
 20
13.03959455323886
 30
0.0
 11
35.38468460398252
 21
13.46961982168851
 31
0.0
  0
LINE
  5
56ED
330
1E
100
AcDbEntity
  8
0
100
AcDbLine
 10
35.30873871729062
 20
13.01353430651024
 30
0.0
 11
35.4298222753743
 21
13.44355957495987
 31
0.0
  0
LINE
  5
56EE
330
1E
100
AcDbEntity
  8
0
100
AcDbLine
 10
35.3566703086238
 20
12.98586098935134
 30
0.0
 11
35.47775386670746
 21
13.41588625780101
 31
0.0
  0
ARC
  5
56EF
330
1E
100
AcDbEntity
  8
0
100
AcDbCircle
 10
34.19322624441134
 20
2.576976012016974
 30
0.0
 40
10.33967971748593
100
AcDbArc
 50
83.16791199906115
 51
90.71964953977392
  0
ARC
  5
56F0
330
1E
100
AcDbEntity
  8
0
100
AcDbCircle
 10
34.19322624441134
 20
2.576976012016974
 30
0.0
 40
10.39019108582792
100
AcDbArc
 50
82.74726206571237
 51
90.70222376876293
  0
LINE
  5
56F1
330
1E
100
AcDbEntity
  8
0
100
AcDbLine
 10
35.92196670666948
 20
12.45168800114141
 30
0.0
 11
36.65146631237515
 21
12.75120891396507
 31
0.0
  0
LINE
  5
56F2
330
1E
100
AcDbEntity
  8
0
100
AcDbLine
 10
35.42853893342939
 20
12.40564088256428
 30
0.0
 11
35.92196670666948
 21
12.45168800114141
 31
0.0
  0
CIRCLE
  5
56F3
330
1E
100
AcDbEntity
  8
0
100
AcDbCircle
 10
36.25182546291971
 20
12.8671553793373
 30
0.0
 40
0.1443181952628174
  0
LINE
  5
56F4
330
1E
100
AcDbEntity
  8
0
100
AcDbLine
 10
36.33863518240419
 20
13.30029205282723
 30
0.0
 11
36.65146631237515
 21
12.75120891396507
 31
0.0
  0
LINE
  5
56F5
330
1E
100
AcDbEntity
  8
0
100
AcDbLine
 10
35.58465990189573
 20
13.35416402960706
 30
0.0
 11
35.46357634381206
 21
12.92413876115739
 31
0.0
  0
LINE
  5
56F6
330
1E
100
AcDbEntity
  8
0
100
AcDbLine
 10
35.4298222753743
 20
13.44355957495987
 30
0.0
 11
35.38468460398252
 21
13.46961982168851
 31
0.0
  0
LINE
  5
56F7
330
1E
100
AcDbEntity
  8
0
100
AcDbLine
 10
35.52289153809924
 20
13.38982601107236
 30
0.0
 11
35.47775386670746
 21
13.41588625780101
 31
0.0
  0
LINE
  5
56F8
330
1E
100
AcDbEntity
  8
0
100
AcDbLine
 10
35.6297975732875
 20
13.32810378287842
 30
0.0
 11
35.58465990189573
 21
13.35416402960705
 31
0.0
  0
LINE
  5
56F9
330
1E
100
AcDbEntity
  8
0
100
AcDbLine
 10
35.50871401520384
 20
12.89807851442877
 30
0.0
 11
35.46357634381206
 21
12.92413876115739
 31
0.0
  0
LINE
  5
56FA
330
1E
100
AcDbEntity
  8
0
100
AcDbLine
 10
35.68868967068498
 20
13.26910576992768
 30
0.0
 11
35.62374339538332
 21
13.30660251945594
 31
0.0
  0
LINE
  5
56FB
330
1E
100
AcDbEntity
  8
0
100
AcDbLine
 10
35.47169968880328
 20
13.3943849943785
 30
0.0
 11
35.42376809747011
 21
13.42205831153739
 31
0.0
  0
LINE
  5
56FC
330
1E
100
AcDbEntity
  8
0
100
AcDbLine
 10
35.46963052171624
 20
12.94564002457989
 30
0.0
 11
35.40786215791976
 21
12.98130200604519
 31
0.0
  0
LINE
  5
56FD
330
1E
100
AcDbEntity
  8
0
100
AcDbLine
 10
35.54322996383753
 20
12.90314736685897
 30
0.0
 11
35.51476819310802
 21
12.91957977785125
 31
0.0
  0
LINE
  5
56FE
330
1E
100
AcDbEntity
  8
0
100
AcDbLine
 10
35.73988151998095
 20
13.2645467866215
 30
0.0
 11
35.69474384858917
 21
13.29060703335014
 31
0.0
  0
LINE
  5
56FF
330
1E
100
AcDbEntity
  8
0
100
AcDbLine
 10
35.40180798001557
 20
12.9598007426227
 30
0.0
 11
35.52289153809924
 21
13.38982601107236
 31
0.0
  0
LINE
  5
5700
330
1E
100
AcDbEntity
  8
0
100
AcDbLine
 10
35.46357634381205
 20
12.92413876115739
 30
0.0
 11
35.58465990189573
 21
13.35416402960706
 31
0.0
  0
LINE
  5
5701
330
1E
100
AcDbEntity
  8
0
100
AcDbLine
 10
35.50871401520384
 20
12.89807851442877
 30
0.0
 11
35.6297975732875
 21
13.32810378287842
 31
0.0
  0
LINE
  5
5702
330
1E
100
AcDbEntity
  8
0
100
AcDbLine
 10
35.73382734207675
 20
13.24304552319902
 30
0.0
 11
35.96113744561682
 21
13.11180797373066
 31
0.0
  0
LINE
  5
5703
330
1E
100
AcDbEntity
  8
0
100
AcDbLine
 10
35.59258429953269
 20
12.92778991595632
 30
0.0
 11
35.69474384858917
 21
13.29060703335014
 31
0.0
  0
LINE
  5
5704
330
1E
100
AcDbEntity
  8
0
100
AcDbLine
 10
35.65364418817563
 20
12.95827703086873
 30
0.0
 11
35.73988151998095
 21
13.2645467866215
 31
0.0
  0
LINE
  5
5705
330
1E
100
AcDbEntity
  8
0
100
AcDbLine
 10
35.0109294375165
 20
13.20505550944689
 30
0.0
 11
34.90275687757552
 21
13.27060662586725
 31
0.0
  0
LINE
  5
5706
330
1E
100
AcDbEntity
  8
0
100
AcDbLine
 10
35.21470647592103
 20
13.55800769337943
 30
0.0
 11
35.10777468829968
 21
13.62716424870839
 31
0.0
  0
LINE
  5
5707
330
1E
100
AcDbEntity
  8
0
100
AcDbLine
 10
35.10542748333988
 20
13.13091610216097
 30
0.0
 11
35.00371190421022
 21
13.19255437505505
 31
0.0
  0
LINE
  5
5708
330
1E
100
AcDbEntity
  8
0
100
AcDbLine
 10
35.3219047762341
 20
13.50586577213874
 30
0.0
 11
35.22193158860221
 21
13.57052195563362
 31
0.0
  0
LINE
  5
5709
330
1E
100
AcDbEntity
  8
0
100
AcDbLine
 10
35.00371190421022
 20
13.19255437505507
 30
0.0
 11
35.22193158860219
 21
13.57052195563362
 31
0.0
  0
LINE
  5
570A
330
1E
100
AcDbEntity
  8
0
100
AcDbLine
 10
34.90275687757552
 20
13.27060662586725
 30
0.0
 11
35.10838691578936
 21
13.62676829961594
 31
0.0
  0
LINE
  5
570B
330
1E
100
AcDbEntity
  8
0
100
AcDbLine
 10
35.30873871729062
 20
13.01353430651024
 30
0.0
 11
35.26360104589885
 21
13.03959455323886
 31
0.0
  0
LINE
  5
570C
330
1E
100
AcDbEntity
  8
0
100
AcDbLine
 10
35.26965522380304
 20
13.06109581666136
 30
0.0
 11
35.1162513479846
 21
13.14966358565986
 31
0.0
  0
LINE
  5
570D
330
1E
100
AcDbEntity
  8
0
100
AcDbLine
 10
35.36272448652799
 20
13.00736225277383
 30
0.0
 11
35.31479289519481
 21
13.03503556993272
 31
0.0
  0
LINE
  5
570E
330
1E
100
AcDbEntity
  8
0
100
AcDbLine
 10
35.10542748333988
 20
13.13091610216097
 30
0.0
 11
35.3219047762341
 21
13.50586577213874
 31
0.0
  0
LINE
  5
570F
330
1E
100
AcDbEntity
  8
0
100
AcDbLine
 10
35.57860572399154
 20
13.33266276618457
 30
0.0
 11
35.51683736019507
 21
13.36832474764988
 31
0.0
  0
LINE
  5
5729
330
1E
100
AcDbEntity
  8
0
100
AcDbLine
 10
35.66884948228197
 20
7.787428366838003
 30
0.0
 11
35.66884948228197
 21
8.133928366837992
 31
0.0
  0
LINE
  5
572A
330
1E
100
AcDbEntity
  8
0
100
AcDbLine
 10
37.62884948228199
 20
7.787428366837996
 30
0.0
 11
37.62884948228199
 21
8.133928366837992
 31
0.0
  0
ARC
  5
572D
330
1E
100
AcDbEntity
  8
0
100
AcDbCircle
 10
36.64818712731602
 20
10.29177341409472
 30
0.0
 40
2.317846428051022
100
AcDbArc
 50
298.1112524643729
 51
314.4330638380028
  0
ARC
  5
572E
330
1E
100
AcDbEntity
  8
0
100
AcDbCircle
 10
36.64884948228197
 20
10.29104972654495
 30
0.0
 40
2.36929790454979
100
AcDbArc
 50
297.4305655032186
 51
314.7195107155715
  0
LINE
  5
572F
330
1E
100
AcDbEntity
  8
0
100
AcDbLine
 10
35.48837038852197
 20
8.147198888437991
 30
0.0
 11
35.48837038852197
 21
8.133928366837992
 31
0.0
  0
LINE
  5
5730
330
1E
100
AcDbEntity
  8
0
100
AcDbLine
 10
35.55737710084196
 20
8.263979478517981
 30
0.0
 11
35.78032186372196
 21
8.263979478517981
 31
0.0
  0
LINE
  5
5731
330
1E
100
AcDbEntity
  8
0
100
AcDbLine
 10
35.78032186372196
 20
8.263979478517981
 30
0.0
 11
35.55737710084196
 21
8.263979478517981
 31
0.0
  0
LINE
  5
5732
330
1E
100
AcDbEntity
  8
0
100
AcDbLine
 10
35.62249687428197
 20
8.285747793081409
 30
0.0
 11
35.71520209028198
 21
8.277637137631682
 31
0.0
  0
LINE
  5
5733
330
1E
100
AcDbEntity
  8
0
100
AcDbLine
 10
35.62249687428197
 20
8.301733248485362
 30
0.0
 11
35.71520209028197
 21
8.293622593035635
 31
0.0
  0
LINE
  5
5734
330
1E
100
AcDbEntity
  8
0
100
AcDbLine
 10
35.62249687428197
 20
8.317718703889308
 30
0.0
 11
35.71520209028197
 21
8.309608048439585
 31
0.0
  0
LINE
  5
5735
330
1E
100
AcDbEntity
  8
0
100
AcDbLine
 10
35.62249687428197
 20
8.333704159293269
 30
0.0
 11
35.71520209028197
 21
8.325593503843538
 31
0.0
  0
LINE
  5
5736
330
1E
100
AcDbEntity
  8
0
100
AcDbLine
 10
35.62249687428197
 20
8.349689614697211
 30
0.0
 11
35.71520209028195
 21
8.341578959247495
 31
0.0
  0
LINE
  5
5737
330
1E
100
AcDbEntity
  8
0
100
AcDbLine
 10
35.7542344255861
 20
8.263979478517981
 30
0.0
 11
35.7542344255861
 21
8.147198888437984
 31
0.0
  0
LINE
  5
5738
330
1E
100
AcDbEntity
  8
0
100
AcDbLine
 10
35.62352865189858
 20
8.263979478517981
 30
0.0
 11
35.62352865189858
 21
8.147198888437984
 31
0.0
  0
LINE
  5
5739
330
1E
100
AcDbEntity
  8
0
100
AcDbLine
 10
35.60960377166093
 20
8.361650517493984
 30
0.0
 11
35.72829237593883
 21
8.361650517493981
 31
0.0
  0
LINE
  5
573C
330
1E
100
AcDbEntity
  8
0
100
AcDbLine
 10
35.78032186372196
 20
8.147198888437984
 30
0.0
 11
35.78032186372196
 21
8.263979478517981
 31
0.0
  0
LINE
  5
573D
330
1E
100
AcDbEntity
  8
0
100
AcDbLine
 10
35.55737710084196
 20
8.147198888437984
 30
0.0
 11
35.55737710084196
 21
8.263979478517981
 31
0.0
  0
LINE
  5
573E
330
1E
100
AcDbEntity
  8
0
100
AcDbLine
 10
35.48837038852197
 20
8.147198888437991
 30
0.0
 11
35.84932857604197
 21
8.147198888437991
 31
0.0
  0
LINE
  5
573F
330
1E
100
AcDbEntity
  8
0
100
AcDbLine
 10
35.84932857604197
 20
8.133928366837992
 30
0.0
 11
35.84932857604197
 21
8.147198888437991
 31
0.0
  0
LINE
  5
5740
330
1E
100
AcDbEntity
  8
0
100
AcDbLine
 10
35.66849772107746
 20
8.361650517493984
 30
0.0
 11
35.71520209028191
 21
8.35756441465147
 31
0.0
  0
LINE
  5
5741
330
1E
100
AcDbEntity
  8
0
100
AcDbLine
 10
35.62249687428197
 20
8.269762337677459
 30
0.0
 11
35.68859525693434
 21
8.263979478517978
 31
0.0
  0
LINE
  5
5747
330
1E
100
AcDbEntity
  8
0
100
AcDbLine
 10
35.71520209028197
 20
8.309608048439585
 30
0.0
 11
35.73520209028197
 21
8.315851002871042
 31
0.0
  0
LINE
  5
5748
330
1E
100
AcDbEntity
  8
0
100
AcDbLine
 10
35.73520209028197
 20
8.315851002871042
 30
0.0
 11
35.71520209028197
 21
8.325593503843538
 31
0.0
  0
LINE
  5
5749
330
1E
100
AcDbEntity
  8
0
100
AcDbLine
 10
35.71520209028197
 20
8.293622593035635
 30
0.0
 11
35.73520209028197
 21
8.299865547467092
 31
0.0
  0
LINE
  5
574A
330
1E
100
AcDbEntity
  8
0
100
AcDbLine
 10
35.73520209028197
 20
8.299865547467092
 30
0.0
 11
35.71520209028197
 21
8.309608048439589
 31
0.0
  0
LINE
  5
574B
330
1E
100
AcDbEntity
  8
0
100
AcDbLine
 10
35.71520209028197
 20
8.277637137631685
 30
0.0
 11
35.73520209028197
 21
8.283880092063142
 31
0.0
  0
LINE
  5
574C
330
1E
100
AcDbEntity
  8
0
100
AcDbLine
 10
35.73520209028197
 20
8.283880092063142
 30
0.0
 11
35.71520209028197
 21
8.293622593035639
 31
0.0
  0
LINE
  5
574D
330
1E
100
AcDbEntity
  8
0
100
AcDbLine
 10
35.72265944501939
 20
8.263979478517978
 30
0.0
 11
35.73520209028197
 21
8.267894636659192
 31
0.0
  0
LINE
  5
574E
330
1E
100
AcDbEntity
  8
0
100
AcDbLine
 10
35.73520209028197
 20
8.267894636659192
 30
0.0
 11
35.71520209028197
 21
8.277637137631689
 31
0.0
  0
LINE
  5
574F
330
1E
100
AcDbEntity
  8
0
100
AcDbLine
 10
35.71520209028197
 20
8.325593503843535
 30
0.0
 11
35.73520209028197
 21
8.331836458274992
 31
0.0
  0
LINE
  5
5750
330
1E
100
AcDbEntity
  8
0
100
AcDbLine
 10
35.73520209028197
 20
8.331836458274992
 30
0.0
 11
35.71520209028197
 21
8.341578959247488
 31
0.0
  0
LINE
  5
5751
330
1E
100
AcDbEntity
  8
0
100
AcDbLine
 10
35.71520209028195
 20
8.341578959247495
 30
0.0
 11
35.73520209028195
 21
8.347821913678952
 31
0.0
  0
LINE
  5
5752
330
1E
100
AcDbEntity
  8
0
100
AcDbLine
 10
35.73520209028195
 20
8.347821913678952
 30
0.0
 11
35.71520209028195
 21
8.357564414651449
 31
0.0
  0
LINE
  5
5753
330
1E
100
AcDbEntity
  8
0
100
AcDbLine
 10
35.71520209028195
 20
8.357564414651456
 30
0.0
 11
35.72829237593882
 21
8.361650517493981
 31
0.0
  0
LINE
  5
5757
330
1E
100
AcDbEntity
  8
0
100
AcDbLine
 10
35.62249687428197
 20
8.301733248485362
 30
0.0
 11
35.60249687428196
 21
8.311475749457855
 31
0.0
  0
LINE
  5
5758
330
1E
100
AcDbEntity
  8
0
100
AcDbLine
 10
35.60249687428196
 20
8.311475749457855
 30
0.0
 11
35.62249687428197
 21
8.317718703889312
 31
0.0
  0
LINE
  5
5759
330
1E
100
AcDbEntity
  8
0
100
AcDbLine
 10
35.62249687428197
 20
8.317718703889312
 30
0.0
 11
35.60249687428196
 21
8.327461204861805
 31
0.0
  0
LINE
  5
575A
330
1E
100
AcDbEntity
  8
0
100
AcDbLine
 10
35.60249687428196
 20
8.327461204861805
 30
0.0
 11
35.62249687428197
 21
8.333704159293262
 31
0.0
  0
LINE
  5
575B
330
1E
100
AcDbEntity
  8
0
100
AcDbLine
 10
35.62249687428198
 20
8.333704159293265
 30
0.0
 11
35.60249687428198
 21
8.343446660265758
 31
0.0
  0
LINE
  5
575C
330
1E
100
AcDbEntity
  8
0
100
AcDbLine
 10
35.60249687428198
 20
8.343446660265758
 30
0.0
 11
35.62249687428198
 21
8.349689614697215
 31
0.0
  0
LINE
  5
575D
330
1E
100
AcDbEntity
  8
0
100
AcDbLine
 10
35.62249687428198
 20
8.349689614697204
 30
0.0
 11
35.60249687428198
 21
8.359432115669697
 31
0.0
  0
LINE
  5
575E
330
1E
100
AcDbEntity
  8
0
100
AcDbLine
 10
35.60249687428198
 20
8.359432115669697
 30
0.0
 11
35.60960377166091
 21
8.361650517493981
 31
0.0
  0
LINE
  5
575F
330
1E
100
AcDbEntity
  8
0
100
AcDbLine
 10
35.62249687428197
 20
8.285747793081412
 30
0.0
 11
35.60249687428196
 21
8.295490294053905
 31
0.0
  0
LINE
  5
5760
330
1E
100
AcDbEntity
  8
0
100
AcDbLine
 10
35.60249687428196
 20
8.295490294053905
 30
0.0
 11
35.62249687428197
 21
8.301733248485362
 31
0.0
  0
LINE
  5
5761
330
1E
100
AcDbEntity
  8
0
100
AcDbLine
 10
35.62249687428197
 20
8.269762337677462
 30
0.0
 11
35.60249687428196
 21
8.279504838649955
 31
0.0
  0
LINE
  5
5762
330
1E
100
AcDbEntity
  8
0
100
AcDbLine
 10
35.60249687428196
 20
8.279504838649955
 30
0.0
 11
35.62249687428197
 21
8.285747793081412
 31
0.0
  0
LINE
  5
5764
330
1E
100
AcDbEntity
  8
0
100
AcDbLine
 10
35.60397084074137
 20
8.263979478517978
 30
0.0
 11
35.62249687428197
 21
8.269762337677462
 31
0.0
  0
LINE
  5
5765
330
1E
100
AcDbEntity
  8
0
100
AcDbLine
 10
35.48837038852197
 20
8.133928366837992
 30
0.0
 11
35.84932857604197
 21
8.133928366837992
 31
0.0
  0
LINE
  5
5766
330
1E
100
AcDbEntity
  8
0
100
AcDbLine
 10
37.80932857604197
 20
8.147198888437991
 30
0.0
 11
37.80932857604197
 21
8.133928366837992
 31
0.0
  0
LINE
  5
5767
330
1E
100
AcDbEntity
  8
0
100
AcDbLine
 10
37.74032186372198
 20
8.263979478517981
 30
0.0
 11
37.51737710084198
 21
8.263979478517981
 31
0.0
  0
LINE
  5
5768
330
1E
100
AcDbEntity
  8
0
100
AcDbLine
 10
37.51737710084198
 20
8.263979478517981
 30
0.0
 11
37.74032186372198
 21
8.263979478517981
 31
0.0
  0
LINE
  5
5769
330
1E
100
AcDbEntity
  8
0
100
AcDbLine
 10
37.67520209028198
 20
8.285747793081409
 30
0.0
 11
37.58249687428196
 21
8.277637137631682
 31
0.0
  0
LINE
  5
576A
330
1E
100
AcDbEntity
  8
0
100
AcDbLine
 10
37.67520209028198
 20
8.301733248485362
 30
0.0
 11
37.58249687428197
 21
8.293622593035635
 31
0.0
  0
LINE
  5
576B
330
1E
100
AcDbEntity
  8
0
100
AcDbLine
 10
37.67520209028198
 20
8.317718703889308
 30
0.0
 11
37.58249687428197
 21
8.309608048439585
 31
0.0
  0
LINE
  5
576C
330
1E
100
AcDbEntity
  8
0
100
AcDbLine
 10
37.67520209028198
 20
8.333704159293269
 30
0.0
 11
37.58249687428197
 21
8.325593503843538
 31
0.0
  0
LINE
  5
576D
330
1E
100
AcDbEntity
  8
0
100
AcDbLine
 10
37.67520209028198
 20
8.349689614697211
 30
0.0
 11
37.58249687428199
 21
8.341578959247495
 31
0.0
  0
LINE
  5
576E
330
1E
100
AcDbEntity
  8
0
100
AcDbLine
 10
37.54346453897784
 20
8.263979478517981
 30
0.0
 11
37.54346453897784
 21
8.147198888437984
 31
0.0
  0
LINE
  5
576F
330
1E
100
AcDbEntity
  8
0
100
AcDbLine
 10
37.67417031266536
 20
8.263979478517981
 30
0.0
 11
37.67417031266536
 21
8.147198888437984
 31
0.0
  0
LINE
  5
5770
330
1E
100
AcDbEntity
  8
0
100
AcDbLine
 10
37.68809519290302
 20
8.361650517493984
 30
0.0
 11
37.56940658862511
 21
8.361650517493981
 31
0.0
  0
LINE
  5
5771
330
1E
100
AcDbEntity
  8
0
100
AcDbLine
 10
37.51737710084198
 20
8.147198888437984
 30
0.0
 11
37.51737710084198
 21
8.263979478517981
 31
0.0
  0
LINE
  5
5772
330
1E
100
AcDbEntity
  8
0
100
AcDbLine
 10
37.74032186372198
 20
8.147198888437984
 30
0.0
 11
37.74032186372198
 21
8.263979478517981
 31
0.0
  0
LINE
  5
5773
330
1E
100
AcDbEntity
  8
0
100
AcDbLine
 10
37.80932857604197
 20
8.147198888437991
 30
0.0
 11
37.44837038852198
 21
8.147198888437991
 31
0.0
  0
LINE
  5
5774
330
1E
100
AcDbEntity
  8
0
100
AcDbLine
 10
37.44837038852198
 20
8.133928366837992
 30
0.0
 11
37.44837038852198
 21
8.147198888437991
 31
0.0
  0
LINE
  5
5775
330
1E
100
AcDbEntity
  8
0
100
AcDbLine
 10
37.62920124348649
 20
8.361650517493984
 30
0.0
 11
37.58249687428203
 21
8.35756441465147
 31
0.0
  0
LINE
  5
5776
330
1E
100
AcDbEntity
  8
0
100
AcDbLine
 10
37.67520209028198
 20
8.269762337677459
 30
0.0
 11
37.6091037076296
 21
8.263979478517978
 31
0.0
  0
LINE
  5
5777
330
1E
100
AcDbEntity
  8
0
100
AcDbLine
 10
37.58249687428198
 20
8.309608048439585
 30
0.0
 11
37.56249687428197
 21
8.315851002871042
 31
0.0
  0
LINE
  5
5778
330
1E
100
AcDbEntity
  8
0
100
AcDbLine
 10
37.56249687428197
 20
8.315851002871042
 30
0.0
 11
37.58249687428198
 21
8.325593503843538
 31
0.0
  0
LINE
  5
5779
330
1E
100
AcDbEntity
  8
0
100
AcDbLine
 10
37.58249687428198
 20
8.293622593035635
 30
0.0
 11
37.56249687428197
 21
8.299865547467092
 31
0.0
  0
LINE
  5
577A
330
1E
100
AcDbEntity
  8
0
100
AcDbLine
 10
37.56249687428197
 20
8.299865547467092
 30
0.0
 11
37.58249687428198
 21
8.309608048439589
 31
0.0
  0
LINE
  5
577B
330
1E
100
AcDbEntity
  8
0
100
AcDbLine
 10
37.58249687428198
 20
8.277637137631685
 30
0.0
 11
37.56249687428197
 21
8.283880092063142
 31
0.0
  0
LINE
  5
577C
330
1E
100
AcDbEntity
  8
0
100
AcDbLine
 10
37.56249687428197
 20
8.283880092063142
 30
0.0
 11
37.58249687428198
 21
8.293622593035639
 31
0.0
  0
LINE
  5
577D
330
1E
100
AcDbEntity
  8
0
100
AcDbLine
 10
37.57503951954456
 20
8.263979478517978
 30
0.0
 11
37.56249687428197
 21
8.267894636659192
 31
0.0
  0
LINE
  5
577E
330
1E
100
AcDbEntity
  8
0
100
AcDbLine
 10
37.56249687428197
 20
8.267894636659192
 30
0.0
 11
37.58249687428198
 21
8.277637137631689
 31
0.0
  0
LINE
  5
577F
330
1E
100
AcDbEntity
  8
0
100
AcDbLine
 10
37.58249687428198
 20
8.325593503843535
 30
0.0
 11
37.56249687428197
 21
8.331836458274992
 31
0.0
  0
LINE
  5
5780
330
1E
100
AcDbEntity
  8
0
100
AcDbLine
 10
37.56249687428197
 20
8.331836458274992
 30
0.0
 11
37.58249687428198
 21
8.341578959247488
 31
0.0
  0
LINE
  5
5781
330
1E
100
AcDbEntity
  8
0
100
AcDbLine
 10
37.582496874282
 20
8.341578959247495
 30
0.0
 11
37.562496874282
 21
8.347821913678952
 31
0.0
  0
LINE
  5
5782
330
1E
100
AcDbEntity
  8
0
100
AcDbLine
 10
37.562496874282
 20
8.347821913678952
 30
0.0
 11
37.582496874282
 21
8.357564414651449
 31
0.0
  0
LINE
  5
5783
330
1E
100
AcDbEntity
  8
0
100
AcDbLine
 10
37.582496874282
 20
8.357564414651456
 30
0.0
 11
37.56940658862513
 21
8.361650517493981
 31
0.0
  0
LINE
  5
5784
330
1E
100
AcDbEntity
  8
0
100
AcDbLine
 10
37.67520209028198
 20
8.301733248485362
 30
0.0
 11
37.69520209028198
 21
8.311475749457855
 31
0.0
  0
LINE
  5
5785
330
1E
100
AcDbEntity
  8
0
100
AcDbLine
 10
37.69520209028198
 20
8.311475749457855
 30
0.0
 11
37.67520209028198
 21
8.317718703889312
 31
0.0
  0
LINE
  5
5786
330
1E
100
AcDbEntity
  8
0
100
AcDbLine
 10
37.67520209028198
 20
8.317718703889312
 30
0.0
 11
37.69520209028198
 21
8.327461204861805
 31
0.0
  0
LINE
  5
5787
330
1E
100
AcDbEntity
  8
0
100
AcDbLine
 10
37.69520209028198
 20
8.327461204861805
 30
0.0
 11
37.67520209028198
 21
8.333704159293262
 31
0.0
  0
LINE
  5
5788
330
1E
100
AcDbEntity
  8
0
100
AcDbLine
 10
37.67520209028196
 20
8.333704159293265
 30
0.0
 11
37.69520209028196
 21
8.343446660265758
 31
0.0
  0
LINE
  5
5789
330
1E
100
AcDbEntity
  8
0
100
AcDbLine
 10
37.69520209028196
 20
8.343446660265758
 30
0.0
 11
37.67520209028196
 21
8.349689614697215
 31
0.0
  0
LINE
  5
578A
330
1E
100
AcDbEntity
  8
0
100
AcDbLine
 10
37.67520209028196
 20
8.349689614697204
 30
0.0
 11
37.69520209028196
 21
8.359432115669697
 31
0.0
  0
LINE
  5
578B
330
1E
100
AcDbEntity
  8
0
100
AcDbLine
 10
37.69520209028196
 20
8.359432115669697
 30
0.0
 11
37.68809519290303
 21
8.361650517493981
 31
0.0
  0
LINE
  5
578C
330
1E
100
AcDbEntity
  8
0
100
AcDbLine
 10
37.67520209028198
 20
8.285747793081412
 30
0.0
 11
37.69520209028198
 21
8.295490294053905
 31
0.0
  0
LINE
  5
578D
330
1E
100
AcDbEntity
  8
0
100
AcDbLine
 10
37.69520209028198
 20
8.295490294053905
 30
0.0
 11
37.67520209028198
 21
8.301733248485362
 31
0.0
  0
LINE
  5
578E
330
1E
100
AcDbEntity
  8
0
100
AcDbLine
 10
37.67520209028198
 20
8.269762337677462
 30
0.0
 11
37.69520209028198
 21
8.279504838649955
 31
0.0
  0
LINE
  5
578F
330
1E
100
AcDbEntity
  8
0
100
AcDbLine
 10
37.69520209028198
 20
8.279504838649955
 30
0.0
 11
37.67520209028198
 21
8.285747793081412
 31
0.0
  0
LINE
  5
5790
330
1E
100
AcDbEntity
  8
0
100
AcDbLine
 10
37.69372812382258
 20
8.263979478517978
 30
0.0
 11
37.67520209028197
 21
8.269762337677462
 31
0.0
  0
LINE
  5
5791
330
1E
100
AcDbEntity
  8
0
100
AcDbLine
 10
37.39884948228197
 20
9.083928366837994
 30
0.0
 11
35.89884948228197
 21
9.083928366837994
 31
0.0
  0
LINE
  5
5792
330
1E
100
AcDbEntity
  8
0
100
AcDbLine
 10
35.89884948228197
 20
9.106428366837995
 30
0.0
 11
37.39884948228197
 21
9.106428366837995
 31
0.0
  0
LINE
  5
5793
330
1E
100
AcDbEntity
  8
0
100
AcDbLine
 10
35.89884948228197
 20
9.083928366837994
 30
0.0
 11
37.39884948228197
 21
9.083928366837994
 31
0.0
  0
LINE
  5
579B
330
1E
100
AcDbEntity
  8
0
100
AcDbLine
 10
37.39884948228197
 20
9.083928366837994
 30
0.0
 11
37.39884948228197
 21
8.133928366837992
 31
0.0
  0
LINE
  5
579E
330
1E
100
AcDbEntity
  8
0
100
AcDbLine
 10
36.48487395367357
 20
9.083928366837994
 30
0.0
 11
36.81282501089038
 21
9.083928366837994
 31
0.0
  0
LINE
  5
579F
330
1E
100
AcDbEntity
  8
HIDDEN
100
AcDbLine
 10
36.40288618936937
 20
8.955027601577668
 30
0.0
 11
36.40288618936937
 21
9.083928366837994
 31
0.0
  0
LINE
  5
57A0
330
1E
100
AcDbEntity
  8
HIDDEN
100
AcDbLine
 10
36.89481277519458
 20
8.955027601577668
 30
0.0
 11
36.40288618936937
 21
8.955027601577668
 31
0.0
  0
LINE
  5
57AA
330
1E
100
AcDbEntity
  8
0
100
AcDbLine
 10
35.89884948228197
 20
8.133928366837992
 30
0.0
 11
35.89884948228197
 21
9.083928366837994
 31
0.0
  0
LINE
  5
57CE
330
1E
100
AcDbEntity
  8
HIDDEN
100
AcDbLine
 10
36.89481277519458
 20
9.083928366837994
 30
0.0
 11
36.89481277519458
 21
8.955027601577668
 31
0.0
  0
LINE
  5
57CF
330
1E
100
AcDbEntity
  8
0
100
AcDbLine
 10
37.39884948228197
 20
9.106428366837995
 30
0.0
 11
37.39884948228197
 21
9.083928366837994
 31
0.0
  0
LINE
  5
57D0
330
1E
100
AcDbEntity
  8
0
100
AcDbLine
 10
35.89884948228197
 20
9.106428366837995
 30
0.0
 11
35.89884948228197
 21
9.083928366837994
 31
0.0
  0
LINE
  5
57D1
330
1E
100
AcDbEntity
  8
0
100
AcDbLine
 10
37.39884948228197
 20
8.133928366837992
 30
0.0
 11
35.89884948228197
 21
8.133928366837992
 31
0.0
  0
LINE
  5
57D9
330
1E
100
AcDbEntity
  8
HIDDEN
100
AcDbLine
 10
42.5097897670459
 20
1.899426184433501
 30
0.0
 11
42.5097897670459
 21
2.391352770258698
 31
0.0
  0
LINE
  5
57DC
330
1E
100
AcDbEntity
  8
0
100
AcDbLine
 10
42.63869053230624
 20
1.44538947734609
 30
0.0
 11
42.63869053230624
 21
2.845389477346124
 31
0.0
  0
LINE
  5
57DD
330
1E
100
AcDbEntity
  8
0
100
AcDbLine
 10
42.66119053230623
 20
2.845389477346124
 30
0.0
 11
42.66119053230623
 21
1.44538947734609
 31
0.0
  0
LINE
  5
57DE
330
1E
100
AcDbEntity
  8
0
100
AcDbLine
 10
42.63869053230624
 20
2.845389477346124
 30
0.0
 11
42.63869053230624
 21
1.44538947734609
 31
0.0
  0
LINE
  5
57E0
330
1E
100
AcDbEntity
  8
HIDDEN
100
AcDbLine
 10
42.5097897670459
 20
2.391352770258698
 30
0.0
 11
42.63869053230624
 21
2.391352770258698
 31
0.0
  0
LINE
  5
57EB
330
1E
100
AcDbEntity
  8
HIDDEN
100
AcDbLine
 10
42.63869053230624
 20
1.899426184433501
 30
0.0
 11
42.5097897670459
 21
1.899426184433501
 31
0.0
  0
LINE
  5
57EC
330
1E
100
AcDbEntity
  8
0
100
AcDbLine
 10
42.63869053230624
 20
2.309365005954497
 30
0.0
 11
42.63869053230624
 21
1.981413948737703
 31
0.0
  0
LINE
  5
585B
330
1E
100
AcDbEntity
  8
0
100
AcDbLine
 10
42.9697345233554
 20
0.6046637021885211
 30
0.0
 11
43.17325903303356
 21
0.0454847075421689
 31
0.0
  0
LINE
  5
585C
330
1E
100
AcDbEntity
  8
0
100
AcDbLine
 10
41.71119053230622
 20
0.3131290242261038
 30
0.0
 11
43.07584446839009
 21
0.3131290242261037
 31
0.0
  0
LINE
  5
585D
330
1E
100
AcDbEntity
  8
0
100
AcDbLine
 10
41.71119053230622
 20
0.8731290242260989
 30
0.0
 11
42.99969489772176
 21
0.873129024226106
 31
0.0
  0
LINE
  5
585E
330
1E
100
AcDbEntity
  8
0
100
AcDbLine
 10
42.93498560730178
 20
1.064625377728187
 30
0.0
 11
43.1167341861781
 21
0.5652752612475247
 31
0.0
  0
LINE
  5
585F
330
1E
100
AcDbEntity
  8
0
100
AcDbLine
 10
42.56484664018568
 20
0.7051693167103572
 30
0.0
 11
42.5838030142333
 21
0.4884969698753956
 31
0.0
  0
LINE
  5
5860
330
1E
100
AcDbEntity
  8
0
100
AcDbLine
 10
42.54146473956439
 20
0.4847928508086206
 30
0.0
 11
42.52250836551678
 21
0.7014651976435822
 31
0.0
  0
ARC
  5
5861
330
1E
100
AcDbEntity
  8
0
100
AcDbCircle
 10
42.56263387689885
 20
0.4866449103420046
 30
0.0
 40
0.02125
100
AcDbArc
 50
184.9999999999998
 51
274.9999999999904
  0
LINE
  5
5862
330
1E
100
AcDbEntity
  8
0
100
AcDbLine
 10
42.56448593643224
 20
0.4654757730075581
 30
0.0
 11
42.56448593643223
 21
0.4654757730075581
 31
0.0
  0
ARC
  5
5863
330
1E
100
AcDbEntity
  8
0
100
AcDbCircle
 10
42.54367750285123
 20
0.7033172571769662
 30
0.0
 40
0.02125
100
AcDbArc
 50
95.0
 51
184.9999999999998
  0
LINE
  5
5864
330
1E
100
AcDbEntity
  8
0
100
AcDbLine
 10
42.56484664018568
 20
0.7051693167103501
 30
0.0
 11
42.57249064280037
 21
0.6177979670220531
 31
0.0
  0
ARC
  5
5865
330
1E
100
AcDbEntity
  8
0
100
AcDbCircle
 10
42.56263387689885
 20
0.4866449103419975
 30
0.0
 40
0.02125
100
AcDbArc
 50
274.9999999999952
 51
5.000000000000222
  0
ARC
  5
5866
330
1E
100
AcDbEntity
  8
0
100
AcDbCircle
 10
42.54367750285123
 20
0.7033172571769662
 30
0.0
 40
0.02125
100
AcDbArc
 50
5.000000000000222
 51
95.0
  0
ARC
  5
5867
330
1E
100
AcDbEntity
  8
0
100
AcDbCircle
 10
42.44851515975564
 20
0.7033172571769662
 30
0.0
 40
0.02125
100
AcDbArc
 50
5.000000000000222
 51
95.0
  0
ARC
  5
5868
330
1E
100
AcDbEntity
  8
0
100
AcDbCircle
 10
42.46747153380325
 20
0.4866449103419975
 30
0.0
 40
0.02125
100
AcDbArc
 50
274.9999999999952
 51
5.000000000000222
  0
LINE
  5
5869
330
1E
100
AcDbEntity
  8
0
100
AcDbLine
 10
42.46968429709009
 20
0.7051693167103501
 30
0.0
 11
42.4886406711377
 21
0.4884969698753956
 31
0.0
  0
ARC
  5
586A
330
1E
100
AcDbEntity
  8
0
100
AcDbCircle
 10
42.44851515975564
 20
0.7033172571769662
 30
0.0
 40
0.02125
100
AcDbArc
 50
95.0
 51
184.9999999999998
  0
LINE
  5
586B
330
1E
100
AcDbEntity
  8
0
100
AcDbLine
 10
42.46932359333665
 20
0.4654757730075581
 30
0.0
 11
42.46932359333665
 21
0.4654757730075581
 31
0.0
  0
ARC
  5
586C
330
1E
100
AcDbEntity
  8
0
100
AcDbCircle
 10
42.46747153380325
 20
0.4866449103420046
 30
0.0
 40
0.02125
100
AcDbArc
 50
184.9999999999998
 51
274.9999999999904
  0
LINE
  5
586D
330
1E
100
AcDbEntity
  8
0
100
AcDbLine
 10
42.4463023964688
 20
0.4847928508086206
 30
0.0
 11
42.42734602242119
 21
0.7014651976435822
 31
0.0
  0
LINE
  5
586E
330
1E
100
AcDbEntity
  8
0
100
AcDbLine
 10
42.35114005337321
 20
0.4847928508086206
 30
0.0
 11
42.3321836793256
 21
0.7014651976435822
 31
0.0
  0
ARC
  5
586F
330
1E
100
AcDbEntity
  8
0
100
AcDbCircle
 10
42.37230919070766
 20
0.4866449103420117
 30
0.0
 40
0.02125
100
AcDbArc
 50
184.9999999999998
 51
274.9999999999904
  0
LINE
  5
5870
330
1E
100
AcDbEntity
  8
0
100
AcDbLine
 10
42.37416125024105
 20
0.4654757730075581
 30
0.0
 11
42.37416125024105
 21
0.4654757730075581
 31
0.0
  0
ARC
  5
5871
330
1E
100
AcDbEntity
  8
0
100
AcDbCircle
 10
42.35335281666004
 20
0.7033172571769733
 30
0.0
 40
0.02125
100
AcDbArc
 50
95.0
 51
184.9999999999998
  0
LINE
  5
5872
330
1E
100
AcDbEntity
  8
0
100
AcDbLine
 10
42.37452195399449
 20
0.7051693167103501
 30
0.0
 11
42.39347832804211
 21
0.4884969698753956
 31
0.0
  0
ARC
  5
5873
330
1E
100
AcDbEntity
  8
0
100
AcDbCircle
 10
42.37230919070766
 20
0.4866449103420046
 30
0.0
 40
0.02125
100
AcDbArc
 50
274.9999999999952
 51
5.000000000000222
  0
ARC
  5
5874
330
1E
100
AcDbEntity
  8
0
100
AcDbCircle
 10
42.35335281666004
 20
0.7033172571769662
 30
0.0
 40
0.02125
100
AcDbArc
 50
5.000000000000222
 51
95.0
  0
ARC
  5
5875
330
1E
100
AcDbEntity
  8
0
100
AcDbCircle
 10
42.25819047356445
 20
0.7033172571769733
 30
0.0
 40
0.02125
100
AcDbArc
 50
95.0
 51
184.9999999999998
  0
ARC
  5
5876
330
1E
100
AcDbEntity
  8
0
100
AcDbCircle
 10
42.25819047356445
 20
0.7033172571769662
 30
0.0
 40
0.02125
100
AcDbArc
 50
5.000000000000222
 51
95.0
  0
LINE
  5
5877
330
1E
100
AcDbEntity
  8
0
100
AcDbLine
 10
42.27899890714545
 20
0.4654757730075581
 30
0.0
 11
42.27899890714545
 21
0.4654757730075581
 31
0.0
  0
ARC
  5
5878
330
1E
100
AcDbEntity
  8
0
100
AcDbCircle
 10
42.27714684761206
 20
0.4866449103420117
 30
0.0
 40
0.02125
100
AcDbArc
 50
184.9999999999998
 51
274.9999999999904
  0
ARC
  5
5879
330
1E
100
AcDbEntity
  8
0
100
AcDbCircle
 10
42.27714684761206
 20
0.4866449103420046
 30
0.0
 40
0.02125
100
AcDbArc
 50
274.9999999999952
 51
5.000000000000222
  0
LINE
  5
587A
330
1E
100
AcDbEntity
  8
0
100
AcDbLine
 10
42.25597771027763
 20
0.4847928508086206
 30
0.0
 11
42.23702133623
 21
0.7014651976435822
 31
0.0
  0
LINE
  5
587B
330
1E
100
AcDbEntity
  8
0
100
AcDbLine
 10
42.2793596108989
 20
0.7051693167103501
 30
0.0
 11
42.29831598494651
 21
0.4884969698753956
 31
0.0
  0
LINE
  5
587C
330
1E
100
AcDbEntity
  8
0
100
AcDbLine
 10
42.18419726780331
 20
0.7051693167103501
 30
0.0
 11
42.20315364185093
 21
0.4884969698753956
 31
0.0
  0
LINE
  5
587D
330
1E
100
AcDbEntity
  8
0
100
AcDbLine
 10
42.16081536718203
 20
0.4847928508086206
 30
0.0
 11
42.14185899313441
 21
0.7014651976435822
 31
0.0
  0
ARC
  5
587E
330
1E
100
AcDbEntity
  8
0
100
AcDbCircle
 10
42.18198450451647
 20
0.4866449103420046
 30
0.0
 40
0.02125
100
AcDbArc
 50
274.9999999999952
 51
5.000000000000222
  0
ARC
  5
587F
330
1E
100
AcDbEntity
  8
0
100
AcDbCircle
 10
42.18198450451647
 20
0.4866449103420117
 30
0.0
 40
0.02125
100
AcDbArc
 50
184.9999999999998
 51
274.9999999999904
  0
LINE
  5
5880
330
1E
100
AcDbEntity
  8
0
100
AcDbLine
 10
42.18383656404986
 20
0.4654757730075581
 30
0.0
 11
42.18383656404986
 21
0.4654757730075581
 31
0.0
  0
ARC
  5
5881
330
1E
100
AcDbEntity
  8
0
100
AcDbCircle
 10
42.16302813046886
 20
0.7033172571769662
 30
0.0
 40
0.02125
100
AcDbArc
 50
5.000000000000222
 51
95.0
  0
ARC
  5
5882
330
1E
100
AcDbEntity
  8
0
100
AcDbCircle
 10
42.16302813046886
 20
0.7033172571769733
 30
0.0
 40
0.02125
100
AcDbArc
 50
95.0
 51
184.9999999999998
  0
LINE
  5
5883
330
1E
100
AcDbEntity
  8
0
100
AcDbLine
 10
42.16117607093547
 20
0.7244863945114269
 30
0.0
 11
42.16117607093547
 21
0.7244863945114127
 31
0.0
  0
LINE
  5
5884
330
1E
100
AcDbEntity
  8
0
100
AcDbLine
 10
42.06601372783988
 20
0.7244863945114269
 30
0.0
 11
42.06601372783988
 21
0.7244863945114127
 31
0.0
  0
ARC
  5
5885
330
1E
100
AcDbEntity
  8
0
100
AcDbCircle
 10
42.06786578737327
 20
0.7033172571769733
 30
0.0
 40
0.02125
100
AcDbArc
 50
95.0
 51
184.9999999999998
  0
ARC
  5
5886
330
1E
100
AcDbEntity
  8
0
100
AcDbCircle
 10
42.06786578737327
 20
0.7033172571769662
 30
0.0
 40
0.02125
100
AcDbArc
 50
5.000000000000222
 51
95.0
  0
LINE
  5
5887
330
1E
100
AcDbEntity
  8
0
100
AcDbLine
 10
42.08867422095427
 20
0.4654757730075581
 30
0.0
 11
42.08867422095426
 21
0.4654757730075581
 31
0.0
  0
ARC
  5
5888
330
1E
100
AcDbEntity
  8
0
100
AcDbCircle
 10
42.08682216142088
 20
0.4866449103420117
 30
0.0
 40
0.02125
100
AcDbArc
 50
184.9999999999998
 51
274.9999999999904
  0
ARC
  5
5889
330
1E
100
AcDbEntity
  8
0
100
AcDbCircle
 10
42.08682216142088
 20
0.4866449103420046
 30
0.0
 40
0.02125
100
AcDbArc
 50
274.9999999999952
 51
5.000000000000222
  0
LINE
  5
588A
330
1E
100
AcDbEntity
  8
0
100
AcDbLine
 10
42.06565302408644
 20
0.4847928508086206
 30
0.0
 11
42.04669665003882
 21
0.7014651976435822
 31
0.0
  0
LINE
  5
588B
330
1E
100
AcDbEntity
  8
0
100
AcDbLine
 10
42.08903492470772
 20
0.7051693167103501
 30
0.0
 11
42.10799129875534
 21
0.4884969698753956
 31
0.0
  0
ARC
  5
588C
330
1E
100
AcDbEntity
  8
0
100
AcDbCircle
 10
41.97270344427767
 20
0.7033172571769662
 30
0.0
 40
0.02125
100
AcDbArc
 50
5.000000000000222
 51
185.0000000000001
  0
LINE
  5
588D
330
1E
100
AcDbEntity
  8
0
100
AcDbLine
 10
41.99387258161213
 20
0.7051693167103501
 30
0.0
 11
42.01282895565975
 21
0.4884969698753956
 31
0.0
  0
ARC
  5
588E
330
1E
100
AcDbEntity
  8
0
100
AcDbCircle
 10
41.99165981832529
 20
0.4866449103420046
 30
0.0
 40
0.02125
100
AcDbArc
 50
274.9999999999952
 51
5.000000000000222
  0
ARC
  5
588F
330
1E
100
AcDbEntity
  8
0
100
AcDbCircle
 10
41.99165981832529
 20
0.4866449103420117
 30
0.0
 40
0.02125
100
AcDbArc
 50
184.9999999999998
 51
274.9999999999904
  0
LINE
  5
5890
330
1E
100
AcDbEntity
  8
0
100
AcDbLine
 10
41.99351187785868
 20
0.4654757730075581
 30
0.0
 11
41.99351187785867
 21
0.4654757730075581
 31
0.0
  0
LINE
  5
5891
330
1E
100
AcDbEntity
  8
0
100
AcDbLine
 10
43.1167341861781
 20
0.5652752612475247
 30
0.0
 11
42.9697345233554
 21
0.6046637021885211
 31
0.0
  0
LINE
  5
5892
330
1E
100
AcDbEntity
  8
0
100
AcDbLine
 10
42.66000898328128
 20
0.7051693167103572
 30
0.0
 11
42.67896535732889
 21
0.4884969698753956
 31
0.0
  0
LINE
  5
5893
330
1E
100
AcDbEntity
  8
0
100
AcDbLine
 10
42.63662708265999
 20
0.4847928508086206
 30
0.0
 11
42.61767070861237
 21
0.7014651976435822
 31
0.0
  0
ARC
  5
5894
330
1E
100
AcDbEntity
  8
0
100
AcDbCircle
 10
42.65779621999444
 20
0.4866449103420046
 30
0.0
 40
0.02125
100
AcDbArc
 50
184.9999999999998
 51
274.9999999999904
  0
LINE
  5
5895
330
1E
100
AcDbEntity
  8
0
100
AcDbLine
 10
42.65964827952783
 20
0.4654757730075581
 30
0.0
 11
42.65964827952782
 21
0.4654757730075581
 31
0.0
  0
ARC
  5
5896
330
1E
100
AcDbEntity
  8
0
100
AcDbCircle
 10
42.63883984594682
 20
0.7033172571769662
 30
0.0
 40
0.02125
100
AcDbArc
 50
95.0
 51
184.9999999999998
  0
LINE
  5
5897
330
1E
100
AcDbEntity
  8
0
100
AcDbLine
 10
42.66000898328128
 20
0.7051693167103501
 30
0.0
 11
42.66765298589596
 21
0.6177979670220531
 31
0.0
  0
ARC
  5
5898
330
1E
100
AcDbEntity
  8
0
100
AcDbCircle
 10
42.65779621999444
 20
0.4866449103419975
 30
0.0
 40
0.02125
100
AcDbArc
 50
274.9999999999952
 51
5.000000000000222
  0
ARC
  5
5899
330
1E
100
AcDbEntity
  8
0
100
AcDbCircle
 10
42.63883984594682
 20
0.7033172571769662
 30
0.0
 40
0.02125
100
AcDbArc
 50
5.000000000000222
 51
95.0
  0
LINE
  5
589A
330
1E
100
AcDbEntity
  8
0
100
AcDbLine
 10
42.75517132637687
 20
0.7051693167103572
 30
0.0
 11
42.77412770042448
 21
0.4884969698753956
 31
0.0
  0
LINE
  5
589B
330
1E
100
AcDbEntity
  8
0
100
AcDbLine
 10
42.73178942575558
 20
0.4847928508086206
 30
0.0
 11
42.71283305170796
 21
0.7014651976435822
 31
0.0
  0
ARC
  5
589C
330
1E
100
AcDbEntity
  8
0
100
AcDbCircle
 10
42.75295856309003
 20
0.4866449103420046
 30
0.0
 40
0.02125
100
AcDbArc
 50
184.9999999999998
 51
274.9999999999904
  0
LINE
  5
589D
330
1E
100
AcDbEntity
  8
0
100
AcDbLine
 10
42.75481062262342
 20
0.4654757730075581
 30
0.0
 11
42.75481062262342
 21
0.4654757730075581
 31
0.0
  0
ARC
  5
589E
330
1E
100
AcDbEntity
  8
0
100
AcDbCircle
 10
42.73400218904241
 20
0.7033172571769662
 30
0.0
 40
0.02125
100
AcDbArc
 50
95.0
 51
184.9999999999998
  0
LINE
  5
589F
330
1E
100
AcDbEntity
  8
0
100
AcDbLine
 10
42.75517132637687
 20
0.7051693167103501
 30
0.0
 11
42.76281532899155
 21
0.6177979670220531
 31
0.0
  0
ARC
  5
58A0
330
1E
100
AcDbEntity
  8
0
100
AcDbCircle
 10
42.75295856309003
 20
0.4866449103419975
 30
0.0
 40
0.02125
100
AcDbArc
 50
274.9999999999952
 51
5.000000000000222
  0
ARC
  5
58A1
330
1E
100
AcDbEntity
  8
0
100
AcDbCircle
 10
42.73400218904241
 20
0.7033172571769662
 30
0.0
 40
0.02125
100
AcDbArc
 50
5.000000000000222
 51
95.0
  0
LINE
  5
58A2
330
1E
100
AcDbEntity
  8
0
100
AcDbLine
 10
42.85033366947245
 20
0.7051693167103572
 30
0.0
 11
42.86929004352007
 21
0.4884969698753956
 31
0.0
  0
LINE
  5
58A3
330
1E
100
AcDbEntity
  8
0
100
AcDbLine
 10
42.82695176885118
 20
0.4847928508086206
 30
0.0
 11
42.80799539480356
 21
0.7014651976435822
 31
0.0
  0
ARC
  5
58A4
330
1E
100
AcDbEntity
  8
0
100
AcDbCircle
 10
42.84812090618562
 20
0.4866449103420046
 30
0.0
 40
0.02125
100
AcDbArc
 50
184.9999999999998
 51
274.9999999999904
  0
LINE
  5
58A5
330
1E
100
AcDbEntity
  8
0
100
AcDbLine
 10
42.849972965719
 20
0.4654757730075581
 30
0.0
 11
42.849972965719
 21
0.4654757730075581
 31
0.0
  0
ARC
  5
58A6
330
1E
100
AcDbEntity
  8
0
100
AcDbCircle
 10
42.82916453213799
 20
0.7033172571769662
 30
0.0
 40
0.02125
100
AcDbArc
 50
95.0
 51
184.9999999999998
  0
LINE
  5
58A7
330
1E
100
AcDbEntity
  8
0
100
AcDbLine
 10
42.85033366947245
 20
0.7051693167103501
 30
0.0
 11
42.85797767208714
 21
0.6177979670220531
 31
0.0
  0
ARC
  5
58A8
330
1E
100
AcDbEntity
  8
0
100
AcDbCircle
 10
42.84812090618562
 20
0.4866449103419975
 30
0.0
 40
0.02125
100
AcDbArc
 50
274.9999999999952
 51
5.000000000000222
  0
ARC
  5
58A9
330
1E
100
AcDbEntity
  8
0
100
AcDbCircle
 10
42.82916453213799
 20
0.7033172571769662
 30
0.0
 40
0.02125
100
AcDbArc
 50
5.000000000000222
 51
95.0
  0
LINE
  5
58CD
330
1E
100
AcDbEntity
  8
0
100
AcDbLine
 10
41.71119053230622
 20
0.8731290242260989
 30
0.0
 11
41.71119053230622
 21
0.3131290242261038
 31
0.0
  0
DIMENSION
  5
5A00
330
1E
100
AcDbEntity
  8
0
370
    30
100
AcDbDimension
  2
*D40
 10
43.1478222258574
 20
3.423129024226096
 30
0.0
 11
43.98190658057981
 21
4.344615907730055
 31
0.0
 70
   160
  1
<> (2X)
 71
     5
 42
0.5599999999999948
  3
DIM STYLE 1
100
AcDbAlignedDimension
 13
42.99103500927871
 23
3.983129024226091
 33
0.0
 14
43.0758444683901
 24
3.423129024226096
 34
0.0
 50
90.0
100
AcDbRotatedDimension
  0
LINE
  5
5A1A
330
1E
100
AcDbEntity
  8
0
100
AcDbLine
 10
42.66119053230623
 20
1.44538947734609
 30
0.0
 11
41.71119053230622
 21
1.44538947734609
 31
0.0
  0
LINE
  5
5A1B
330
1E
100
AcDbEntity
  8
0
100
AcDbLine
 10
42.66119053230623
 20
2.845389477346124
 30
0.0
 11
41.71119053230622
 21
2.845389477346124
 31
0.0
  0
LINE
  5
5A1C
330
1E
100
AcDbEntity
  8
0
370
    30
100
AcDbLine
 10
41.71119053230622
 20
2.845389477346124
 30
0.0
 11
41.71119053230622
 21
1.44538947734609
 31
0.0
  0
LINE
  5
5B13
330
1E
100
AcDbEntity
  8
0
100
AcDbLine
 10
41.95153430694323
 20
0.7014651976435787
 30
0.0
 11
41.97049068099085
 21
0.4847928508086241
 31
0.0
  0
LEADER
  5
5B15
330
1E
100
AcDbEntity
  8
0
370
    30
100
AcDbLeader
  3
DIM STYLE 1
 73
     0
 40
0.0920115356885364
 41
0.9410093727469357
 76
     3
 10
42.66119053230623
 20
1.44538947734609
 30
0.0
 10
43.15637962096532
 20
1.312703960939181
 30
0.0
 10
43.32385197087695
 20
1.312703960939183
 30
0.0
340
5B16
213
0.0
223
-0.045
233
0.0
1001
ACAD
1000
DSTYLE
1002
{
1070
   147
1040
0.09
1070
    77
1070
     0
1002
}
  0
MTEXT
  5
5B16
102
{ACAD_REACTORS
330
5B15
102
}
330
1E
100
AcDbEntity
  8
0
370
    30
100
AcDbMText
 10
43.41385197087696
 20
1.357703960939183
 30
0.0
 40
0.09
 41
0.0
 71
     1
 72
     1
  1
1.5" x 1.5" COPPER PLATE
 73
     1
 44
1.0
  0
LEADER
  5
5B17
330
1E
100
AcDbEntity
  8
0
370
    30
100
AcDbLeader
  3
DIM STYLE 1
 73
     0
 40
0.0920115356885364
 41
0.6758759913482335
 76
     3
 10
42.18619053230622
 20
2.845389477346124
 30
0.0
 10
42.70473248893357
 20
3.034123314776632
 30
0.0
 10
42.97213378584895
 20
3.034123314776634
 30
0.0
340
5B18
213
0.0
223
-0.045
233
0.0
1001
ACAD
1000
DSTYLE
1002
{
1070
   147
1040
0.09
1070
    77
1070
     0
1002
}
  0
MTEXT
  5
5B18
102
{ACAD_REACTORS
330
5B17
102
}
330
1E
100
AcDbEntity
  8
0
370
    30
100
AcDbMText
 10
43.06213378584895
 20
3.079123314776634
 30
0.0
 40
0.09
 41
0.0
 71
     1
 72
     1
  1
1.5" x 1.5" STRAP PAD
 73
     1
 44
1.0
  0
LEADER
  5
5B2E
330
1E
100
AcDbEntity
  8
0
370
    30
100
AcDbLeader
  3
DIM STYLE 1
 73
     0
 40
0.2729632299927902
 41
1.909206921413121
 76
     3
 10
37.08110808784349
 20
7.13909910090819
 30
0.0
 10
38.34089969277911
 20
6.680572455333173
 30
0.0
 10
38.64160410762405
 20
6.680572455333175
 30
0.0
340
5B2F
213
0.0
223
-0.045
233
0.0
1001
ACAD
1000
DSTYLE
1002
{
1070
   147
1040
0.09
1070
    77
1070
     0
1002
}
  0
MTEXT
  5
5B2F
102
{ACAD_REACTORS
330
5B2E
102
}
330
1E
100
AcDbEntity
  8
0
370
    30
100
AcDbMText
 10
38.73160410762405
 20
6.725572455333175
 30
0.0
 40
0.09
 41
0.0
 71
     1
 72
     1
  1
PG11= INNER KNOCKOUT (6X)\PPG16= OUTER KNOCKOUT (6X)
 73
     1
 44
1.0
  0
LEADER
  5
5BAE
330
1E
100
AcDbEntity
  8
0
370
    30
100
AcDbLeader
  3
DIM STYLE 1
 73
     0
 40
0.0920115356885364
 41
1.196863734679163
 76
     3
 10
38.93595013121347
 20
10.90477766346284
 30
0.0
 10
39.52785493302885
 20
11.06337807710538
 30
0.0
 10
39.98424624842155
 20
11.06337807710538
 30
0.0
340
5BAF
213
0.0
223
-0.045
233
0.0
1001
ACAD
1000
DSTYLE
1002
{
1070
   147
1040
0.09
1070
    77
1070
     0
1002
}
  0
MTEXT
  5
5BAF
102
{ACAD_REACTORS
330
5BAE
102
}
330
1E
100
AcDbEntity
  8
0
370
    30
100
AcDbMText
 10
40.07424624842156
 20
11.10837807710538
 30
0.0
 40
0.09
 41
0.0
 71
     1
 72
     1
  1
PIPE SIZE 2"-5" DIA.
 73
     1
 44
1.0
  0
LINE
  5
5C19
330
1E
100
AcDbEntity
  8
0
100
AcDbLine
 10
42.9697345233554
 20
3.714663702188513
 30
0.0
 11
43.17325903303356
 21
3.155484707542161
 31
0.0
  0
LINE
  5
5C1A
330
1E
100
AcDbEntity
  8
0
100
AcDbLine
 10
41.71119053230622
 20
3.423129024226096
 30
0.0
 11
43.07584446839009
 21
3.423129024226096
 31
0.0
  0
LINE
  5
5C1B
330
1E
100
AcDbEntity
  8
0
100
AcDbLine
 10
41.71119053230622
 20
3.983129024226091
 30
0.0
 11
42.99969489772176
 21
3.983129024226098
 31
0.0
  0
LINE
  5
5C1C
330
1E
100
AcDbEntity
  8
0
100
AcDbLine
 10
42.93498560730178
 20
4.17462537772818
 30
0.0
 11
43.1167341861781
 21
3.675275261247517
 31
0.0
  0
LINE
  5
5C1D
330
1E
100
AcDbEntity
  8
0
100
AcDbLine
 10
42.56484664018568
 20
3.815169316710349
 30
0.0
 11
42.5838030142333
 21
3.598496969875387
 31
0.0
  0
LINE
  5
5C1E
330
1E
100
AcDbEntity
  8
0
100
AcDbLine
 10
42.54146473956439
 20
3.594792850808612
 30
0.0
 11
42.52250836551678
 21
3.811465197643574
 31
0.0
  0
ARC
  5
5C1F
330
1E
100
AcDbEntity
  8
0
100
AcDbCircle
 10
42.56263387689885
 20
3.596644910341996
 30
0.0
 40
0.02125
100
AcDbArc
 50
184.9999999999998
 51
274.9999999999904
  0
LINE
  5
5C20
330
1E
100
AcDbEntity
  8
0
100
AcDbLine
 10
42.56448593643224
 20
3.57547577300755
 30
0.0
 11
42.56448593643223
 21
3.57547577300755
 31
0.0
  0
ARC
  5
5C21
330
1E
100
AcDbEntity
  8
0
100
AcDbCircle
 10
42.54367750285123
 20
3.813317257176958
 30
0.0
 40
0.02125
100
AcDbArc
 50
95.00000000000019
 51
184.9999999999998
  0
LINE
  5
5C22
330
1E
100
AcDbEntity
  8
0
100
AcDbLine
 10
42.56484664018568
 20
3.815169316710342
 30
0.0
 11
42.57249064280037
 21
3.727797967022045
 31
0.0
  0
ARC
  5
5C23
330
1E
100
AcDbEntity
  8
0
100
AcDbCircle
 10
42.56263387689885
 20
3.596644910341989
 30
0.0
 40
0.02125
100
AcDbArc
 50
274.9999999999953
 51
5.000000000000245
  0
ARC
  5
5C24
330
1E
100
AcDbEntity
  8
0
100
AcDbCircle
 10
42.54367750285123
 20
3.813317257176958
 30
0.0
 40
0.02125
100
AcDbArc
 50
5.000000000000245
 51
95.00000000000019
  0
ARC
  5
5C25
330
1E
100
AcDbEntity
  8
0
100
AcDbCircle
 10
42.44851515975564
 20
3.813317257176958
 30
0.0
 40
0.02125
100
AcDbArc
 50
5.000000000000245
 51
95.00000000000019
  0
ARC
  5
5C26
330
1E
100
AcDbEntity
  8
0
100
AcDbCircle
 10
42.46747153380325
 20
3.596644910341989
 30
0.0
 40
0.02125
100
AcDbArc
 50
274.9999999999953
 51
5.000000000000245
  0
LINE
  5
5C27
330
1E
100
AcDbEntity
  8
0
100
AcDbLine
 10
42.46968429709009
 20
3.815169316710342
 30
0.0
 11
42.4886406711377
 21
3.598496969875387
 31
0.0
  0
ARC
  5
5C28
330
1E
100
AcDbEntity
  8
0
100
AcDbCircle
 10
42.44851515975564
 20
3.813317257176958
 30
0.0
 40
0.02125
100
AcDbArc
 50
95.00000000000019
 51
184.9999999999998
  0
LINE
  5
5C29
330
1E
100
AcDbEntity
  8
0
100
AcDbLine
 10
42.46932359333665
 20
3.57547577300755
 30
0.0
 11
42.46932359333665
 21
3.57547577300755
 31
0.0
  0
ARC
  5
5C2A
330
1E
100
AcDbEntity
  8
0
100
AcDbCircle
 10
42.46747153380325
 20
3.596644910341996
 30
0.0
 40
0.02125
100
AcDbArc
 50
184.9999999999998
 51
274.9999999999904
  0
LINE
  5
5C2B
330
1E
100
AcDbEntity
  8
0
100
AcDbLine
 10
42.4463023964688
 20
3.594792850808612
 30
0.0
 11
42.42734602242119
 21
3.811465197643574
 31
0.0
  0
LINE
  5
5C2C
330
1E
100
AcDbEntity
  8
0
100
AcDbLine
 10
42.35114005337321
 20
3.594792850808612
 30
0.0
 11
42.3321836793256
 21
3.811465197643574
 31
0.0
  0
ARC
  5
5C2D
330
1E
100
AcDbEntity
  8
0
100
AcDbCircle
 10
42.37230919070766
 20
3.596644910342003
 30
0.0
 40
0.02125
100
AcDbArc
 50
184.9999999999998
 51
274.9999999999904
  0
LINE
  5
5C2E
330
1E
100
AcDbEntity
  8
0
100
AcDbLine
 10
42.37416125024105
 20
3.57547577300755
 30
0.0
 11
42.37416125024105
 21
3.57547577300755
 31
0.0
  0
ARC
  5
5C2F
330
1E
100
AcDbEntity
  8
0
100
AcDbCircle
 10
42.35335281666004
 20
3.813317257176965
 30
0.0
 40
0.02125
100
AcDbArc
 50
95.00000000000019
 51
184.9999999999998
  0
LINE
  5
5C30
330
1E
100
AcDbEntity
  8
0
100
AcDbLine
 10
42.37452195399449
 20
3.815169316710342
 30
0.0
 11
42.39347832804211
 21
3.598496969875387
 31
0.0
  0
ARC
  5
5C31
330
1E
100
AcDbEntity
  8
0
100
AcDbCircle
 10
42.37230919070766
 20
3.596644910341996
 30
0.0
 40
0.02125
100
AcDbArc
 50
274.9999999999953
 51
5.000000000000245
  0
ARC
  5
5C32
330
1E
100
AcDbEntity
  8
0
100
AcDbCircle
 10
42.35335281666004
 20
3.813317257176958
 30
0.0
 40
0.02125
100
AcDbArc
 50
5.000000000000245
 51
95.00000000000019
  0
ARC
  5
5C33
330
1E
100
AcDbEntity
  8
0
100
AcDbCircle
 10
42.25819047356445
 20
3.813317257176965
 30
0.0
 40
0.02125
100
AcDbArc
 50
95.00000000000019
 51
184.9999999999998
  0
ARC
  5
5C34
330
1E
100
AcDbEntity
  8
0
100
AcDbCircle
 10
42.25819047356445
 20
3.813317257176958
 30
0.0
 40
0.02125
100
AcDbArc
 50
5.000000000000245
 51
95.00000000000019
  0
LINE
  5
5C35
330
1E
100
AcDbEntity
  8
0
100
AcDbLine
 10
42.27899890714545
 20
3.57547577300755
 30
0.0
 11
42.27899890714545
 21
3.57547577300755
 31
0.0
  0
ARC
  5
5C36
330
1E
100
AcDbEntity
  8
0
100
AcDbCircle
 10
42.27714684761206
 20
3.596644910342003
 30
0.0
 40
0.02125
100
AcDbArc
 50
184.9999999999998
 51
274.9999999999904
  0
ARC
  5
5C37
330
1E
100
AcDbEntity
  8
0
100
AcDbCircle
 10
42.27714684761206
 20
3.596644910341996
 30
0.0
 40
0.02125
100
AcDbArc
 50
274.9999999999953
 51
5.000000000000245
  0
LINE
  5
5C38
330
1E
100
AcDbEntity
  8
0
100
AcDbLine
 10
42.25597771027763
 20
3.594792850808612
 30
0.0
 11
42.23702133623
 21
3.811465197643574
 31
0.0
  0
LINE
  5
5C39
330
1E
100
AcDbEntity
  8
0
100
AcDbLine
 10
42.2793596108989
 20
3.815169316710342
 30
0.0
 11
42.29831598494651
 21
3.598496969875387
 31
0.0
  0
LINE
  5
5C3A
330
1E
100
AcDbEntity
  8
0
100
AcDbLine
 10
42.18419726780331
 20
3.815169316710342
 30
0.0
 11
42.20315364185093
 21
3.598496969875387
 31
0.0
  0
LINE
  5
5C3B
330
1E
100
AcDbEntity
  8
0
100
AcDbLine
 10
42.16081536718203
 20
3.594792850808612
 30
0.0
 11
42.14185899313441
 21
3.811465197643574
 31
0.0
  0
ARC
  5
5C3C
330
1E
100
AcDbEntity
  8
0
100
AcDbCircle
 10
42.18198450451647
 20
3.596644910341996
 30
0.0
 40
0.02125
100
AcDbArc
 50
274.9999999999953
 51
5.000000000000245
  0
ARC
  5
5C3D
330
1E
100
AcDbEntity
  8
0
100
AcDbCircle
 10
42.18198450451647
 20
3.596644910342003
 30
0.0
 40
0.02125
100
AcDbArc
 50
184.9999999999998
 51
274.9999999999904
  0
LINE
  5
5C3E
330
1E
100
AcDbEntity
  8
0
100
AcDbLine
 10
42.18383656404986
 20
3.57547577300755
 30
0.0
 11
42.18383656404986
 21
3.57547577300755
 31
0.0
  0
ARC
  5
5C3F
330
1E
100
AcDbEntity
  8
0
100
AcDbCircle
 10
42.16302813046886
 20
3.813317257176958
 30
0.0
 40
0.02125
100
AcDbArc
 50
5.000000000000245
 51
95.00000000000019
  0
ARC
  5
5C40
330
1E
100
AcDbEntity
  8
0
100
AcDbCircle
 10
42.16302813046886
 20
3.813317257176965
 30
0.0
 40
0.02125
100
AcDbArc
 50
95.00000000000019
 51
184.9999999999998
  0
LINE
  5
5C41
330
1E
100
AcDbEntity
  8
0
100
AcDbLine
 10
42.16117607093547
 20
3.834486394511419
 30
0.0
 11
42.16117607093547
 21
3.834486394511404
 31
0.0
  0
LINE
  5
5C42
330
1E
100
AcDbEntity
  8
0
100
AcDbLine
 10
42.06601372783988
 20
3.834486394511419
 30
0.0
 11
42.06601372783988
 21
3.834486394511404
 31
0.0
  0
ARC
  5
5C43
330
1E
100
AcDbEntity
  8
0
100
AcDbCircle
 10
42.06786578737327
 20
3.813317257176965
 30
0.0
 40
0.02125
100
AcDbArc
 50
95.00000000000019
 51
184.9999999999998
  0
ARC
  5
5C44
330
1E
100
AcDbEntity
  8
0
100
AcDbCircle
 10
42.06786578737327
 20
3.813317257176958
 30
0.0
 40
0.02125
100
AcDbArc
 50
5.000000000000245
 51
95.00000000000019
  0
LINE
  5
5C45
330
1E
100
AcDbEntity
  8
0
100
AcDbLine
 10
42.08867422095427
 20
3.57547577300755
 30
0.0
 11
42.08867422095426
 21
3.57547577300755
 31
0.0
  0
ARC
  5
5C46
330
1E
100
AcDbEntity
  8
0
100
AcDbCircle
 10
42.08682216142088
 20
3.596644910342003
 30
0.0
 40
0.02125
100
AcDbArc
 50
184.9999999999998
 51
274.9999999999904
  0
ARC
  5
5C47
330
1E
100
AcDbEntity
  8
0
100
AcDbCircle
 10
42.08682216142088
 20
3.596644910341996
 30
0.0
 40
0.02125
100
AcDbArc
 50
274.9999999999953
 51
5.000000000000245
  0
LINE
  5
5C48
330
1E
100
AcDbEntity
  8
0
100
AcDbLine
 10
42.06565302408644
 20
3.594792850808612
 30
0.0
 11
42.04669665003882
 21
3.811465197643574
 31
0.0
  0
LINE
  5
5C49
330
1E
100
AcDbEntity
  8
0
100
AcDbLine
 10
42.08903492470772
 20
3.815169316710342
 30
0.0
 11
42.10799129875534
 21
3.598496969875387
 31
0.0
  0
ARC
  5
5C4A
330
1E
100
AcDbEntity
  8
0
100
AcDbCircle
 10
41.97270344427767
 20
3.813317257176958
 30
0.0
 40
0.02125
100
AcDbArc
 50
5.000000000000245
 51
185.0000000000001
  0
LINE
  5
5C4B
330
1E
100
AcDbEntity
  8
0
100
AcDbLine
 10
41.99387258161213
 20
3.815169316710342
 30
0.0
 11
42.01282895565975
 21
3.598496969875387
 31
0.0
  0
ARC
  5
5C4C
330
1E
100
AcDbEntity
  8
0
100
AcDbCircle
 10
41.99165981832529
 20
3.596644910341996
 30
0.0
 40
0.02125
100
AcDbArc
 50
274.9999999999953
 51
5.000000000000245
  0
ARC
  5
5C4D
330
1E
100
AcDbEntity
  8
0
100
AcDbCircle
 10
41.99165981832529
 20
3.596644910342003
 30
0.0
 40
0.02125
100
AcDbArc
 50
184.9999999999998
 51
274.9999999999904
  0
LINE
  5
5C4E
330
1E
100
AcDbEntity
  8
0
100
AcDbLine
 10
41.99351187785868
 20
3.57547577300755
 30
0.0
 11
41.99351187785867
 21
3.57547577300755
 31
0.0
  0
LINE
  5
5C4F
330
1E
100
AcDbEntity
  8
0
100
AcDbLine
 10
43.1167341861781
 20
3.675275261247517
 30
0.0
 11
42.9697345233554
 21
3.714663702188513
 31
0.0
  0
LINE
  5
5C50
330
1E
100
AcDbEntity
  8
0
100
AcDbLine
 10
42.66000898328128
 20
3.815169316710349
 30
0.0
 11
42.67896535732889
 21
3.598496969875387
 31
0.0
  0
LINE
  5
5C51
330
1E
100
AcDbEntity
  8
0
100
AcDbLine
 10
42.63662708265999
 20
3.594792850808612
 30
0.0
 11
42.61767070861237
 21
3.811465197643574
 31
0.0
  0
ARC
  5
5C52
330
1E
100
AcDbEntity
  8
0
100
AcDbCircle
 10
42.65779621999444
 20
3.596644910341996
 30
0.0
 40
0.02125
100
AcDbArc
 50
184.9999999999998
 51
274.9999999999904
  0
LINE
  5
5C53
330
1E
100
AcDbEntity
  8
0
100
AcDbLine
 10
42.65964827952783
 20
3.57547577300755
 30
0.0
 11
42.65964827952782
 21
3.57547577300755
 31
0.0
  0
ARC
  5
5C54
330
1E
100
AcDbEntity
  8
0
100
AcDbCircle
 10
42.63883984594682
 20
3.813317257176958
 30
0.0
 40
0.02125
100
AcDbArc
 50
95.00000000000019
 51
184.9999999999998
  0
LINE
  5
5C55
330
1E
100
AcDbEntity
  8
0
100
AcDbLine
 10
42.66000898328128
 20
3.815169316710342
 30
0.0
 11
42.66765298589596
 21
3.727797967022045
 31
0.0
  0
ARC
  5
5C56
330
1E
100
AcDbEntity
  8
0
100
AcDbCircle
 10
42.65779621999444
 20
3.596644910341989
 30
0.0
 40
0.02125
100
AcDbArc
 50
274.9999999999953
 51
5.000000000000245
  0
ARC
  5
5C57
330
1E
100
AcDbEntity
  8
0
100
AcDbCircle
 10
42.63883984594682
 20
3.813317257176958
 30
0.0
 40
0.02125
100
AcDbArc
 50
5.000000000000245
 51
95.00000000000019
  0
LINE
  5
5C58
330
1E
100
AcDbEntity
  8
0
100
AcDbLine
 10
42.75517132637687
 20
3.815169316710349
 30
0.0
 11
42.77412770042448
 21
3.598496969875387
 31
0.0
  0
LINE
  5
5C59
330
1E
100
AcDbEntity
  8
0
100
AcDbLine
 10
42.73178942575558
 20
3.594792850808612
 30
0.0
 11
42.71283305170796
 21
3.811465197643574
 31
0.0
  0
ARC
  5
5C5A
330
1E
100
AcDbEntity
  8
0
100
AcDbCircle
 10
42.75295856309003
 20
3.596644910341996
 30
0.0
 40
0.02125
100
AcDbArc
 50
184.9999999999998
 51
274.9999999999904
  0
LINE
  5
5C5B
330
1E
100
AcDbEntity
  8
0
100
AcDbLine
 10
42.75481062262342
 20
3.57547577300755
 30
0.0
 11
42.75481062262342
 21
3.57547577300755
 31
0.0
  0
ARC
  5
5C5C
330
1E
100
AcDbEntity
  8
0
100
AcDbCircle
 10
42.73400218904241
 20
3.813317257176958
 30
0.0
 40
0.02125
100
AcDbArc
 50
95.00000000000019
 51
184.9999999999998
  0
LINE
  5
5C5D
330
1E
100
AcDbEntity
  8
0
100
AcDbLine
 10
42.75517132637687
 20
3.815169316710342
 30
0.0
 11
42.76281532899155
 21
3.727797967022045
 31
0.0
  0
ARC
  5
5C5E
330
1E
100
AcDbEntity
  8
0
100
AcDbCircle
 10
42.75295856309003
 20
3.596644910341989
 30
0.0
 40
0.02125
100
AcDbArc
 50
274.9999999999953
 51
5.000000000000245
  0
ARC
  5
5C5F
330
1E
100
AcDbEntity
  8
0
100
AcDbCircle
 10
42.73400218904241
 20
3.813317257176958
 30
0.0
 40
0.02125
100
AcDbArc
 50
5.000000000000245
 51
95.00000000000019
  0
LINE
  5
5C60
330
1E
100
AcDbEntity
  8
0
100
AcDbLine
 10
42.85033366947245
 20
3.815169316710349
 30
0.0
 11
42.86929004352007
 21
3.598496969875387
 31
0.0
  0
LINE
  5
5C61
330
1E
100
AcDbEntity
  8
0
100
AcDbLine
 10
42.82695176885118
 20
3.594792850808612
 30
0.0
 11
42.80799539480356
 21
3.811465197643574
 31
0.0
  0
ARC
  5
5C62
330
1E
100
AcDbEntity
  8
0
100
AcDbCircle
 10
42.84812090618562
 20
3.596644910341996
 30
0.0
 40
0.02125
100
AcDbArc
 50
184.9999999999998
 51
274.9999999999904
  0
LINE
  5
5C63
330
1E
100
AcDbEntity
  8
0
100
AcDbLine
 10
42.849972965719
 20
3.57547577300755
 30
0.0
 11
42.849972965719
 21
3.57547577300755
 31
0.0
  0
ARC
  5
5C64
330
1E
100
AcDbEntity
  8
0
100
AcDbCircle
 10
42.82916453213799
 20
3.813317257176958
 30
0.0
 40
0.02125
100
AcDbArc
 50
95.00000000000019
 51
184.9999999999998
  0
LINE
  5
5C65
330
1E
100
AcDbEntity
  8
0
100
AcDbLine
 10
42.85033366947245
 20
3.815169316710342
 30
0.0
 11
42.85797767208714
 21
3.727797967022045
 31
0.0
  0
ARC
  5
5C66
330
1E
100
AcDbEntity
  8
0
100
AcDbCircle
 10
42.84812090618562
 20
3.596644910341989
 30
0.0
 40
0.02125
100
AcDbArc
 50
274.9999999999953
 51
5.000000000000245
  0
ARC
  5
5C67
330
1E
100
AcDbEntity
  8
0
100
AcDbCircle
 10
42.82916453213799
 20
3.813317257176958
 30
0.0
 40
0.02125
100
AcDbArc
 50
5.000000000000245
 51
95.00000000000019
  0
LINE
  5
5C68
330
1E
100
AcDbEntity
  8
0
100
AcDbLine
 10
41.71119053230622
 20
3.983129024226091
 30
0.0
 11
41.71119053230622
 21
3.423129024226096
 31
0.0
  0
LINE
  5
5C69
330
1E
100
AcDbEntity
  8
0
100
AcDbLine
 10
41.95153430694323
 20
3.81146519764357
 30
0.0
 11
41.97049068099085
 21
3.594792850808616
 31
0.0
  0
VIEWPORT
  5
3698
330
3697
100
AcDbEntity
 67
     1
  8
0
  6
Continuous
100
AcDbViewport
 10
5.422051833080113
 20
4.100524930853637
 30
0.0
 40
14.9878304813566
 41
8.937845087913407
 68
     1
 69
     1
 12
5.422051833080113
 22
4.100524930853637
 13
0.0
 23
0.0
 14
0.05
 24
0.05
 15
0.1
 25
0.1
 16
0.0
 26
0.0
 36
1.0
 17
0.0
 27
0.0
 37
0.0
 42
50.0
 43
0.0
 44
0.0
 45
8.937845087913407
 50
0.0
 51
0.0
 72
   100
 90
    32800
  1

281
     0
 71
     1
 74
     0
110
0.0
120
0.0
130
0.0
111
1.0
121
0.0
131
0.0
112
0.0
122
1.0
132
0.0
 79
     0
146
0.0
  0
VIEWPORT
  5
3699
330
3697
100
AcDbEntity
 67
     1
  8
Viewport Layer
  6
Continuous
100
AcDbViewport
 10
5.375
 20
4.799999999999999
 30
0.0
 40
10.55
 41
6.599999999999999
 68
     2
 69
     2
 12
37.77189034061504
 22
6.68642415359567
 13
0.0
 23
0.0
 14
1.0
 24
1.0
 15
0.0
 25
0.0
 16
0.0
 26
0.0
 36
1.0
 17
0.0
 27
0.0
 37
0.0
 42
50.0
 43
0.0
 44
0.0
 45
14.60468376152263
 50
0.0
 51
0.0
 72
   100
 90
    32800
  1

281
     0
 71
     1
 74
     0
110
0.0
120
0.0
130
0.0
111
1.0
121
0.0
131
0.0
112
0.0
122
1.0
132
0.0
 79
     0
146
0.0
  0
LINE
  5
37DD
330
3697
100
AcDbEntity
 67
     1
  8
0
  6
Continuous
370
    30
100
AcDbLine
 10
10.74999999999999
 20
0.35
 30
0.0
 11
2.6
 21
0.35
 31
0.0
  0
LINE
  5
37DE
330
3697
100
AcDbEntity
 67
     1
  8
0
  6
Continuous
370
    30
100
AcDbLine
 10
10.74999999381128
 20
0.54999999669137
 30
0.0
 11
2.599999993811282
 21
0.54999999669137
 31
0.0
  0
MTEXT
  5
37DF
330
3697
100
AcDbEntity
 67
     1
  8
0
  6
Continuous
370
    30
100
AcDbMText
 10
5.0
 20
1.199999999999999
 30
0.0
 40
0.075
 41
1.599999999999999
 71
     1
 72
     5
  1
{\fCourier New|b0|i0|c0|p49;CONFIDENTIAL INFORMATION-- PROPERTY OF ACI. UNAUTHORIZED USE STRICTLY FORBIDDEN.}
 73
     1
 44
1.0
  0
MTEXT
  5
37E0
330
3697
100
AcDbEntity
 67
     1
  8
0
  6
Continuous
370
    30
100
AcDbMText
 10
4.9
 20
1.35
 30
0.0
 40
0.075
 41
1.9
 71
     1
 72
     5
  1
{\fArial|b0|i0|c0|p34;WARNING!}
 73
     1
 44
1.0
  0
LINE
  5
37E1
330
3697
100
AcDbEntity
 67
     1
  8
0
  6
Continuous
370
    30
100
AcDbLine
 10
10.74999999999999
 20
1.4
 30
0.0
 11
2.599999999999999
 21
1.4
 31
0.0
  0
MTEXT
  5
37E2
330
3697
100
AcDbEntity
 67
     1
  8
0
  6
Continuous
370
    30
100
AcDbMText
 10
0.4328956819283114
 20
0.1000000000000001
 30
0.0
 40
0.075
 41
2.911799999999999
 71
     1
 72
     5
  1
{\fArial|b0|i0|c0|p34;PART SPECIFICATION FORM   REV 5   DATE: 07-12-07}
 73
     1
 44
1.0
  0
MTEXT
  5
37E4
330
3697
100
AcDbEntity
 67
     1
  8
0
  6
Continuous
370
    30
100
AcDbMText
 10
2.8
 20
1.199999999999999
 30
0.0
 40
0.075
 41
2.0
 71
     1
 72
     5
  1
{\fCourier New|b0|i0|c0|p49;3 PLACE DECIMAL = ±0.010\P2 PLACE DECIMAL = ±0.130\P1 PLACE DECIMAL = ±0.300\PALL DIMENSIONS IN in[mm].\PDRAWING NOT TO SCALE.}
 73
     1
 44
1.0
  0
MTEXT
  5
37E5
330
3697
100
AcDbEntity
 67
     1
  8
0
  6
Continuous
370
    30
100
AcDbMText
 10
2.699999999999999
 20
1.35
 30
0.0
 40
0.075
 41
2.1
 71
     1
 72
     5
  1
{\fArial|b0|i0|c0|p34;TOLERANCE: (UNLESS NOTED)}
 73
     1
 44
1.0
  0
MTEXT
  5
37E6
330
3697
100
AcDbEntity
 67
     1
  8
0
  6
Continuous
370
    30
100
AcDbMText
 10
2.7
 20
0.5
 30
0.0
 40
0.075
 41
0.4499999938112829
 71
     1
 72
     5
  1
{\fArial|b0|i0|c0|p34;DATE}
 73
     1
 44
1.0
  0
MTEXT
  5
37E7
330
3697
100
AcDbEntity
 67
     1
  8
0
  6
Continuous
370
    30
100
AcDbMText
 10
2.7
 20
0.3
 30
0.0
 40
0.075
 41
0.95
 71
     1
 72
     5
  1
{\fCourier New|b0|i0|c0|p49;3-11-08}
 73
     1
 44
1.0
  0
LINE
  5
37E8
330
3697
100
AcDbEntity
 67
     1
  8
0
  6
Continuous
370
    30
100
AcDbLine
 10
2.6
 20
1.4
 30
0.0
 11
2.599999999999999
 21
0.55
 31
0.0
  0
LINE
  5
37E9
330
3697
100
AcDbEntity
 67
     1
  8
0
  6
Continuous
370
    30
100
AcDbLine
 10
2.6
 20
0.55
 30
0.0
 11
2.599999999999999
 21
0.1499999999999999
 31
0.0
  0
LINE
  5
37EA
330
3697
100
AcDbEntity
 67
     1
  8
0
  6
Continuous
370
    30
100
AcDbLine
 10
3.65
 20
0.55
 30
0.0
 11
3.649999993811282
 21
0.1499999966913699
 31
0.0
  0
MTEXT
  5
37EB
330
3697
100
AcDbEntity
 67
     1
  8
0
  6
Continuous
370
    30
100
AcDbMText
 10
3.75
 20
0.3
 30
0.0
 40
0.075
 41
3.399999999999999
 71
     1
 72
     5
  1
{\fCourier New|b0|i0|c0|p49;STRAP-ON TEMP w/ NEMA 4X BOX}
 73
     1
 44
1.0
  0
MTEXT
  5
37EC
330
3697
100
AcDbEntity
 67
     1
  8
0
  6
Continuous
370
    30
100
AcDbMText
 10
3.75
 20
0.5
 30
0.0
 40
0.075
 41
1.599999993811282
 71
     1
 72
     5
  1
{\fArial|b0|i0|c0|p34;DESCRIPTION}
 73
     1
 44
1.0
  0
LINE
  5
37ED
330
3697
100
AcDbEntity
 67
     1
  8
0
  6
Continuous
370
    30
100
AcDbLine
 10
4.8
 20
1.4
 30
0.0
 11
4.799999999999999
 21
0.55
 31
0.0
  0
MTEXT
  5
37F0
330
3697
100
AcDbEntity
 67
     1
  8
0
  6
Continuous
370
    30
100
AcDbMText
 10
6.9
 20
1.3
 30
0.0
 40
0.5
 41
1.399999982316157
 71
     1
 72
     5
  1
{\fTimes New Roman|b1|i1|c0|p18;ACI}
 73
     1
 44
1.0
  0
MTEXT
  5
37F1
330
3697
100
AcDbEntity
 67
     1
  8
0
  6
Continuous
370
    30
100
AcDbMText
 10
6.874999982316158
 20
0.7513157954338136
 30
0.0
 40
0.075
 41
1.425
 71
     1
 72
     5
  1
{\fTimes New Roman|b1|i1|c0|p18;Automation Components, Inc.}
 73
     1
 44
1.0
  0
LINE
  5
37F2
330
3697
100
AcDbEntity
 67
     1
  8
0
  6
Continuous
370
    30
100
AcDbLine
 10
6.8
 20
1.4
 30
0.0
 11
6.8
 21
0.55
 31
0.0
  0
MTEXT
  5
37F3
330
3697
100
AcDbEntity
 67
     1
  8
0
  6
Continuous
370
    30
100
AcDbMText
 10
7.25
 20
0.5
 30
0.0
 40
0.075
 41
0.6999999938112822
 71
     1
 72
     5
  1
{\fArial|b0|i0|c0|p34;DRAWN BY}
 73
     1
 44
1.0
  0
MTEXT
  5
37F4
330
3697
100
AcDbEntity
 67
     1
  8
0
  6
Continuous
370
    30
100
AcDbMText
 10
7.25
 20
0.3
 30
0.0
 40
0.075
 41
0.7
 71
     1
 72
     5
  1
{\fCourier New|b0|i0|c0|p49;DJK}
 73
     1
 44
1.0
  0
LINE
  5
37F5
330
3697
100
AcDbEntity
 67
     1
  8
0
  6
Continuous
370
    30
100
AcDbLine
 10
7.149999993811281
 20
0.1499999966913699
 30
0.0
 11
7.15
 21
0.55
 31
0.0
  0
LINE
  5
37F6
330
3697
100
AcDbEntity
 67
     1
  8
0
  6
Continuous
370
    30
100
AcDbLine
 10
7.949999993811282
 20
0.1499999966913699
 30
0.0
 11
7.95
 21
0.55
 31
0.0
  0
LINE
  5
37F7
330
3697
100
AcDbEntity
 67
     1
  8
0
  6
Continuous
370
    30
100
AcDbLine
 10
8.349999999999999
 20
1.4
 30
0.0
 11
8.349999999999999
 21
0.55
 31
0.0
  0
MTEXT
  5
37F8
330
3697
100
AcDbEntity
 67
     1
  8
0
  6
Continuous
370
    30
100
AcDbMText
 10
8.05
 20
0.5
 30
0.0
 40
0.075
 41
0.8999999938112832
 71
     1
 72
     5
  1
{\fArial|b0|i0|c0|p34;APPROVED BY}
 73
     1
 44
1.0
  0
MTEXT
  5
37F9
330
3697
100
AcDbEntity
 67
     1
  8
0
  6
Continuous
370
    30
100
AcDbMText
 10
8.099999999999999
 20
0.3
 30
0.0
 40
0.075
 41
0.85
 71
     1
 72
     5
  1
{\fCourier New|b0|i0|c0|p49;TJD}
 73
     1
 44
1.0
  0
MTEXT
  5
37FB
330
3697
100
AcDbEntity
 67
     1
  8
0
  6
Continuous
370
    30
100
AcDbMText
 10
9.05
 20
0.5
 30
0.0
 40
0.075
 41
1.099999999999999
 71
     1
 72
     5
  1
{\fArial|b0|i0|c0|p34;DRAWING NUMBER}
 73
     1
 44
1.0
  0
MTEXT
  5
37FC
330
3697
100
AcDbEntity
 67
     1
  8
0
  6
Continuous
370
    30
100
AcDbMText
 10
9.05
 20
0.3
 30
0.0
 40
0.075
 41
1.1
 71
     1
 72
     5
  1
{\fCourier New|b0|i0|c0|p49;M0000038}
 73
     1
 44
1.0
  0
LINE
  5
37FD
330
3697
100
AcDbEntity
 67
     1
  8
0
  6
Continuous
370
    30
100
AcDbLine
 10
8.950000000000001
 20
0.55
 30
0.0
 11
8.949999993811282
 21
0.1499999966913699
 31
0.0
  0
MTEXT
  5
37FE
330
3697
100
AcDbEntity
 67
     1
  8
0
  6
Continuous
370
    30
100
AcDbMText
 10
10.25
 20
0.5
 30
0.0
 40
0.075
 41
0.4999999938112838
 71
     1
 72
     5
  1
{\fArial|b0|i0|c0|p34;REV}
 73
     1
 44
1.0
  0
LINE
  5
37FF
330
3697
100
AcDbEntity
 67
     1
  8
0
  6
Continuous
370
    30
100
AcDbLine
 10
10.15
 20
0.55
 30
0.0
 11
10.14999999381128
 21
0.1499999966913699
 31
0.0
  0
MTEXT
  5
3800
330
3697
100
AcDbEntity
 67
     1
  8
0
  6
Continuous
370
    30
100
AcDbMText
 10
10.25
 20
0.3
 30
0.0
 40
0.075
 41
0.5
 71
     1
 72
     5
  1
{\fCourier New|b0|i0|c0|p49;2}
 73
     1
 44
1.0
  0
LINE
  5
3B62
330
3697
100
AcDbEntity
 67
     1
  8
0
  6
Continuous
370
    30
100
AcDbLine
 10
0.31
 20
8.200000000000001
 30
0.0
 11
0.31
 21
0.1499999999999999
 31
0.0
  0
LINE
  5
3B63
330
3697
100
AcDbEntity
 67
     1
  8
0
  6
Continuous
370
    30
100
AcDbLine
 10
0.31
 20
0.1499999999999999
 30
0.0
 11
10.74999999999999
 21
0.15
 31
0.0
  0
LINE
  5
3B64
330
3697
100
AcDbEntity
 67
     1
  8
0
  6
Continuous
370
    30
100
AcDbLine
 10
10.74999999999999
 20
0.15
 30
0.0
 11
10.74999999999999
 21
8.200000000000001
 31
0.0
  0
LINE
  5
3B65
330
3697
100
AcDbEntity
 67
     1
  8
0
  6
Continuous
370
    30
100
AcDbLine
 10
10.74999999999999
 20
8.200000000000001
 30
0.0
 11
0.31
 21
8.200000000000001
 31
0.0
  0
MTEXT
  5
3CB9
330
3697
100
AcDbEntity
 67
     1
  8
0
  6
Continuous
370
    30
100
AcDbMText
 10
8.549999992923018
 20
0.6999999902927221
 30
0.0
 40
0.075
 41
2.2
 71
     1
 72
     5
  1

 73
     1
 44
1.0
  0
LINE
  5
3CBA
330
3697
100
AcDbEntity
 67
     1
  8
0
  6
Continuous
370
    30
100
AcDbLine
 10
8.349999992923018
 20
0.7499999902927228
 30
0.0
 11
10.74999999292302
 21
0.7499999902927228
 31
0.0
  0
MTEXT
  5
3CBB
330
3697
100
AcDbEntity
 67
     1
  8
0
  6
Continuous
370
    30
100
AcDbMText
 10
8.866194154288818
 20
1.005753552083998
 30
0.0
 40
0.14
 41
2.2
 71
     1
 72
     5
  1
{\fCourier New|b0|i0|c0|p49;M0000038}
 73
     1
 44
1.0
  0
MTEXT
  5
3CBC
330
3697
100
AcDbEntity
 67
     1
  8
0
  6
Continuous
370
    30
100
AcDbMText
 10
9.549999992923018
 20
1.249999990292722
 30
0.0
 40
0.14
 41
2.399999999999999
 71
     2
 72
     5
  1
{\fArial|b0|i0|c0|p34;DRAWING NUMBER}
 73
     1
 44
1.0
  0
ENDSEC
  0
SECTION
  2
OBJECTS
  0
DICTIONARY
  5
C
330
0
100
AcDbDictionary
281
     1
  3
ACAD_GROUP
350
D
  3
ACAD_LAYOUT
350
19
  3
ACAD_MLINESTYLE
350
16
  3
ACAD_PLOTSETTINGS
350
18
  3
ACAD_PLOTSTYLENAME
350
E
  3
AcadDim
350
40B1
  3
AcDbVariableDictionary
350
1BFF
  3
DWGPROPS
350
2288
  0
DICTIONARY
  5
4526
330
1E
100
AcDbDictionary
280
     1
281
     1
  3
ACAD_SORTENTS
360
4527
  0
DICTIONARY
  5
D
102
{ACAD_REACTORS
330
C
102
}
330
C
100
AcDbDictionary
281
     1
  0
DICTIONARY
  5
19
102
{ACAD_REACTORS
330
C
102
}
330
C
100
AcDbDictionary
281
     1
  3
Form Rev 5--Page 1
350
2A95
  3
Form Rev 5--Page 2 Landscape
350
3696
  3
Form Rev 5--Page 2 Portrait
350
33D1
  3
Model
350
21
  0
DICTIONARY
  5
16
102
{ACAD_REACTORS
330
C
102
}
330
C
100
AcDbDictionary
281
     1
  3
Standard
350
17
  0
DICTIONARY
  5
18
102
{ACAD_REACTORS
330
C
102
}
330
C
100
AcDbDictionary
281
     1
  0
ACDBDICTIONARYWDFLT
  5
E
102
{ACAD_REACTORS
330
C
102
}
330
C
100
AcDbDictionary
281
     1
  3
Normal
350
F
100
AcDbDictionaryWithDefault
340
F
  0
XRECORD
  5
40B1
102
{ACAD_REACTORS
330
C
102
}
330
C
100
AcDbXrecord
280
     1
 90
   990106
  3

 60
     0
 61
     0
 62
     1
 63
     3
 64
     0
 65
     0
 66
     0
 67
     3
 68
     1
 69
     0
 70
     0
 71
     0
 72
     0
 40
0.0
170
     0
340
5BAF
  0
DICTIONARY
  5
1BFF
102
{ACAD_REACTORS
330
C
102
}
330
C
100
AcDbDictionary
281
     1
  3
DIMASSOC
350
1C00
  3
SORTENTS
350
446D
  0
XRECORD
  5
2288
102
{ACAD_REACTORS
330
C
102
}
330
C
100
AcDbXrecord
280
     1
  1
DWGPROPS COOKIE
  2

  3

  4

  6

  7

  8

  9

300
=
301
=
302
=
303
=
304
=
305
=
306
=
307
=
308
=
309
=
 40
0.334296712962963
 41
2452955.6374414
 42
2453119.504641921
  1

 90
        0
  0
SORTENTSTABLE
  5
4527
102
{ACAD_REACTORS
330
4526
102
}
330
4526
100
AcDbSortentsTable
330
1E
331
3917
  5
3917
331
3926
  5
3926
331
3915
  5
3915
331
3924
  5
3924
331
3922
  5
3922
331
3DCF
  5
3DCF
331
3813
  5
3813
331
392D
  5
392D
331
3811
  5
3811
331
3918
  5
3918
331
3916
  5
3916
331
3925
  5
3925
331
3923
  5
3923
331
3B5F
  5
3B5F
331
3814
  5
3814
331
3F15
  5
3F15
331
3812
  5
3812
  0
LAYOUT
  5
2A95
102
{ACAD_REACTORS
330
19
102
}
330
19
100
AcDbPlotSettings
  1

  2
Acrobat Distiller
  4
Letter
  6

 40
3.174999952316284
 41
3.174999952316284
 42
3.175003051757812
 43
3.17498779296875
 44
215.8999938964843
 45
279.3999938964843
 46
0.0
 47
0.0
 48
0.0
 49
0.0
140
0.0
141
0.0
142
1.0
143
1.0
 70
   656
 72
     0
 73
     0
 74
     5
  7

 75
    16
147
1.0
148
0.0
149
0.0
100
AcDbLayout
  1
Form Rev 5--Page 1
 70
     1
 71
     1
 10
-0.1249999981226883
 20
-0.1249999981226883
 11
8.37499976158142
 21
10.87499976158142
 12
0.0
 22
0.0
 32
0.0
 14
0.0494530321377837
 24
0.0013885746795381
 34
-0.0015258207003583
 15
12.82324545462383
 25
10.85855081292359
 35
0.0000000349246037
146
0.0
 13
0.0
 23
0.0
 33
0.0
 16
1.0
 26
0.0
 36
0.0
 17
0.0
 27
1.0
 37
0.0
 76
     0
330
2A96
331
2A97
  0
LAYOUT
  5
3696
102
{ACAD_REACTORS
330
19
102
}
330
19
100
AcDbPlotSettings
  1

  2
PrimoPDF
  4
Letter
  6

 40
3.174999952316284
 41
3.174999952316284
 42
3.175003051757812
 43
3.17498779296875
 44
215.8999938964843
 45
279.3999938964843
 46
0.0
 47
0.508
 48
0.0
 49
0.0
140
0.0
141
0.0
142
1.0
143
0.9938669343475183
 70
   660
 72
     0
 73
     1
 74
     1
  7

 75
     0
147
1.006170912262523
148
-2.537308651964964
149
-0.0209281830711063
100
AcDbLayout
  1
Form Rev 5--Page 2 Landscape
 70
     1
 71
     3
 10
-0.0442161864201661
 20
-0.1234094207122439
 11
10.88831985258039
 21
8.324459282419519
 12
0.0
 22
0.0
 32
0.0
 14
0.0999999999999997
 24
0.0014665757162347
 34
0.0
 15
10.74999999999999
 25
8.200000000000001
 35
0.0
146
0.0
 13
0.0
 23
0.0
 33
0.0
 16
1.0
 26
0.0
 36
0.0
 17
0.0
 27
1.0
 37
0.0
 76
     0
330
3697
331
3698
  0
LAYOUT
  5
33D1
102
{ACAD_REACTORS
330
19
102
}
330
19
100
AcDbPlotSettings
  1

  2
Acrobat Distiller
  4
Letter
  6

 40
3.174999952316284
 41
3.174999952316284
 42
3.175003051757812
 43
3.17498779296875
 44
215.8999938964843
 45
279.3999938964843
 46
0.0
 47
0.0
 48
0.0
 49
0.0
140
0.0
141
0.0
142
1.0
143
1.0
 70
   656
 72
     0
 73
     0
 74
     5
  7

 75
    16
147
1.0
148
0.0
149
0.0
100
AcDbLayout
  1
Form Rev 5--Page 2 Portrait
 70
     1
 71
     2
 10
-0.1249999981226883
 20
-0.1249999981226883
 11
8.37499976158142
 21
10.87499976158142
 12
0.0
 22
0.0
 32
0.0
 14
-0.0009269395825413
 24
0.0013885746795381
 34
-0.0015258207003583
 15
12.82324545462383
 25
10.85855081292359
 35
0.0000000349246037
146
0.0
 13
0.0
 23
0.0
 33
0.0
 16
1.0
 26
0.0
 36
0.0
 17
0.0
 27
1.0
 37
0.0
 76
     0
330
3360
331
3361
  0
LAYOUT
  5
21
102
{ACAD_REACTORS
330
19
102
}
330
19
100
AcDbPlotSettings
  1

  2
Auto production on ACIDC
  4

  6

 40
0.0
 41
0.0
 42
0.0
 43
0.0
 44
0.0
 45
0.0
 46
0.0
 47
0.0
 48
0.0
 49
0.0
140
0.0
141
0.0
142
1.0
143
1.0
 70
  1712
 72
     0
 73
     0
 74
     0
  7

 75
     0
147
1.0
148
0.0
149
0.0
100
AcDbLayout
  1
Model
 70
     1
 71
     0
 10
0.0
 20
0.0
 11
12.0
 21
9.0
 12
0.0
 22
0.0
 32
0.0
 14
0.0
 24
0.0
 34
0.0
 15
0.0
 25
0.0
 35
0.0
146
0.0
 13
0.0
 23
0.0
 33
0.0
 16
1.0
 26
0.0
 36
0.0
 17
0.0
 27
1.0
 37
0.0
 76
     0
330
1E
  0
MLINESTYLE
  5
17
102
{ACAD_REACTORS
330
16
102
}
330
16
100
AcDbMlineStyle
  2
STANDARD
 70
     0
  3

 62
   256
 51
90.0
 52
90.0
 71
     2
 49
0.5
 62
   256
  6
BYLAYER
 49
-0.5
 62
   256
  6
BYLAYER
  0
ACDBPLACEHOLDER
  5
F
102
{ACAD_REACTORS
330
E
102
}
330
E
  0
DICTIONARYVAR
  5
1C00
102
{ACAD_REACTORS
330
1BFF
102
}
330
1BFF
100
DictionaryVariables
280
     0
  1
1
  0
DICTIONARYVAR
  5
446D
102
{ACAD_REACTORS
330
1BFF
102
}
330
1BFF
100
DictionaryVariables
280
     0
  1
127
  0
ENDSEC
  0
EOF
