  0
SECTION
  2
HEADER
  9
$ACADVER
  1
AC1015
  9
$ACADMAINTVER
 70
     6
  9
$DWGCODEPAGE
  3
ANSI_1252
  9
$INSBASE
 10
0.0
 20
0.0
 30
0.0
  9
$EXTMIN
 10
-0.0305982905982906
 20
-0.426837606837607
 30
0.0
  9
$EXTMAX
 10
47.66626134009555
 20
13.63024719633719
 30
0.0
  9
$LIMMIN
 10
-0.5
 20
-0.5
  9
$LIMMAX
 10
60.0
 20
60.0
  9
$ORTHOMODE
 70
     1
  9
$REGENMODE
 70
     1
  9
$FILLMODE
 70
     1
  9
$QTEXTMODE
 70
     0
  9
$MIRRTEXT
 70
     1
  9
$LTSCALE
 40
1.0
  9
$ATTMODE
 70
     1
  9
$TEXTSIZE
 40
0.2
  9
$TRACEWID
 40
0.05
  9
$TEXTSTYLE
  7
Standard
  9
$CLAYER
  8
0
  9
$CELTYPE
  6
ByLayer
  9
$CECOLOR
 62
   256
  9
$CELTSCALE
 40
1.0
  9
$DISPSILH
 70
     0
  9
$DIMSCALE
 40
1.0
  9
$DIMASZ
 40
0.15
  9
$DIMEXO
 40
0.0625
  9
$DIMDLI
 40
0.38
  9
$DIMRND
 40
0.0
  9
$DIMDLE
 40
0.0
  9
$DIMEXE
 40
0.05
  9
$DIMTP
 40
0.0
  9
$DIMTM
 40
0.0
  9
$DIMTXT
 40
0.09
  9
$DIMCEN
 40
0.05
  9
$DIMTSZ
 40
0.0
  9
$DIMTOL
 70
     0
  9
$DIMLIM
 70
     0
  9
$DIMTIH
 70
     1
  9
$DIMTOH
 70
     1
  9
$DIMSE1
 70
     0
  9
$DIMSE2
 70
     0
  9
$DIMTAD
 70
     0
  9
$DIMZIN
 70
     0
  9
$DIMBLK
  1

  9
$DIMASO
 70
     1
  9
$DIMSHO
 70
     1
  9
$DIMPOST
  1

  9
$DIMAPOST
  1
mm
  9
$DIMALT
 70
     1
  9
$DIMALTD
 70
     2
  9
$DIMALTF
 40
25.4
  9
$DIMLFAC
 40
1.0
  9
$DIMTOFL
 70
     0
  9
$DIMTVP
 40
0.0
  9
$DIMTIX
 70
     0
  9
$DIMSOXD
 70
     0
  9
$DIMSAH
 70
     0
  9
$DIMBLK1
  1

  9
$DIMBLK2
  1

  9
$DIMSTYLE
  2
DIM STYLE 1
  9
$DIMCLRD
 70
     0
  9
$DIMCLRE
 70
     0
  9
$DIMCLRT
 70
     0
  9
$DIMTFAC
 40
1.0
  9
$DIMGAP
 40
0.09
  9
$DIMJUST
 70
     0
  9
$DIMSD1
 70
     0
  9
$DIMSD2
 70
     0
  9
$DIMTOLJ
 70
     1
  9
$DIMTZIN
 70
     0
  9
$DIMALTZ
 70
     0
  9
$DIMALTTZ
 70
     0
  9
$DIMUPT
 70
     0
  9
$DIMDEC
 70
     2
  9
$DIMTDEC
 70
     2
  9
$DIMALTU
 70
     2
  9
$DIMALTTD
 70
     2
  9
$DIMTXSTY
  7
Standard
  9
$DIMAUNIT
 70
     0
  9
$DIMADEC
 70
     0
  9
$DIMALTRND
 40
0.0
  9
$DIMAZIN
 70
     0
  9
$DIMDSEP
 70
    46
  9
$DIMATFIT
 70
     3
  9
$DIMFRAC
 70
     0
  9
$DIMLDRBLK
  1

  9
$DIMLUNIT
 70
     3
  9
$DIMLWD
 70
    -2
  9
$DIMLWE
 70
    -2
  9
$DIMTMOVE
 70
     0
  9
$LUNITS
 70
     2
  9
$LUPREC
 70
     4
  9
$SKETCHINC
 40
0.1
  9
$FILLETRAD
 40
0.295
  9
$AUNITS
 70
     0
  9
$AUPREC
 70
     0
  9
$MENU
  1
.
  9
$ELEVATION
 40
0.0
  9
$PELEVATION
 40
0.0
  9
$THICKNESS
 40
0.0
  9
$LIMCHECK
 70
     0
  9
$CHAMFERA
 40
0.0
  9
$CHAMFERB
 40
0.0
  9
$CHAMFERC
 40
0.0
  9
$CHAMFERD
 40
0.0
  9
$SKPOLY
 70
     0
  9
$TDCREATE
 40
2452955.595774734
  9
$TDUCREATE
 40
2452955.845774734
  9
$TDUPDATE
 40
2454530.327421111
  9
$TDUUPDATE
 40
2454530.577421111
  9
$TDINDWG
 40
2.0781897917
  9
$TDUSRTIMER
 40
2.0781897917
  9
$USRTIMER
 70
     1
  9
$ANGBASE
 50
0.0
  9
$ANGDIR
 70
     0
  9
$PDMODE
 70
     0
  9
$PDSIZE
 40
0.0
  9
$PLINEWID
 40
0.0
  9
$SPLFRAME
 70
     0
  9
$SPLINETYPE
 70
     6
  9
$SPLINESEGS
 70
     8
  9
$HANDSEED
  5
653F
  9
$SURFTAB1
 70
     6
  9
$SURFTAB2
 70
     6
  9
$SURFTYPE
 70
     6
  9
$SURFU
 70
     6
  9
$SURFV
 70
     6
  9
$UCSBASE
  2

  9
$UCSNAME
  2

  9
$UCSORG
 10
0.0
 20
0.0
 30
0.0
  9
$UCSXDIR
 10
1.0
 20
0.0
 30
0.0
  9
$UCSYDIR
 10
0.0
 20
1.0
 30
0.0
  9
$UCSORTHOREF
  2

  9
$UCSORTHOVIEW
 70
     0
  9
$UCSORGTOP
 10
0.0
 20
0.0
 30
0.0
  9
$UCSORGBOTTOM
 10
0.0
 20
0.0
 30
0.0
  9
$UCSORGLEFT
 10
0.0
 20
0.0
 30
0.0
  9
$UCSORGRIGHT
 10
0.0
 20
0.0
 30
0.0
  9
$UCSORGFRONT
 10
0.0
 20
0.0
 30
0.0
  9
$UCSORGBACK
 10
0.0
 20
0.0
 30
0.0
  9
$PUCSBASE
  2

  9
$PUCSNAME
  2

  9
$PUCSORG
 10
0.0
 20
0.0
 30
0.0
  9
$PUCSXDIR
 10
1.0
 20
0.0
 30
0.0
  9
$PUCSYDIR
 10
0.0
 20
1.0
 30
0.0
  9
$PUCSORTHOREF
  2

  9
$PUCSORTHOVIEW
 70
     0
  9
$PUCSORGTOP
 10
0.0
 20
0.0
 30
0.0
  9
$PUCSORGBOTTOM
 10
0.0
 20
0.0
 30
0.0
  9
$PUCSORGLEFT
 10
0.0
 20
0.0
 30
0.0
  9
$PUCSORGRIGHT
 10
0.0
 20
0.0
 30
0.0
  9
$PUCSORGFRONT
 10
0.0
 20
0.0
 30
0.0
  9
$PUCSORGBACK
 10
0.0
 20
0.0
 30
0.0
  9
$USERI1
 70
     0
  9
$USERI2
 70
     0
  9
$USERI3
 70
     0
  9
$USERI4
 70
     0
  9
$USERI5
 70
     0
  9
$USERR1
 40
0.0
  9
$USERR2
 40
0.0
  9
$USERR3
 40
0.0
  9
$USERR4
 40
0.0
  9
$USERR5
 40
0.0
  9
$WORLDVIEW
 70
     1
  9
$SHADEDGE
 70
     3
  9
$SHADEDIF
 70
    70
  9
$TILEMODE
 70
     0
  9
$MAXACTVP
 70
    64
  9
$PINSBASE
 10
0.0
 20
0.0
 30
0.0
  9
$PLIMCHECK
 70
     0
  9
$PEXTMIN
 10
0.0999999999999997
 20
0.0014665757162347
 30
0.0
  9
$PEXTMAX
 10
10.74999999999999
 20
8.200000000000001
 30
0.0
  9
$PLIMMIN
 10
-0.1522656578558071
 20
-0.1708750632113001
  9
$PLIMMAX
 10
10.90059262091351
 20
8.369969915508038
  9
$UNITMODE
 70
     0
  9
$VISRETAIN
 70
     1
  9
$PLINEGEN
 70
     0
  9
$PSLTSCALE
 70
     1
  9
$TREEDEPTH
 70
  3020
  9
$CMLSTYLE
  2
Standard
  9
$CMLJUST
 70
     0
  9
$CMLSCALE
 40
1.0
  9
$PROXYGRAPHICS
 70
     1
  9
$MEASUREMENT
 70
     0
  9
$CELWEIGHT
370
    30
  9
$ENDCAPS
280
     0
  9
$JOINSTYLE
280
     0
  9
$LWDISPLAY
290
     0
  9
$INSUNITS
 70
     0
  9
$HYPERLINKBASE
  1

  9
$STYLESHEET
  1

  9
$XEDIT
290
     1
  9
$CEPSNTYPE
380
     0
  9
$PSTYLEMODE
290
     1
  9
$FINGERPRINTGUID
  2
{B533FD67-EFBD-470B-9CAB-60DFF78E1657}
  9
$VERSIONGUID
  2
{BAA1F710-1EDC-4413-8BF6-4BC4A47FE526}
  9
$EXTNAMES
290
     1
  9
$PSVPSCALE
 40
0.0
  9
$OLESTARTUP
290
     0
  0
ENDSEC
  0
SECTION
  2
CLASSES
  0
CLASS
  1
ACDBDICTIONARYWDFLT
  2
AcDbDictionaryWithDefault
  3
AutoCAD 2000
 90
        0
280
     0
281
     0
  0
CLASS
  1
ACDBPLACEHOLDER
  2
AcDbPlaceHolder
  3
AutoCAD 2000
 90
        0
280
     0
281
     0
  0
CLASS
  1
LAYOUT
  2
AcDbLayout
  3
AutoCAD 2000
 90
        0
280
     0
281
     0
  0
CLASS
  1
DICTIONARYVAR
  2
AcDbDictionaryVar
  3
AutoCAD 2000
 90
        0
280
     0
281
     0
  0
CLASS
  1
SORTENTSTABLE
  2
AcDbSortentsTable
  3
AutoCAD 2000
 90
        0
280
     0
281
     0
  0
ENDSEC
  0
SECTION
  2
TABLES
  0
TABLE
  2
VPORT
  5
8
330
0
100
AcDbSymbolTable
 70
     4
  0
VPORT
  5
653E
330
8
100
AcDbSymbolTableRecord
100
AcDbViewportTableRecord
  2
*Active
 70
     0
 10
0.0
 20
0.0
 11
1.0
 21
1.0
 12
37.21723449229311
 22
12.22229472209795
 13
0.0
 23
0.0
 14
0.05
 24
0.05
 15
0.1
 25
0.1
 16
0.0
 26
0.0
 36
1.0
 17
0.0
 27
0.0
 37
0.0
 40
8.67410174906748
 41
1.676895306859205
 42
50.0
 43
0.0
 44
0.0
 50
0.0
 51
0.0
 71
     0
 72
   100
 73
     1
 74
     1
 75
     0
 76
     0
 77
     0
 78
     0
281
     0
 65
     1
110
0.0
120
0.0
130
0.0
111
1.0
121
0.0
131
0.0
112
0.0
122
1.0
132
0.0
 79
     0
146
0.0
  0
ENDTAB
  0
TABLE
  2
LTYPE
  5
5
330
0
100
AcDbSymbolTable
 70
    14
  0
LTYPE
  5
13
330
5
100
AcDbSymbolTableRecord
100
AcDbLinetypeTableRecord
  2
ByBlock
 70
     0
  3

 72
    65
 73
     0
 40
0.0
  0
LTYPE
  5
14
330
5
100
AcDbSymbolTableRecord
100
AcDbLinetypeTableRecord
  2
ByLayer
 70
     0
  3

 72
    65
 73
     0
 40
0.0
  0
LTYPE
  5
15
330
5
100
AcDbSymbolTableRecord
100
AcDbLinetypeTableRecord
  2
CONTINUOUS
 70
     0
  3
Solid
 72
    65
 73
     0
 40
0.0
  0
LTYPE
  5
22
330
5
100
AcDbSymbolTableRecord
100
AcDbLinetypeTableRecord
  2
HIDDEN
 70
     0
  3
Short Dashed
 72
    65
 73
     2
 40
0.06903
 49
0.04602
 74
     0
 49
-0.02301
 74
     0
  0
LTYPE
  5
23
330
5
100
AcDbSymbolTableRecord
100
AcDbLinetypeTableRecord
  2
DASHED
 70
     0
  3
Dashed
 72
    65
 73
     2
 40
0.13806
 49
0.06903
 74
     0
 49
-0.06903
 74
     0
  0
LTYPE
  5
24
330
5
100
AcDbSymbolTableRecord
100
AcDbLinetypeTableRecord
  2
LONGDASH
 70
     0
  3
Long Dash
 72
    65
 73
     2
 40
0.13806
 49
0.09204
 74
     0
 49
-0.04602
 74
     0
  0
LTYPE
  5
25
330
5
100
AcDbSymbolTableRecord
100
AcDbLinetypeTableRecord
  2
DOT
 70
     0
  3
Short Dotted
 72
    65
 73
     2
 40
0.02301
 49
0.0
 74
     0
 49
-0.02301
 74
     0
  0
LTYPE
  5
26
330
5
100
AcDbSymbolTableRecord
100
AcDbLinetypeTableRecord
  2
LONGDOT
 70
     0
  3
Dotted
 72
    65
 73
     2
 40
0.04602
 49
0.0
 74
     0
 49
-0.04602
 74
     0
  0
LTYPE
  5
27
330
5
100
AcDbSymbolTableRecord
100
AcDbLinetypeTableRecord
  2
DASHDOT
 70
     0
  3
Dot Center
 72
    65
 73
     4
 40
0.09204
 49
0.04602
 74
     0
 49
-0.02301
 74
     0
 49
0.0
 74
     0
 49
-0.02301
 74
     0
  0
LTYPE
  5
28
330
5
100
AcDbSymbolTableRecord
100
AcDbLinetypeTableRecord
  2
DIVIDE
 70
     0
  3
Dash Dot Dot
 72
    65
 73
     6
 40
0.11505
 49
0.04602
 74
     0
 49
-0.02301
 74
     0
 49
0.0
 74
     0
 49
-0.02301
 74
     0
 49
0.0
 74
     0
 49
-0.02301
 74
     0
  0
LTYPE
  5
29
330
5
100
AcDbSymbolTableRecord
100
AcDbLinetypeTableRecord
  2
CENTER
 70
     0
  3
Dash Center
 72
    65
 73
     4
 40
0.103545
 49
0.04602
 74
     0
 49
-0.02301
 74
     0
 49
0.011505
 74
     0
 49
-0.02301
 74
     0
  0
LTYPE
  5
2A
330
5
100
AcDbSymbolTableRecord
100
AcDbLinetypeTableRecord
  2
LONGCENTER
 70
     0
  3
Long Center
 72
    65
 73
     4
 40
0.149565
 49
0.09204
 74
     0
 49
-0.02301
 74
     0
 49
0.011505
 74
     0
 49
-0.02301
 74
     0
  0
LTYPE
  5
2B
330
5
100
AcDbSymbolTableRecord
100
AcDbLinetypeTableRecord
  2
PHANTOM
 70
     0
  3
Phantom
 72
    65
 73
     6
 40
0.13806
 49
0.04602
 74
     0
 49
-0.02301
 74
     0
 49
0.011505
 74
     0
 49
-0.02301
 74
     0
 49
0.011505
 74
     0
 49
-0.02301
 74
     0
  0
LTYPE
  5
2C
330
5
100
AcDbSymbolTableRecord
100
AcDbLinetypeTableRecord
  2
LONGPHANTOM
 70
     0
  3
Long Phantom
 72
    65
 73
     6
 40
0.18408
 49
0.09204
 74
     0
 49
-0.02301
 74
     0
 49
0.011505
 74
     0
 49
-0.02301
 74
     0
 49
0.011505
 74
     0
 49
-0.02301
 74
     0
  0
LTYPE
  5
3469
330
5
100
AcDbSymbolTableRecord
100
AcDbLinetypeTableRecord
  2
HIDDEN2
 70
     0
  3
Hidden (.5x) _ _ _ _ _ _ _ _ _ _ _ _ _ _ _ _ _
 72
    65
 73
     2
 40
0.1875
 49
0.125
 74
     0
 49
-0.0625
 74
     0
  0
LTYPE
  5
3EF5
330
5
100
AcDbSymbolTableRecord
100
AcDbLinetypeTableRecord
  2
DASHED2
 70
     0
  3
Dashed (.5x) _ _ _ _ _ _ _ _ _ _ _ _ _ _ _ _ _
 72
    65
 73
     2
 40
0.375
 49
0.25
 74
     0
 49
-0.125
 74
     0
  0
ENDTAB
  0
TABLE
  2
LAYER
  5
2
330
0
100
AcDbSymbolTable
 70
     4
  0
LAYER
  5
10
330
2
100
AcDbSymbolTableRecord
100
AcDbLayerTableRecord
  2
0
 70
     0
 62
     7
  6
CONTINUOUS
370
    -3
390
F
  0
LAYER
  5
1C70
330
2
100
AcDbSymbolTableRecord
100
AcDbLayerTableRecord
  2
Defpoints
 70
     0
 62
     7
  6
CONTINUOUS
290
     0
370
    -3
390
F
  0
LAYER
  5
39C2
330
2
100
AcDbSymbolTableRecord
100
AcDbLayerTableRecord
  2
Viewport Layer
 70
     0
 62
    -7
  6
CONTINUOUS
370
    -3
390
F
  0
LAYER
  5
3EF6
330
2
100
AcDbSymbolTableRecord
100
AcDbLayerTableRecord
  2
HIDDEN
 70
     0
 62
     7
  6
HIDDEN2
370
    -3
390
F
  0
ENDTAB
  0
TABLE
  2
STYLE
  5
3
330
0
100
AcDbSymbolTable
 70
     6
  0
STYLE
  5
11
330
3
100
AcDbSymbolTableRecord
100
AcDbTextStyleTableRecord
  2
Standard
 70
     0
 40
0.0
 41
1.0
 50
0.0
 71
     0
 42
0.2
  3
TIMES.TTF
  4

1001
ACAD
1000
Times New Roman
1071
       18
  0
STYLE
  5
2F
330
3
100
AcDbSymbolTableRecord
100
AcDbTextStyleTableRecord
  2
FONT0
 70
     0
 40
1.0
 41
1.0
 50
0.0
 71
     0
 42
1.0
  3
txt
  4

  0
STYLE
  5
30
330
3
100
AcDbSymbolTableRecord
100
AcDbTextStyleTableRecord
  2
FONT1
 70
     0
 40
1.0
 41
1.0
 50
0.0
 71
     0
 42
1.0
  3
txt
  4

  0
STYLE
  5
31
330
3
100
AcDbSymbolTableRecord
100
AcDbTextStyleTableRecord
  2
FONT2
 70
     0
 40
1.0
 41
1.0
 50
0.0
 71
     0
 42
1.0
  3
txt
  4

  0
STYLE
  5
32
330
3
100
AcDbSymbolTableRecord
100
AcDbTextStyleTableRecord
  2
FONT3
 70
     0
 40
1.0
 41
1.0
 50
0.0
 71
     0
 42
1.0
  3
txt
  4

  0
STYLE
  5
3EF4
330
3
100
AcDbSymbolTableRecord
100
AcDbTextStyleTableRecord
  2

 70
     1
 40
0.0
 41
1.0
 50
0.0
 71
     0
 42
0.2
  3
ltypeshp.shx
  4

  0
ENDTAB
  0
TABLE
  2
VIEW
  5
6
330
0
100
AcDbSymbolTable
 70
     3
  0
VIEW
  5
3B6C
330
6
100
AcDbSymbolTableRecord
100
AcDbViewTableRecord
  2
Page 1 Layout
 70
     0
 40
5.8
 10
6.0
 20
3.0
 41
11.8
 11
0.0
 21
0.0
 31
1.0
 12
0.0
 22
0.0
 32
0.0
 42
50.0
 43
0.0
 44
0.0
 50
0.0
 71
     0
281
     0
 72
     1
110
0.0
120
0.0
130
0.0
111
1.0
121
0.0
131
0.0
112
0.0
122
1.0
132
0.0
 79
     0
146
0.0
  0
VIEW
  5
3B6D
330
6
100
AcDbSymbolTableRecord
100
AcDbViewTableRecord
  2
Page 2 Portrait Layout
 70
     0
 40
11.8
 10
19.0
 20
6.0
 41
11.8
 11
0.0
 21
0.0
 31
1.0
 12
0.0
 22
0.0
 32
0.0
 42
50.0
 43
0.0
 44
0.0
 50
0.0
 71
     0
281
     0
 72
     1
110
0.0
120
0.0
130
0.0
111
1.0
121
0.0
131
0.0
112
0.0
122
1.0
132
0.0
 79
     0
146
0.0
  0
VIEW
  5
3C6D
330
6
100
AcDbSymbolTableRecord
100
AcDbViewTableRecord
  2
Page 2 Landscape Layout
 70
     0
 40
8.3
 10
34.0
 20
4.25
 41
15.8
 11
0.0
 21
0.0
 31
1.0
 12
0.0
 22
0.0
 32
0.0
 42
50.0
 43
0.0
 44
0.0
 50
0.0
 71
     0
281
     0
 72
     1
110
0.0
120
0.0
130
0.0
111
1.0
121
0.0
131
0.0
112
0.0
122
1.0
132
0.0
 79
     0
146
0.0
  0
ENDTAB
  0
TABLE
  2
UCS
  5
7
330
0
100
AcDbSymbolTable
 70
     0
  0
ENDTAB
  0
TABLE
  2
APPID
  5
9
330
0
100
AcDbSymbolTable
 70
     1
  0
APPID
  5
12
330
9
100
AcDbSymbolTableRecord
100
AcDbRegAppTableRecord
  2
ACAD
 70
     0
  0
ENDTAB
  0
TABLE
  2
DIMSTYLE
  5
A
330
0
100
AcDbSymbolTable
 70
     2
100
AcDbDimStyleTable
 71
     2
340
3F62
340
1BFC
  0
DIMSTYLE
105
1BFC
330
A
100
AcDbSymbolTableRecord
100
AcDbDimStyleTableRecord
  2
Standard
 70
     0
340
11
  0
DIMSTYLE
105
3F62
102
{ACAD_REACTORS
330
503D
330
518A
330
55D7
330
5B55
330
5C55
330
5000
330
5DCE
330
5DDC
330
5FFF
330
6000
330
5C6D
330
5C33
330
63B8
330
63D3
330
63D4
330
63AF
330
5163
330
5162
330
515A
330
510C
330
510B
330
510A
330
5107
330
5094
330
5093
330
5090
330
504B
330
5045
330
5044
330
5043
330
5040
330
501C
330
4FF6
330
606C
330
426E
330
5DB2
102
}
330
A
100
AcDbSymbolTableRecord
100
AcDbDimStyleTableRecord
  2
DIM STYLE 1
 70
     0
  4
mm
 41
0.15
 44
0.05
140
0.09
141
0.05
170
     1
271
     2
272
     2
277
     3
340
11
  0
ENDTAB
  0
TABLE
  2
BLOCK_RECORD
  5
1
330
0
100
AcDbSymbolTable
 70
    81
  0
BLOCK_RECORD
  5
1E
102
{ACAD_XDICTIONARY
360
4526
102
}
330
1
100
AcDbSymbolTableRecord
100
AcDbBlockTableRecord
  2
*Model_Space
340
21
  0
BLOCK_RECORD
  5
3697
330
1
100
AcDbSymbolTableRecord
100
AcDbBlockTableRecord
  2
*Paper_Space
340
3696
  0
BLOCK_RECORD
  5
35
330
1
100
AcDbSymbolTableRecord
100
AcDbBlockTableRecord
  2
F_015
340
0
  0
BLOCK_RECORD
  5
39
330
1
100
AcDbSymbolTableRecord
100
AcDbBlockTableRecord
  2
F_026
340
0
  0
BLOCK_RECORD
  5
40
330
1
100
AcDbSymbolTableRecord
100
AcDbBlockTableRecord
  2
F_032
340
0
  0
BLOCK_RECORD
  5
47
330
1
100
AcDbSymbolTableRecord
100
AcDbBlockTableRecord
  2
F_033
340
0
  0
BLOCK_RECORD
  5
4B
330
1
100
AcDbSymbolTableRecord
100
AcDbBlockTableRecord
  2
F_039
340
0
  0
BLOCK_RECORD
  5
52
330
1
100
AcDbSymbolTableRecord
100
AcDbBlockTableRecord
  2
F_041
340
0
  0
BLOCK_RECORD
  5
56
330
1
100
AcDbSymbolTableRecord
100
AcDbBlockTableRecord
  2
F_042
340
0
  0
BLOCK_RECORD
  5
5A
330
1
100
AcDbSymbolTableRecord
100
AcDbBlockTableRecord
  2
F_046
340
0
  0
BLOCK_RECORD
  5
5E
330
1
100
AcDbSymbolTableRecord
100
AcDbBlockTableRecord
  2
F_054
340
0
  0
BLOCK_RECORD
  5
65
330
1
100
AcDbSymbolTableRecord
100
AcDbBlockTableRecord
  2
F_056
340
0
  0
BLOCK_RECORD
  5
69
330
1
100
AcDbSymbolTableRecord
100
AcDbBlockTableRecord
  2
F_057
340
0
  0
BLOCK_RECORD
  5
2DD5
330
1
100
AcDbSymbolTableRecord
100
AcDbBlockTableRecord
  2
A$C02E13B6E
340
0
  0
BLOCK_RECORD
  5
31CD
330
1
100
AcDbSymbolTableRecord
100
AcDbBlockTableRecord
  2
A$C2D1730EF
340
0
  0
BLOCK_RECORD
  5
31E8
330
1
100
AcDbSymbolTableRecord
100
AcDbBlockTableRecord
  2
A$C2B5F7553
340
0
  0
BLOCK_RECORD
  5
2A96
330
1
100
AcDbSymbolTableRecord
100
AcDbBlockTableRecord
  2
*Paper_Space14
340
2A95
  0
BLOCK_RECORD
  5
3360
330
1
100
AcDbSymbolTableRecord
100
AcDbBlockTableRecord
  2
*Paper_Space15
340
33D1
  0
BLOCK_RECORD
  5
3743
330
1
100
AcDbSymbolTableRecord
100
AcDbBlockTableRecord
  2
A$C64F54320
340
0
  0
BLOCK_RECORD
  5
4169
330
1
100
AcDbSymbolTableRecord
100
AcDbBlockTableRecord
  2
*D17
340
0
  0
BLOCK_RECORD
  5
4176
330
1
100
AcDbSymbolTableRecord
100
AcDbBlockTableRecord
  2
*D18
340
0
  0
BLOCK_RECORD
  5
4183
330
1
100
AcDbSymbolTableRecord
100
AcDbBlockTableRecord
  2
*D19
340
0
  0
BLOCK_RECORD
  5
4190
330
1
100
AcDbSymbolTableRecord
100
AcDbBlockTableRecord
  2
*D20
340
0
  0
BLOCK_RECORD
  5
419D
330
1
100
AcDbSymbolTableRecord
100
AcDbBlockTableRecord
  2
*D21
340
0
  0
BLOCK_RECORD
  5
41AA
330
1
100
AcDbSymbolTableRecord
100
AcDbBlockTableRecord
  2
*D22
340
0
  0
BLOCK_RECORD
  5
41B7
330
1
100
AcDbSymbolTableRecord
100
AcDbBlockTableRecord
  2
*D23
340
0
  0
BLOCK_RECORD
  5
41C4
330
1
100
AcDbSymbolTableRecord
100
AcDbBlockTableRecord
  2
*D24
340
0
  0
BLOCK_RECORD
  5
41D1
330
1
100
AcDbSymbolTableRecord
100
AcDbBlockTableRecord
  2
*D25
340
0
  0
BLOCK_RECORD
  5
41DE
330
1
100
AcDbSymbolTableRecord
100
AcDbBlockTableRecord
  2
*D26
340
0
  0
BLOCK_RECORD
  5
41EB
330
1
100
AcDbSymbolTableRecord
100
AcDbBlockTableRecord
  2
*D27
340
0
  0
BLOCK_RECORD
  5
41F8
330
1
100
AcDbSymbolTableRecord
100
AcDbBlockTableRecord
  2
*D28
340
0
  0
BLOCK_RECORD
  5
4205
330
1
100
AcDbSymbolTableRecord
100
AcDbBlockTableRecord
  2
*D29
340
0
  0
BLOCK_RECORD
  5
4210
330
1
100
AcDbSymbolTableRecord
100
AcDbBlockTableRecord
  2
*D30
340
0
  0
BLOCK_RECORD
  5
421B
330
1
100
AcDbSymbolTableRecord
100
AcDbBlockTableRecord
  2
*D31
340
0
  0
BLOCK_RECORD
  5
4226
330
1
100
AcDbSymbolTableRecord
100
AcDbBlockTableRecord
  2
A$C5DEF5365
340
0
  0
BLOCK_RECORD
  5
51AD
330
1
100
AcDbSymbolTableRecord
100
AcDbBlockTableRecord
  2
*D33
340
0
  0
BLOCK_RECORD
  5
51BA
330
1
100
AcDbSymbolTableRecord
100
AcDbBlockTableRecord
  2
*D34
340
0
  0
BLOCK_RECORD
  5
51C7
330
1
100
AcDbSymbolTableRecord
100
AcDbBlockTableRecord
  2
*D35
340
0
  0
BLOCK_RECORD
  5
51D4
330
1
100
AcDbSymbolTableRecord
100
AcDbBlockTableRecord
  2
*D36
340
0
  0
BLOCK_RECORD
  5
51E1
330
1
100
AcDbSymbolTableRecord
100
AcDbBlockTableRecord
  2
*D37
340
0
  0
BLOCK_RECORD
  5
51EE
330
1
100
AcDbSymbolTableRecord
100
AcDbBlockTableRecord
  2
*D38
340
0
  0
BLOCK_RECORD
  5
51F8
330
1
100
AcDbSymbolTableRecord
100
AcDbBlockTableRecord
  2
*D39
340
0
  0
BLOCK_RECORD
  5
5205
330
1
100
AcDbSymbolTableRecord
100
AcDbBlockTableRecord
  2
*D40
340
0
  0
BLOCK_RECORD
  5
5212
330
1
100
AcDbSymbolTableRecord
100
AcDbBlockTableRecord
  2
*D41
340
0
  0
BLOCK_RECORD
  5
521F
330
1
100
AcDbSymbolTableRecord
100
AcDbBlockTableRecord
  2
*D42
340
0
  0
BLOCK_RECORD
  5
522C
330
1
100
AcDbSymbolTableRecord
100
AcDbBlockTableRecord
  2
*D43
340
0
  0
BLOCK_RECORD
  5
5239
330
1
100
AcDbSymbolTableRecord
100
AcDbBlockTableRecord
  2
*D44
340
0
  0
BLOCK_RECORD
  5
5246
330
1
100
AcDbSymbolTableRecord
100
AcDbBlockTableRecord
  2
*D45
340
0
  0
BLOCK_RECORD
  5
5253
330
1
100
AcDbSymbolTableRecord
100
AcDbBlockTableRecord
  2
*D46
340
0
  0
BLOCK_RECORD
  5
5260
330
1
100
AcDbSymbolTableRecord
100
AcDbBlockTableRecord
  2
*D47
340
0
  0
BLOCK_RECORD
  5
526D
330
1
100
AcDbSymbolTableRecord
100
AcDbBlockTableRecord
  2
*D48
340
0
  0
BLOCK_RECORD
  5
527A
330
1
100
AcDbSymbolTableRecord
100
AcDbBlockTableRecord
  2
*D49
340
0
  0
BLOCK_RECORD
  5
5287
330
1
100
AcDbSymbolTableRecord
100
AcDbBlockTableRecord
  2
*D50
340
0
  0
BLOCK_RECORD
  5
5294
330
1
100
AcDbSymbolTableRecord
100
AcDbBlockTableRecord
  2
*D51
340
0
  0
BLOCK_RECORD
  5
5743
330
1
100
AcDbSymbolTableRecord
100
AcDbBlockTableRecord
  2
*D52
340
0
  0
BLOCK_RECORD
  5
5B56
330
1
100
AcDbSymbolTableRecord
100
AcDbBlockTableRecord
  2
*D53
340
0
  0
BLOCK_RECORD
  5
5C34
330
1
100
AcDbSymbolTableRecord
100
AcDbBlockTableRecord
  2
*D54
340
0
  0
BLOCK_RECORD
  5
5C56
330
1
100
AcDbSymbolTableRecord
100
AcDbBlockTableRecord
  2
*D55
340
0
  0
BLOCK_RECORD
  5
5C6E
330
1
100
AcDbSymbolTableRecord
100
AcDbBlockTableRecord
  2
*D56
340
0
  0
BLOCK_RECORD
  5
5DB3
330
1
100
AcDbSymbolTableRecord
100
AcDbBlockTableRecord
  2
*D58
340
0
  0
BLOCK_RECORD
  5
5DCF
330
1
100
AcDbSymbolTableRecord
100
AcDbBlockTableRecord
  2
*D60
340
0
  0
BLOCK_RECORD
  5
5DDD
330
1
100
AcDbSymbolTableRecord
100
AcDbBlockTableRecord
  2
*D61
340
0
  0
BLOCK_RECORD
  5
5DF5
330
1
100
AcDbSymbolTableRecord
100
AcDbBlockTableRecord
  2
A$C691F69C4
340
0
  0
BLOCK_RECORD
  5
606D
330
1
100
AcDbSymbolTableRecord
100
AcDbBlockTableRecord
  2
*D68
340
0
  0
BLOCK_RECORD
  5
607A
330
1
100
AcDbSymbolTableRecord
100
AcDbBlockTableRecord
  2
*D69
340
0
  0
BLOCK_RECORD
  5
63D5
330
1
100
AcDbSymbolTableRecord
100
AcDbBlockTableRecord
  2
*D77
340
0
  0
BLOCK_RECORD
  5
63E2
330
1
100
AcDbSymbolTableRecord
100
AcDbBlockTableRecord
  2
*D78
340
0
  0
BLOCK_RECORD
  5
63EF
330
1
100
AcDbSymbolTableRecord
100
AcDbBlockTableRecord
  2
*D79
340
0
  0
BLOCK_RECORD
  5
63FC
330
1
100
AcDbSymbolTableRecord
100
AcDbBlockTableRecord
  2
*D80
340
0
  0
ENDTAB
  0
ENDSEC
  0
SECTION
  2
BLOCKS
  0
BLOCK
  5
1F
330
1E
100
AcDbEntity
  8
0
100
AcDbBlockBegin
  2
*Model_Space
 70
     0
 10
0.0
 20
0.0
 30
0.0
  3
*Model_Space
  1

  0
ENDBLK
  5
20
330
1E
100
AcDbEntity
  8
0
100
AcDbBlockEnd
  0
BLOCK
  5
36A4
330
3697
100
AcDbEntity
 67
     1
  8
0
370
    30
100
AcDbBlockBegin
  2
*Paper_Space
 70
     0
 10
0.0
 20
0.0
 30
0.0
  3
*Paper_Space
  1

  0
ENDBLK
  5
36A5
330
3697
100
AcDbEntity
 67
     1
  8
0
370
    30
100
AcDbBlockEnd
  0
BLOCK
  5
36
330
35
100
AcDbEntity
  8
0
100
AcDbBlockBegin
  2
F_015
 70
     0
 10
0.0
 20
0.0
 30
0.0
  3
F_015
  1

  0
SOLID
  5
37
330
35
100
AcDbEntity
  8
0
100
AcDbTrace
 10
0.0075
 20
0.031
 30
0.0
 11
-0.0075
 21
0.031
 31
0.0
 12
0.0075
 22
-0.031
 32
0.0
 13
-0.0075
 23
-0.031
 33
0.0
  0
ENDBLK
  5
38
330
35
100
AcDbEntity
  8
0
100
AcDbBlockEnd
  0
BLOCK
  5
3A
330
39
100
AcDbEntity
  8
0
100
AcDbBlockBegin
  2
F_026
 70
     0
 10
0.0
 20
0.0
 30
0.0
  3
F_026
  1

  0
LWPOLYLINE
  5
3B
330
39
100
AcDbEntity
  8
0
100
AcDbPolyline
 90
        2
 70
     1
 43
0.02
 10
0.01
 20
0.0
 42
1.0
 10
-0.01
 20
0.0
 42
1.0
  0
ENDBLK
  5
3F
330
39
100
AcDbEntity
  8
0
100
AcDbBlockEnd
  0
BLOCK
  5
41
330
40
100
AcDbEntity
  8
0
100
AcDbBlockBegin
  2
F_032
 70
     0
 10
0.0
 20
0.0
 30
0.0
  3
F_032
  1

  0
LWPOLYLINE
  5
42
330
40
100
AcDbEntity
  8
0
100
AcDbPolyline
 90
        2
 70
     1
 43
0.025
 10
0.0125
 20
0.0
 42
1.0
 10
-0.0125
 20
0.0
 42
1.0
  0
ENDBLK
  5
46
330
40
100
AcDbEntity
  8
0
100
AcDbBlockEnd
  0
BLOCK
  5
48
330
47
100
AcDbEntity
  8
0
100
AcDbBlockBegin
  2
F_033
 70
     0
 10
0.0
 20
0.0
 30
0.0
  3
F_033
  1

  0
SOLID
  5
49
330
47
100
AcDbEntity
  8
0
100
AcDbTrace
 10
0.025
 20
0.025
 30
0.0
 11
-0.025
 21
0.025
 31
0.0
 12
0.025
 22
-0.025
 32
0.0
 13
-0.025
 23
-0.025
 33
0.0
  0
ENDBLK
  5
4A
330
47
100
AcDbEntity
  8
0
100
AcDbBlockEnd
  0
BLOCK
  5
4C
330
4B
100
AcDbEntity
  8
0
100
AcDbBlockBegin
  2
F_039
 70
     0
 10
0.0
 20
0.0
 30
0.0
  3
F_039
  1

  0
LWPOLYLINE
  5
4D
330
4B
100
AcDbEntity
  8
0
100
AcDbPolyline
 90
        2
 70
     1
 43
0.03
 10
0.015
 20
0.0
 42
1.0
 10
-0.015
 20
0.0
 42
1.0
  0
ENDBLK
  5
51
330
4B
100
AcDbEntity
  8
0
100
AcDbBlockEnd
  0
BLOCK
  5
53
330
52
100
AcDbEntity
  8
0
100
AcDbBlockBegin
  2
F_041
 70
     0
 10
0.0
 20
0.0
 30
0.0
  3
F_041
  1

  0
SOLID
  5
54
330
52
100
AcDbEntity
  8
0
100
AcDbTrace
 10
0.03
 20
0.03
 30
0.0
 11
-0.03
 21
0.03
 31
0.0
 12
0.03
 22
-0.03
 32
0.0
 13
-0.03
 23
-0.03
 33
0.0
  0
ENDBLK
  5
55
330
52
100
AcDbEntity
  8
0
100
AcDbBlockEnd
  0
BLOCK
  5
57
330
56
100
AcDbEntity
  8
0
100
AcDbBlockBegin
  2
F_042
 70
     0
 10
0.0
 20
0.0
 30
0.0
  3
F_042
  1

  0
SOLID
  5
58
330
56
100
AcDbEntity
  8
0
100
AcDbTrace
 10
0.03
 20
0.03
 30
0.0
 11
-0.03
 21
0.03
 31
0.0
 12
0.03
 22
-0.03
 32
0.0
 13
-0.03
 23
-0.03
 33
0.0
  0
ENDBLK
  5
59
330
56
100
AcDbEntity
  8
0
100
AcDbBlockEnd
  0
BLOCK
  5
5B
330
5A
100
AcDbEntity
  8
0
100
AcDbBlockBegin
  2
F_046
 70
     0
 10
0.0
 20
0.0
 30
0.0
  3
F_046
  1

  0
SOLID
  5
5C
330
5A
100
AcDbEntity
  8
0
100
AcDbTrace
 10
0.031
 20
0.0075
 30
0.0
 11
-0.031
 21
0.0075
 31
0.0
 12
0.031
 22
-0.0075
 32
0.0
 13
-0.031
 23
-0.0075
 33
0.0
  0
ENDBLK
  5
5D
330
5A
100
AcDbEntity
  8
0
100
AcDbBlockEnd
  0
BLOCK
  5
5F
330
5E
100
AcDbEntity
  8
0
100
AcDbBlockBegin
  2
F_054
 70
     0
 10
0.0
 20
0.0
 30
0.0
  3
F_054
  1

  0
LWPOLYLINE
  5
60
330
5E
100
AcDbEntity
  8
0
100
AcDbPolyline
 90
        2
 70
     1
 43
0.048
 10
0.024
 20
0.0
 42
1.0
 10
-0.024
 20
0.0
 42
1.0
  0
ENDBLK
  5
64
330
5E
100
AcDbEntity
  8
0
100
AcDbBlockEnd
  0
BLOCK
  5
66
330
65
100
AcDbEntity
  8
0
100
AcDbBlockBegin
  2
F_056
 70
     0
 10
0.0
 20
0.0
 30
0.0
  3
F_056
  1

  0
SOLID
  5
67
330
65
100
AcDbEntity
  8
0
100
AcDbTrace
 10
0.075
 20
0.075
 30
0.0
 11
-0.075
 21
0.075
 31
0.0
 12
0.075
 22
-0.075
 32
0.0
 13
-0.075
 23
-0.075
 33
0.0
  0
ENDBLK
  5
68
330
65
100
AcDbEntity
  8
0
100
AcDbBlockEnd
  0
BLOCK
  5
6A
330
69
100
AcDbEntity
  8
0
100
AcDbBlockBegin
  2
F_057
 70
     0
 10
0.0
 20
0.0
 30
0.0
  3
F_057
  1

  0
LWPOLYLINE
  5
6B
330
69
100
AcDbEntity
  8
0
100
AcDbPolyline
 90
        2
 70
     1
 43
0.15
 10
0.075
 20
0.0
 42
1.0
 10
-0.075
 20
0.0
 42
1.0
  0
ENDBLK
  5
6F
330
69
100
AcDbEntity
  8
0
100
AcDbBlockEnd
  0
BLOCK
  5
2DD7
330
2DD5
100
AcDbEntity
  8
0
370
    30
100
AcDbBlockBegin
  2
A$C02E13B6E
 70
     0
 10
0.0
 20
0.0
 30
0.0
  3
A$C02E13B6E
  1

  0
MTEXT
  5
2DD6
330
2DD5
100
AcDbEntity
  8
0
  6
Continuous
370
    30
100
AcDbMText
 10
0.0061000008915741
 20
0.1178557990997175
 30
0.0
 40
0.075
 41
0.6
 71
     1
 72
     5
  1
{\fCourier New|b0|i0|c0|p49;NO}
 73
     1
 44
1.0
  0
ENDBLK
  5
2DD8
330
2DD5
100
AcDbEntity
  8
0
370
    30
100
AcDbBlockEnd
  0
BLOCK
  5
31E6
330
31CD
100
AcDbEntity
  8
0
370
    30
100
AcDbBlockBegin
  2
A$C2D1730EF
 70
     0
 10
0.0
 20
0.0
 30
0.0
  3
A$C2D1730EF
  1

  0
LINE
  5
31CE
330
31CD
100
AcDbEntity
  8
0
  6
Continuous
370
    30
100
AcDbLine
 10
-0.0000000176838428
 20
0.0000000059601302
 30
0.0
 11
3.899999982316158
 21
0.0000000059601302
 31
0.0
  0
MTEXT
  5
31CF
330
31CD
100
AcDbEntity
  8
0
  6
Continuous
370
    30
100
AcDbMText
 10
1.999999982316158
 20
0.6000000059601299
 30
0.0
 40
0.1
 41
1.1
 71
     1
 72
     5
  1
{\fCourier New|b0|i0|c0|p49;06-15-07}
 73
     1
 44
1.0
  0
LINE
  5
31D0
330
31CD
100
AcDbEntity
  8
0
  6
Continuous
370
    30
100
AcDbLine
 10
-0.0000000176838428
 20
0.4000000059601306
 30
0.0
 11
3.899999982316158
 21
0.4000000059601306
 31
0.0
  0
MTEXT
  5
31D1
330
31CD
100
AcDbEntity
  8
0
  6
Continuous
370
    30
100
AcDbMText
 10
1.699999982316157
 20
1.100000005960129
 30
0.0
 40
0.14
 41
2.2
 71
     1
 72
     5
  1
{\fCourier New|b0|i0|c0|p49;123456789012345}
 73
     1
 44
1.0
  0
MTEXT
  5
31D2
330
31CD
100
AcDbEntity
  8
0
  6
Continuous
370
    30
100
AcDbMText
 10
2.724999982316156
 20
1.450000005960127
 30
0.0
 40
0.2
 41
2.35
 71
     2
 72
     5
  1
{\fArial|b0|i0|c0|p34;ITEM NUMBER}
 73
     1
 44
1.0
  0
LINE
  5
31D3
330
31CD
100
AcDbEntity
  8
0
  6
Continuous
370
    30
100
AcDbLine
 10
-0.0000000176838428
 20
0.8000000059601291
 30
0.0
 11
3.899999982316158
 21
0.8000000059601291
 31
0.0
  0
MTEXT
  5
31D4
330
31CD
100
AcDbEntity
  8
0
  6
Continuous
370
    30
100
AcDbMText
 10
0.0749999823161574
 20
0.9500000059601294
 30
0.0
 40
0.075
 41
1.425
 71
     1
 72
     5
  1
{\fTimes New Roman|b1|i1|c0|p18;Automation Components, Inc.}
 73
     1
 44
1.0
  0
MTEXT
  5
31D5
330
31CD
100
AcDbEntity
  8
0
  6
Continuous
370
    30
100
AcDbMText
 10
0.0749999823161574
 20
1.50000000596013
 30
0.0
 40
0.5
 41
1.425
 71
     1
 72
     5
  1
{\fTimes New Roman|b1|i1|c0|p18;ACI}
 73
     1
 44
1.0
  0
LINE
  5
31D6
330
31CD
100
AcDbEntity
  8
0
  6
Continuous
370
    30
100
AcDbLine
 10
-0.0000000176838428
 20
1.550000005960129
 30
0.0
 11
-0.0000000176838428
 21
0.0000000059601302
 31
0.0
  0
MTEXT
  5
31D7
330
31CD
100
AcDbEntity
  8
0
  6
Continuous
370
    30
100
AcDbMText
 10
0.1999999823161573
 20
0.6000000059601299
 30
0.0
 40
0.1
 41
1.077199999999999
 71
     1
 72
     5
  1
{\fCourier New|b0|i0|c0|p49;33nnnnnn}
 73
     1
 44
1.0
  0
MTEXT
  5
31D8
330
31CD
100
AcDbEntity
  8
0
  6
Continuous
370
    30
100
AcDbMText
 10
0.0999999823161577
 20
0.7500000059601302
 30
0.0
 40
0.075
 41
1.399999999999999
 71
     1
 72
     5
  1
{\fArial|b0|i0|c0|p34;DRAWING NUMBER}
 73
     1
 44
1.0
  0
MTEXT
  5
31D9
330
31CD
100
AcDbEntity
  8
0
  6
Continuous
370
    30
100
AcDbMText
 10
0.1999999823161573
 20
0.2000000059601295
 30
0.0
 40
0.1
 41
3.75
 71
     1
 72
     5
  1
{\fCourier New|b0|i0|c0|p49;ECO: }
 73
     1
 44
1.0
  0
MTEXT
  5
31DA
330
31CD
100
AcDbEntity
  8
0
  6
Continuous
370
    30
100
AcDbMText
 10
0.0999999823161577
 20
0.3500000059601298
 30
0.0
 40
0.075
 41
3.799999999999999
 71
     1
 72
     5
  1
{\fArial|b0|i0|c0|p34;ECO/REASON}
 73
     1
 44
1.0
  0
LINE
  5
31DB
330
31CD
100
AcDbEntity
  8
0
  6
Continuous
370
    30
100
AcDbLine
 10
1.499999982316157
 20
1.550000005960129
 30
0.0
 11
1.499999982316158
 21
0.8000000059601291
 31
0.0
  0
MTEXT
  5
31DC
330
31CD
100
AcDbEntity
  8
0
  6
Continuous
370
    30
100
AcDbMText
 10
1.599999982316157
 20
0.6000000059601299
 30
0.0
 40
0.1
 41
0.3
 71
     1
 72
     5
  1
{\fCourier New|b0|i0|c0|p49;1}
 73
     1
 44
1.0
  0
LINE
  5
31DD
330
31CD
100
AcDbEntity
  8
0
  6
Continuous
370
    30
100
AcDbLine
 10
1.499999982316158
 20
0.8000000059601291
 30
0.0
 11
1.499999982316158
 21
0.4000000059601306
 31
0.0
  0
MTEXT
  5
31DE
330
31CD
100
AcDbEntity
  8
0
  6
Continuous
370
    30
100
AcDbMText
 10
1.599999982316157
 20
0.7500000059601302
 30
0.0
 40
0.075
 41
0.4999999999999988
 71
     1
 72
     5
  1
{\fArial|b0|i0|c0|p34;REV}
 73
     1
 44
1.0
  0
LINE
  5
31DF
330
31CD
100
AcDbEntity
  8
0
  6
Continuous
370
    30
100
AcDbLine
 10
1.899999982316157
 20
0.7500000059601284
 30
0.0
 11
1.899999982316157
 21
0.4000000059601306
 31
0.0
  0
MTEXT
  5
31E0
330
31CD
100
AcDbEntity
  8
0
  6
Continuous
370
    30
100
AcDbMText
 10
1.999999982316158
 20
0.7500000059601302
 30
0.0
 40
0.075
 41
0.399999999999999
 71
     1
 72
     5
  1
{\fArial|b0|i0|c0|p34;DATE}
 73
     1
 44
1.0
  0
MTEXT
  5
31E1
330
31CD
100
AcDbEntity
  8
0
  6
Continuous
370
    30
100
AcDbMText
 10
3.099999982316157
 20
0.3500000059601298
 30
0.0
 40
0.075
 41
0.8000000000000005
 71
     1
 72
     5
  1
{\fArial|b0|i0|c0|p34;APPROVED BY}
 73
     1
 44
1.0
  0
MTEXT
  5
31E2
330
31CD
100
AcDbEntity
  8
0
  6
Continuous
370
    30
100
AcDbMText
 10
3.099999982316157
 20
0.2000000059601295
 30
0.0
 40
0.1
 41
0.3716
 71
     1
 72
     5
  1
{\fCourier New|b0|i0|c0|p49;INI}
 73
     1
 44
1.0
  0
MTEXT
  5
31E3
330
31CD
100
AcDbEntity
  8
0
  6
Continuous
370
    30
100
AcDbMText
 10
3.099999982316157
 20
0.6000000059601299
 30
0.0
 40
0.1
 41
0.5
 71
     1
 72
     5
  1
{\fCourier New|b0|i0|c0|p49;INI}
 73
     1
 44
1.0
  0
MTEXT
  5
31E4
330
31CD
100
AcDbEntity
  8
0
  6
Continuous
370
    30
100
AcDbMText
 10
3.099999982316157
 20
0.7500000059601302
 30
0.0
 40
0.075
 41
0.7999999999999992
 71
     1
 72
     5
  1
{\fArial|b0|i0|c0|p34;DRAWN BY}
 73
     1
 44
1.0
  0
LINE
  5
31E5
330
31CD
100
AcDbEntity
  8
0
  6
Continuous
370
    30
100
AcDbLine
 10
2.999999982316158
 20
0.8000000059601291
 30
0.0
 11
2.999999982316158
 21
0.0000000059601302
 31
0.0
  0
ENDBLK
  5
31E7
330
31CD
100
AcDbEntity
  8
0
370
    30
100
AcDbBlockEnd
  0
BLOCK
  5
3201
330
31E8
100
AcDbEntity
  8
0
370
    30
100
AcDbBlockBegin
  2
A$C2B5F7553
 70
     0
 10
0.0
 20
0.0
 30
0.0
  3
A$C2B5F7553
  1

  0
LINE
  5
31E9
330
31E8
100
AcDbEntity
  8
0
  6
Continuous
370
    30
100
AcDbLine
 10
-0.0000000176838428
 20
0.0000000059601302
 30
0.0
 11
3.899999982316158
 21
0.0000000059601302
 31
0.0
  0
MTEXT
  5
31EA
330
31E8
100
AcDbEntity
  8
0
  6
Continuous
370
    30
100
AcDbMText
 10
1.999999982316158
 20
0.6000000059601299
 30
0.0
 40
0.1
 41
1.1
 71
     1
 72
     5
  1
{\fCourier New|b0|i0|c0|p49;06-15-07}
 73
     1
 44
1.0
  0
LINE
  5
31EB
330
31E8
100
AcDbEntity
  8
0
  6
Continuous
370
    30
100
AcDbLine
 10
-0.0000000176838428
 20
0.4000000059601306
 30
0.0
 11
3.899999982316158
 21
0.4000000059601306
 31
0.0
  0
MTEXT
  5
31EC
330
31E8
100
AcDbEntity
  8
0
  6
Continuous
370
    30
100
AcDbMText
 10
1.699999982316157
 20
1.100000005960129
 30
0.0
 40
0.14
 41
2.2
 71
     1
 72
     5
  1
{\fCourier New|b0|i0|c0|p49;123456789012345}
 73
     1
 44
1.0
  0
MTEXT
  5
31ED
330
31E8
100
AcDbEntity
  8
0
  6
Continuous
370
    30
100
AcDbMText
 10
2.724999982316156
 20
1.450000005960127
 30
0.0
 40
0.2
 41
2.35
 71
     2
 72
     5
  1
{\fArial|b0|i0|c0|p34;ITEM NUMBER}
 73
     1
 44
1.0
  0
LINE
  5
31EE
330
31E8
100
AcDbEntity
  8
0
  6
Continuous
370
    30
100
AcDbLine
 10
-0.0000000176838428
 20
0.8000000059601291
 30
0.0
 11
3.899999982316158
 21
0.8000000059601291
 31
0.0
  0
MTEXT
  5
31EF
330
31E8
100
AcDbEntity
  8
0
  6
Continuous
370
    30
100
AcDbMText
 10
0.0749999823161574
 20
0.9500000059601294
 30
0.0
 40
0.075
 41
1.425
 71
     1
 72
     5
  1
{\fTimes New Roman|b1|i1|c0|p18;Automation Components, Inc.}
 73
     1
 44
1.0
  0
MTEXT
  5
31F0
330
31E8
100
AcDbEntity
  8
0
  6
Continuous
370
    30
100
AcDbMText
 10
0.0749999823161574
 20
1.50000000596013
 30
0.0
 40
0.5
 41
1.425
 71
     1
 72
     5
  1
{\fTimes New Roman|b1|i1|c0|p18;ACI}
 73
     1
 44
1.0
  0
LINE
  5
31F1
330
31E8
100
AcDbEntity
  8
0
  6
Continuous
370
    30
100
AcDbLine
 10
-0.0000000176838428
 20
1.550000005960129
 30
0.0
 11
-0.0000000176838428
 21
0.0000000059601302
 31
0.0
  0
MTEXT
  5
31F2
330
31E8
100
AcDbEntity
  8
0
  6
Continuous
370
    30
100
AcDbMText
 10
0.1999999823161573
 20
0.6000000059601299
 30
0.0
 40
0.1
 41
1.077199999999999
 71
     1
 72
     5
  1
{\fCourier New|b0|i0|c0|p49;33nnnnnn}
 73
     1
 44
1.0
  0
MTEXT
  5
31F3
330
31E8
100
AcDbEntity
  8
0
  6
Continuous
370
    30
100
AcDbMText
 10
0.0999999823161577
 20
0.7500000059601302
 30
0.0
 40
0.075
 41
1.399999999999999
 71
     1
 72
     5
  1
{\fArial|b0|i0|c0|p34;DRAWING NUMBER}
 73
     1
 44
1.0
  0
MTEXT
  5
31F4
330
31E8
100
AcDbEntity
  8
0
  6
Continuous
370
    30
100
AcDbMText
 10
0.1999999823161573
 20
0.2000000059601295
 30
0.0
 40
0.1
 41
2.8
 71
     1
 72
     5
  1
{\fCourier New|b0|i0|c0|p49;ECO: }
 73
     1
 44
1.0
  0
MTEXT
  5
31F5
330
31E8
100
AcDbEntity
  8
0
  6
Continuous
370
    30
100
AcDbMText
 10
0.0999999823161577
 20
0.3500000059601298
 30
0.0
 40
0.075
 41
3.799999999999999
 71
     1
 72
     5
  1
{\fArial|b0|i0|c0|p34;ECO/REASON}
 73
     1
 44
1.0
  0
LINE
  5
31F6
330
31E8
100
AcDbEntity
  8
0
  6
Continuous
370
    30
100
AcDbLine
 10
1.499999982316157
 20
1.550000005960129
 30
0.0
 11
1.499999982316158
 21
0.8000000059601291
 31
0.0
  0
MTEXT
  5
31F7
330
31E8
100
AcDbEntity
  8
0
  6
Continuous
370
    30
100
AcDbMText
 10
1.599999982316157
 20
0.6000000059601299
 30
0.0
 40
0.1
 41
0.3
 71
     1
 72
     5
  1
{\fCourier New|b0|i0|c0|p49;1}
 73
     1
 44
1.0
  0
LINE
  5
31F8
330
31E8
100
AcDbEntity
  8
0
  6
Continuous
370
    30
100
AcDbLine
 10
1.499999982316158
 20
0.8000000059601291
 30
0.0
 11
1.499999982316158
 21
0.4000000059601306
 31
0.0
  0
MTEXT
  5
31F9
330
31E8
100
AcDbEntity
  8
0
  6
Continuous
370
    30
100
AcDbMText
 10
1.599999982316157
 20
0.7500000059601302
 30
0.0
 40
0.075
 41
0.4999999999999988
 71
     1
 72
     5
  1
{\fArial|b0|i0|c0|p34;REV}
 73
     1
 44
1.0
  0
LINE
  5
31FA
330
31E8
100
AcDbEntity
  8
0
  6
Continuous
370
    30
100
AcDbLine
 10
1.899999982316157
 20
0.7500000059601284
 30
0.0
 11
1.899999982316157
 21
0.4000000059601306
 31
0.0
  0
MTEXT
  5
31FB
330
31E8
100
AcDbEntity
  8
0
  6
Continuous
370
    30
100
AcDbMText
 10
1.999999982316158
 20
0.7500000059601302
 30
0.0
 40
0.075
 41
0.399999999999999
 71
     1
 72
     5
  1
{\fArial|b0|i0|c0|p34;DATE}
 73
     1
 44
1.0
  0
MTEXT
  5
31FC
330
31E8
100
AcDbEntity
  8
0
  6
Continuous
370
    30
100
AcDbMText
 10
3.099999982316157
 20
0.3500000059601298
 30
0.0
 40
0.075
 41
0.8000000000000005
 71
     1
 72
     5
  1
{\fArial|b0|i0|c0|p34;APPROVED BY}
 73
     1
 44
1.0
  0
MTEXT
  5
31FD
330
31E8
100
AcDbEntity
  8
0
  6
Continuous
370
    30
100
AcDbMText
 10
3.099999982316157
 20
0.2000000059601295
 30
0.0
 40
0.1
 41
0.3716
 71
     1
 72
     5
  1
{\fCourier New|b0|i0|c0|p49;INI}
 73
     1
 44
1.0
  0
MTEXT
  5
31FE
330
31E8
100
AcDbEntity
  8
0
  6
Continuous
370
    30
100
AcDbMText
 10
3.099999982316157
 20
0.6000000059601299
 30
0.0
 40
0.1
 41
0.5
 71
     1
 72
     5
  1
{\fCourier New|b0|i0|c0|p49;INI}
 73
     1
 44
1.0
  0
MTEXT
  5
31FF
330
31E8
100
AcDbEntity
  8
0
  6
Continuous
370
    30
100
AcDbMText
 10
3.099999982316157
 20
0.7500000059601302
 30
0.0
 40
0.075
 41
0.7999999999999992
 71
     1
 72
     5
  1
{\fArial|b0|i0|c0|p34;DRAWN BY}
 73
     1
 44
1.0
  0
LINE
  5
3200
330
31E8
100
AcDbEntity
  8
0
  6
Continuous
370
    30
100
AcDbLine
 10
2.999999982316158
 20
0.8000000059601291
 30
0.0
 11
2.999999982316158
 21
0.0000000059601302
 31
0.0
  0
ENDBLK
  5
3202
330
31E8
100
AcDbEntity
  8
0
370
    30
100
AcDbBlockEnd
  0
BLOCK
  5
2AA3
330
2A96
100
AcDbEntity
  8
0
370
    30
100
AcDbBlockBegin
  2
*Paper_Space14
 70
     0
 10
0.0
 20
0.0
 30
0.0
  3
*Paper_Space14
  1

  0
VIEWPORT
  5
2A97
330
2A96
100
AcDbEntity
  8
0
  6
Continuous
100
AcDbViewport
 10
5.82853876874466
 20
7.647372536837691
 30
0.0
 40
11.92942738997307
 41
6.442897493318793
 69
     0
 12
5.82853876874466
 22
7.647372536837691
 13
0.0
 23
0.0
 14
0.05
 24
0.05
 15
0.1
 25
0.1
 16
0.0
 26
0.0
 36
1.0
 17
0.0
 27
0.0
 37
0.0
 42
50.0
 43
0.0
 44
0.0
 45
6.442897493318793
 50
0.0
 51
0.0
 72
   100
 90
    33568
  1

281
     0
 71
     1
 74
     0
110
0.0
120
0.0
130
0.0
111
1.0
121
0.0
131
0.0
112
0.0
122
1.0
132
0.0
 79
     0
146
0.0
  0
VIEWPORT
  5
2A98
330
2A96
100
AcDbEntity
  8
Viewport Layer
  6
Continuous
370
    30
100
AcDbViewport
 10
4.125
 20
2.725
 30
0.0
 40
8.05
 41
4.25
 69
     0
 12
6.0
 22
3.0
 13
0.0
 23
0.0
 14
1.0
 24
1.0
 15
0.0
 25
0.0
 16
0.0
 26
0.0
 36
1.0
 17
0.0
 27
0.0
 37
0.0
 42
50.0
 43
0.0
 44
0.0
 45
5.666666666666666
 50
0.0
 51
0.0
 72
   100
 90
    32800
  1

281
     0
 71
     1
 74
     0
110
0.0
120
0.0
130
0.0
111
1.0
121
0.0
131
0.0
112
0.0
122
1.0
132
0.0
 79
     0
146
0.0
  0
LINE
  5
2A9B
330
2A96
100
AcDbEntity
  8
0
  6
Continuous
370
    30
100
AcDbLine
 10
8.200000000000001
 20
5.8
 30
0.0
 11
4.299999999999999
 21
5.8
 31
0.0
  0
LINE
  5
2A9D
330
2A96
100
AcDbEntity
  8
0
  6
Continuous
370
    30
100
AcDbLine
 10
4.299999999999999
 20
10.74999999999999
 30
0.0
 11
4.299999999999999
 21
4.9
 31
0.0
  0
MTEXT
  5
2A9E
330
2A96
100
AcDbEntity
  8
0
  6
Continuous
370
    30
100
AcDbMText
 10
4.5
 20
5.6
 30
0.0
 40
0.075
 41
1.999999999999999
 71
     1
 72
     5
  1
{\fCourier New|b0|i0|c0|p49;3 PLACE DECIMAL = ±0.005\P2 PLACE DECIMAL = ±0.015\P1 PLACE DECIMAL = ±0.050\PALL DIMENSIONS IN INCHES.\PDRAWING NOT TO SCALE.}
 73
     1
 44
1.0
  0
MTEXT
  5
2A9F
330
2A96
100
AcDbEntity
  8
0
  6
Continuous
370
    30
100
AcDbMText
 10
4.375
 20
10.7
 30
0.0
 40
0.5
 41
1.425
 71
     1
 72
     5
  1
{\fTimes New Roman|b1|i1|c0|p18;ACI}
 73
     1
 44
1.0
  0
MTEXT
  5
2AA0
330
2A96
100
AcDbEntity
  8
0
  6
Continuous
370
    30
100
AcDbMText
 10
4.375
 20
10.15
 30
0.0
 40
0.075
 41
1.425
 71
     1
 72
     5
  1
{\fTimes New Roman|b1|i1|c0|p18;Automation Components, Inc.}
 73
     1
 44
1.0
  0
LINE
  5
2AA1
330
2A96
100
AcDbEntity
  8
0
  6
Continuous
370
    30
100
AcDbLine
 10
6.5
 20
5.8
 30
0.0
 11
6.5
 21
4.9
 31
0.0
  0
MTEXT
  5
2AA2
330
2A96
100
AcDbEntity
  8
0
  6
Continuous
370
    30
100
AcDbMText
 10
6.7
 20
5.6
 30
0.0
 40
0.075
 41
1.5
 71
     1
 72
     5
  1
{\fCourier New|b0|i0|c0|p49;CONFIDENTIAL INFORMATION-- PROPERTY OF ACI. UNAUTHORIZED USE STRICTLY FORBIDDEN.}
 73
     1
 44
1.0
  0
LINE
  5
2B6D
330
2A96
100
AcDbEntity
  8
0
  6
Continuous
370
    30
100
AcDbLine
 10
4.299999999999999
 20
10.0
 30
0.0
 11
8.200000000000001
 21
10.0
 31
0.0
  0
LINE
  5
2B6E
330
2A96
100
AcDbEntity
  8
0
  6
Continuous
370
    30
100
AcDbLine
 10
5.799999999999999
 20
10.74999999999999
 30
0.0
 11
5.8
 21
10.0
 31
0.0
  0
MTEXT
  5
2B6F
330
2A96
100
AcDbEntity
  8
0
  6
Continuous
370
    30
100
AcDbMText
 10
7.0
 20
10.7
 30
0.0
 40
0.2
 41
2.399999999999999
 71
     2
 72
     5
  1
{\fArial|b0|i0|c0|p34;ITEM NUMBER}
 73
     1
 44
1.0
  0
MTEXT
  5
2B71
330
2A96
100
AcDbEntity
  8
0
  6
Continuous
370
    30
100
AcDbMText
 10
6.0
 20
10.4
 30
0.0
 40
0.14
 41
2.2
 71
     1
 72
     5
  1
{\fCourier New|b0|i0|c0|p49;123456789012345}
 73
     1
 44
1.0
  0
MTEXT
  5
2B72
330
2A96
100
AcDbEntity
  8
0
  6
Continuous
370
    30
100
AcDbMText
 10
4.4
 20
9.05
 30
0.0
 40
0.075
 41
3.799999999999999
 71
     1
 72
     5
  1
{\fArial|b0|i0|c0|p34;TECHNICAL DESCRIPTION}
 73
     1
 44
1.0
  0
MTEXT
  5
2B73
330
2A96
100
AcDbEntity
  8
0
  6
Continuous
370
    30
100
AcDbMText
 10
5.8
 20
9.649999999999998
 30
0.0
 40
0.075
 41
2.399999999999999
 71
     1
 72
     5
  1
{\fCourier New|b0|i0|c0|p49;Maximum 30 characters per box.}
 73
     1
 44
1.0
  0
MTEXT
  5
2B80
330
2A96
100
AcDbEntity
  8
0
  6
Continuous
370
    30
100
AcDbMText
 10
0.1
 20
10.7
 30
0.0
 40
0.075
 41
1.699999999999999
 71
     1
 72
     5
  1
{\fArial|b0|i0|c0|p34;APPROVED MANUFACTURER}
 73
     1
 44
1.0
  0
MTEXT
  5
2B81
330
2A96
100
AcDbEntity
  8
0
  6
Continuous
370
    30
100
AcDbMText
 10
3.5
 20
4.9
 30
0.0
 40
0.2
 41
2.799999999999999
 71
     1
 72
     5
  1

 73
     1
 44
1.0
  0
MTEXT
  5
2B82
330
2A96
100
AcDbEntity
  8
0
  6
Continuous
370
    30
100
AcDbMText
 10
2.3
 20
10.7
 30
0.0
 40
0.075
 41
1.8
 71
     1
 72
     5
  1
{\fArial|b0|i0|c0|p34;MANUFACTURER NUMBER}
 73
     1
 44
1.0
  0
MTEXT
  5
2B83
330
2A96
100
AcDbEntity
  8
0
  6
Continuous
370
    30
100
AcDbMText
 10
2.2
 20
7.4
 30
0.0
 40
0.075
 41
0.3999999999999998
 71
     1
 72
     5
  1
{\fArial|b0|i0|c0|p34;MTBF}
 73
     1
 44
1.0
  0
MTEXT
  5
2B85
330
2A96
100
AcDbEntity
  8
0
  6
Continuous
370
    30
100
AcDbMText
 10
0.3
 20
7.400000000000001
 30
0.0
 40
0.075
 41
0.5999999999999999
 71
     1
 72
     5
  1
{\fArial|b0|i0|c0|p34;UL}
 73
     1
 44
1.0
  0
MTEXT
  5
2B86
330
2A96
100
AcDbEntity
  8
0
  6
Continuous
370
    30
100
AcDbMText
 10
1.0
 20
7.400000000000001
 30
0.0
 40
0.075
 41
0.3
 71
     1
 72
     5
  1
{\fArial|b0|i0|c0|p34;CE}
 73
     1
 44
1.0
  0
MTEXT
  5
2B87
330
2A96
100
AcDbEntity
  8
0
  6
Continuous
370
    30
100
AcDbMText
 10
1.4
 20
7.400000000000001
 30
0.0
 40
0.075
 41
0.7000000000000001
 71
     1
 72
     5
  1
{\fArial|b0|i0|c0|p34;ROHS/CODE}
 73
     1
 44
1.0
  0
MTEXT
  5
2BEB
330
2A96
100
AcDbEntity
  8
0
  6
Continuous
370
    30
100
AcDbMText
 10
2.3
 20
10.5
 30
0.0
 40
0.075
 41
2.0
 71
     1
 72
     5
  1
{\fCourier New|b0|i0|c0|p49;Part}
 73
     1
 44
1.0
  0
MTEXT
  5
2BF1
330
2A96
100
AcDbEntity
  8
0
  6
Continuous
370
    30
100
AcDbMText
 10
0.3
 20
7.200000000000001
 30
0.0
 40
0.075
 41
0.6
 71
     1
 72
     5
  1
{\fCourier New|b0|i0|c0|p49;NO}
 73
     1
 44
1.0
  0
MTEXT
  5
2BF9
330
2A96
100
AcDbEntity
  8
0
  6
Continuous
370
    30
100
AcDbMText
 10
1.0
 20
7.200000000000001
 30
0.0
 40
0.075
 41
0.3
 71
     1
 72
     5
  1
{\fCourier New|b0|i0|c0|p49;NO}
 73
     1
 44
1.0
  0
MTEXT
  5
2C00
330
2A96
100
AcDbEntity
  8
0
  6
Continuous
370
    30
100
AcDbMText
 10
1.4
 20
7.200000000000001
 30
0.0
 40
0.075
 41
0.7
 71
     1
 72
     5
  1
{\fCourier New|b0|i0|c0|p49;NO}
 73
     1
 44
1.0
  0
MTEXT
  5
2C07
330
2A96
100
AcDbEntity
  8
0
  6
Continuous
370
    30
100
AcDbMText
 10
2.7
 20
7.2
 30
0.0
 40
0.075
 41
0.6
 71
     1
 72
     5
  1
{\fCourier New|b0|i0|c0|p49;INI}
 73
     1
 44
1.0
  0
MTEXT
  5
2C30
330
2A96
100
AcDbEntity
  8
0
  6
Continuous
370
    30
100
AcDbMText
 10
4.4
 20
9.450000000000001
 30
0.0
 40
0.075
 41
1.7
 71
     1
 72
     5
  1
{\fArial|b0|i0|c0|p34;INCOMING INSPECTION}
 73
     1
 44
1.0
  0
MTEXT
  5
2C36
330
2A96
100
AcDbEntity
  8
0
  6
Continuous
370
    30
100
AcDbMText
 10
4.5
 20
9.284230769230768
 30
0.0
 40
0.075
 41
3.7
 71
     1
 72
     5
  1
{\fCourier New|b0|i0|c0|p49;Incoming inspection per drawing 3400nnnn.}
 73
     1
 44
1.0
  0
LINE
  5
2C37
330
2A96
100
AcDbEntity
  8
0
  6
Continuous
370
    30
100
AcDbLine
 10
4.299999999999999
 20
9.099999999999999
 30
0.0
 11
8.200000000000001
 21
9.099999999999999
 31
0.0
  0
LINE
  5
2C7F
330
2A96
100
AcDbEntity
  8
0
  6
Continuous
370
    30
100
AcDbLine
 10
0.05
 20
10.6
 30
0.0
 11
4.299999999999999
 21
10.6
 31
0.0
  0
LINE
  5
2C81
330
2A96
100
AcDbEntity
  8
0
  6
Continuous
370
    30
100
AcDbLine
 10
2.2
 20
10.74999999999999
 30
0.0
 11
2.2
 21
8.200000000000001
 31
0.0
  0
LINE
  5
2C82
330
2A96
100
AcDbEntity
  8
0
  6
Continuous
370
    30
100
AcDbLine
 10
0.05
 20
10.3
 30
0.0
 11
4.299999999999999
 21
10.3
 31
0.0
  0
MTEXT
  5
2C88
330
2A96
100
AcDbEntity
  8
0
  6
Continuous
370
    30
100
AcDbMText
 10
0.1
 20
10.5
 30
0.0
 40
0.075
 41
0.2000000000000001
 71
     1
 72
     5
  1
{\fCourier New|b0|i0|c0|p49;1.}
 73
     1
 44
1.0
  0
MTEXT
  5
2C8E
330
2A96
100
AcDbEntity
  8
0
  6
Continuous
370
    30
100
AcDbMText
 10
0.1
 20
10.2
 30
0.0
 40
0.075
 41
0.2178
 71
     1
 72
     5
  1
{\fCourier New|b0|i0|c0|p49;2.}
 73
     1
 44
1.0
  0
MTEXT
  5
2C94
330
2A96
100
AcDbEntity
  8
0
  6
Continuous
370
    30
100
AcDbMText
 10
0.1
 20
9.9
 30
0.0
 40
0.075
 41
0.2178
 71
     1
 72
     5
  1
{\fCourier New|b0|i0|c0|p49;3.}
 73
     1
 44
1.0
  0
LINE
  5
2CA1
330
2A96
100
AcDbEntity
  8
0
  6
Continuous
370
    30
100
AcDbLine
 10
0.05
 20
10.0
 30
0.0
 11
4.299999999999999
 21
10.0
 31
0.0
  0
LINE
  5
2CA2
330
2A96
100
AcDbEntity
  8
0
  6
Continuous
370
    30
100
AcDbLine
 10
0.05
 20
9.700000000000001
 30
0.0
 11
4.299999999999999
 21
9.700000000000001
 31
0.0
  0
LINE
  5
2CB1
330
2A96
100
AcDbEntity
  8
0
  6
Continuous
370
    30
100
AcDbLine
 10
0.05
 20
7.450000000000001
 30
0.0
 11
4.299999999999999
 21
7.450000000000001
 31
0.0
  0
MTEXT
  5
2CB7
330
2A96
100
AcDbEntity
  8
0
  6
Continuous
370
    30
100
AcDbMText
 10
0.1
 20
7.200000000000001
 30
0.0
 40
0.075
 41
0.1677666583358786
 71
     1
 72
     5
  1
{\fCourier New|b0|i0|c0|p49;1.}
 73
     1
 44
1.0
  0
MTEXT
  5
2CBD
330
2A96
100
AcDbEntity
  8
0
  6
Continuous
370
    30
100
AcDbMText
 10
2.7
 20
7.400000000000001
 30
0.0
 40
0.075
 41
0.6000000000000001
 71
     1
 72
     5
  1
{\fArial|b0|i0|c0|p34;ENGINEER}
 73
     1
 44
1.0
  0
MTEXT
  5
2CC3
330
2A96
100
AcDbEntity
  8
0
  6
Continuous
370
    30
100
AcDbMText
 10
3.4
 20
7.400000000000001
 30
0.0
 40
0.075
 41
0.8999999999999996
 71
     1
 72
     5
  1
{\fArial|b0|i0|c0|p34;DATE}
 73
     1
 44
1.0
  0
MTEXT
  5
2CC9
330
2A96
100
AcDbEntity
  8
0
  6
Continuous
370
    30
100
AcDbMText
 10
3.4
 20
7.2
 30
0.0
 40
0.075
 41
0.9
 71
     1
 72
     5
  1
{\fCourier New|b0|i0|c0|p49;07-12-07}
 73
     1
 44
1.0
  0
MTEXT
  5
2CCF
330
2A96
100
AcDbEntity
  8
0
  6
Continuous
370
    30
100
AcDbMText
 10
2.2
 20
7.2
 30
0.0
 40
0.075
 41
0.4
 71
     1
 72
     5
  1
{\fCourier New|b0|i0|c0|p49;NO}
 73
     1
 44
1.0
  0
LINE
  5
2CD0
330
2A96
100
AcDbEntity
  8
0
  6
Continuous
370
    30
100
AcDbLine
 10
0.05
 20
7.299999999999999
 30
0.0
 11
4.299999999999999
 21
7.299999999999999
 31
0.0
  0
LINE
  5
2CD1
330
2A96
100
AcDbEntity
  8
0
  6
Continuous
370
    30
100
AcDbLine
 10
0.05
 20
6.999999999999999
 30
0.0
 11
4.299999999999999
 21
7.000000000000002
 31
0.0
  0
LINE
  5
2CD2
330
2A96
100
AcDbEntity
  8
0
  6
Continuous
370
    30
100
AcDbLine
 10
0.9
 20
7.450000000000001
 30
0.0
 11
0.9
 21
4.9
 31
0.0
  0
LINE
  5
2CD3
330
2A96
100
AcDbEntity
  8
0
  6
Continuous
370
    30
100
AcDbLine
 10
1.3
 20
7.450000000000001
 30
0.0
 11
1.3
 21
4.9
 31
0.0
  0
LINE
  5
2CD4
330
2A96
100
AcDbEntity
  8
0
  6
Continuous
370
    30
100
AcDbLine
 10
2.1
 20
7.450000000000001
 30
0.0
 11
2.1
 21
4.9
 31
0.0
  0
LINE
  5
2CD5
330
2A96
100
AcDbEntity
  8
0
  6
Continuous
370
    30
100
AcDbLine
 10
2.6
 20
7.450000000000001
 30
0.0
 11
2.6
 21
4.9
 31
0.0
  0
LINE
  5
2CD6
330
2A96
100
AcDbEntity
  8
0
  6
Continuous
370
    30
100
AcDbLine
 10
3.3
 20
7.450000000000001
 30
0.0
 11
3.3
 21
4.9
 31
0.0
  0
LINE
  5
2CD8
330
2A96
100
AcDbEntity
  8
0
  6
Continuous
370
    30
100
AcDbLine
 10
0.05
 20
6.700000000000001
 30
0.0
 11
4.299999999999999
 21
6.700000000000001
 31
0.0
  0
LINE
  5
2CD9
330
2A96
100
AcDbEntity
  8
0
  6
Continuous
370
    30
100
AcDbLine
 10
0.05
 20
6.4
 30
0.0
 11
4.299999999999999
 21
6.4
 31
0.0
  0
MTEXT
  5
2CDF
330
2A96
100
AcDbEntity
  8
0
  6
Continuous
370
    30
100
AcDbMText
 10
0.1
 20
6.900000000000001
 30
0.0
 40
0.075
 41
0.2000000000000001
 71
     1
 72
     5
  1
{\fCourier New|b0|i0|c0|p49;2.}
 73
     1
 44
1.0
  0
MTEXT
  5
2CE5
330
2A96
100
AcDbEntity
  8
0
  6
Continuous
370
    30
100
AcDbMText
 10
0.1
 20
6.600000000000001
 30
0.0
 40
0.075
 41
0.2
 71
     1
 72
     5
  1
{\fCourier New|b0|i0|c0|p49;3.}
 73
     1
 44
1.0
  0
MTEXT
  5
2CEB
330
2A96
100
AcDbEntity
  8
0
  6
Continuous
370
    30
100
AcDbMText
 10
4.4
 20
5.75
 30
0.0
 40
0.075
 41
2.099999999999999
 71
     1
 72
     5
  1
{\fArial|b0|i0|c0|p34;TOLERANCE: (UNLESS NOTED)}
 73
     1
 44
1.0
  0
MTEXT
  5
2CF1
330
2A96
100
AcDbEntity
  8
0
  6
Continuous
370
    30
100
AcDbMText
 10
6.6
 20
5.75
 30
0.0
 40
0.075
 41
1.599999999999999
 71
     1
 72
     5
  1
{\fArial|b0|i0|c0|p34;WARNING!}
 73
     1
 44
1.0
  0
LINE
  5
2CF8
330
2A96
100
AcDbEntity
  8
0
  6
Continuous
370
    30
100
AcDbLine
 10
0.05
 20
9.4
 30
0.0
 11
4.299999999999999
 21
9.4
 31
0.0
  0
LINE
  5
2CF9
330
2A96
100
AcDbEntity
  8
0
  6
Continuous
370
    30
100
AcDbLine
 10
0.05
 20
9.099999999999999
 30
0.0
 11
4.299999999999999
 21
9.099999999999999
 31
0.0
  0
LINE
  5
2CFA
330
2A96
100
AcDbEntity
  8
0
  6
Continuous
370
    30
100
AcDbLine
 10
0.05
 20
8.8
 30
0.0
 11
4.299999999999999
 21
8.8
 31
0.0
  0
MTEXT
  5
2D00
330
2A96
100
AcDbEntity
  8
0
  6
Continuous
370
    30
100
AcDbMText
 10
0.1
 20
9.600000000000001
 30
0.0
 40
0.075
 41
0.2
 71
     1
 72
     5
  1
{\fCourier New|b0|i0|c0|p49;4.}
 73
     1
 44
1.0
  0
MTEXT
  5
2D06
330
2A96
100
AcDbEntity
  8
0
  6
Continuous
370
    30
100
AcDbMText
 10
0.1
 20
9.3
 30
0.0
 40
0.075
 41
0.2
 71
     1
 72
     5
  1
{\fCourier New|b0|i0|c0|p49;5.}
 73
     1
 44
1.0
  0
MTEXT
  5
2D0C
330
2A96
100
AcDbEntity
  8
0
  6
Continuous
370
    30
100
AcDbMText
 10
0.1
 20
9.0
 30
0.0
 40
0.075
 41
0.2
 71
     1
 72
     5
  1
{\fCourier New|b0|i0|c0|p49;6.}
 73
     1
 44
1.0
  0
LINE
  5
2D0D
330
2A96
100
AcDbEntity
  8
0
  6
Continuous
370
    30
100
AcDbLine
 10
0.05
 20
6.1
 30
0.0
 11
4.299999999999999
 21
6.1
 31
0.0
  0
LINE
  5
2D0E
330
2A96
100
AcDbEntity
  8
0
  6
Continuous
370
    30
100
AcDbLine
 10
0.05
 20
5.799999999999999
 30
0.0
 11
4.299999999999999
 21
5.799999999999999
 31
0.0
  0
LINE
  5
2D0F
330
2A96
100
AcDbEntity
  8
0
  6
Continuous
370
    30
100
AcDbLine
 10
0.05
 20
5.5
 30
0.0
 11
4.299999999999999
 21
5.5
 31
0.0
  0
MTEXT
  5
2D15
330
2A96
100
AcDbEntity
  8
0
  6
Continuous
370
    30
100
AcDbMText
 10
0.1
 20
6.3
 30
0.0
 40
0.075
 41
0.2
 71
     1
 72
     5
  1
{\fCourier New|b0|i0|c0|p49;4.}
 73
     1
 44
1.0
  0
MTEXT
  5
2D1B
330
2A96
100
AcDbEntity
  8
0
  6
Continuous
370
    30
100
AcDbMText
 10
0.1
 20
6.0
 30
0.0
 40
0.075
 41
0.2
 71
     1
 72
     5
  1
{\fCourier New|b0|i0|c0|p49;5.}
 73
     1
 44
1.0
  0
MTEXT
  5
2D21
330
2A96
100
AcDbEntity
  8
0
  6
Continuous
370
    30
100
AcDbMText
 10
0.1
 20
5.7
 30
0.0
 40
0.075
 41
0.2
 71
     1
 72
     5
  1
{\fCourier New|b0|i0|c0|p49;6.}
 73
     1
 44
1.0
  0
LINE
  5
2D22
330
2A96
100
AcDbEntity
  8
0
  6
Continuous
370
    30
100
AcDbLine
 10
0.0499999999999998
 20
4.9
 30
0.0
 11
8.200000000000001
 21
4.899999999999999
 31
0.0
  0
LINE
  5
2D23
330
2A96
100
AcDbEntity
  8
0
  6
Continuous
370
    30
100
AcDbLine
 10
0.05
 20
8.5
 30
0.0
 11
4.299999999999999
 21
8.5
 31
0.0
  0
LINE
  5
2D24
330
2A96
100
AcDbEntity
  8
0
  6
Continuous
370
    30
100
AcDbLine
 10
0.05
 20
8.200000000000001
 30
0.0
 11
4.299999999999999
 21
8.200000000000001
 31
0.0
  0
MTEXT
  5
2D2A
330
2A96
100
AcDbEntity
  8
0
  6
Continuous
370
    30
100
AcDbMText
 10
0.1
 20
8.700000000000001
 30
0.0
 40
0.075
 41
0.2
 71
     1
 72
     5
  1
{\fCourier New|b0|i0|c0|p49;7.}
 73
     1
 44
1.0
  0
MTEXT
  5
2D30
330
2A96
100
AcDbEntity
  8
0
  6
Continuous
370
    30
100
AcDbMText
 10
0.1
 20
8.4
 30
0.0
 40
0.075
 41
0.2
 71
     1
 72
     5
  1
{\fCourier New|b0|i0|c0|p49;8.}
 73
     1
 44
1.0
  0
LINE
  5
2D31
330
2A96
100
AcDbEntity
  8
0
  6
Continuous
370
    30
100
AcDbLine
 10
0.05
 20
5.2
 30
0.0
 11
4.299999999999999
 21
5.2
 31
0.0
  0
MTEXT
  5
2D38
330
2A96
100
AcDbEntity
  8
0
  6
Continuous
370
    30
100
AcDbMText
 10
0.1
 20
5.4
 30
0.0
 40
0.075
 41
0.2000000000000002
 71
     1
 72
     5
  1
{\fCourier New|b0|i0|c0|p49;7.}
 73
     1
 44
1.0
  0
MTEXT
  5
2D3E
330
2A96
100
AcDbEntity
  8
0
  6
Continuous
370
    30
100
AcDbMText
 10
0.1
 20
5.1
 30
0.0
 40
0.075
 41
0.2000000000000002
 71
     1
 72
     5
  1
{\fCourier New|b0|i0|c0|p49;8.}
 73
     1
 44
1.0
  0
LWPOLYLINE
  5
2D50
330
2A96
100
AcDbEntity
  8
0
  6
Continuous
370
    30
100
AcDbPolyline
 90
        4
 70
     1
 43
0.0
 10
0.05
 20
10.74999999999999
 10
8.200000000000001
 20
10.74999999999999
 10
8.200000000000001
 20
0.15
 10
0.05
 20
0.15
  0
MTEXT
  5
2D5C
330
2A96
100
AcDbEntity
  8
0
  6
Continuous
370
    30
100
AcDbMText
 10
4.5
 20
8.9
 30
0.0
 40
0.075
 41
3.7
 71
     1
 72
     5
  1
{\fCourier New|b0|i0|c0|p49;List critical technical specs here.}
 73
     1
 44
1.0
  0
MTEXT
  5
2D71
330
2A96
100
AcDbEntity
  8
0
  6
Continuous
370
    30
100
AcDbMText
 10
0.3
 20
10.5
 30
0.0
 40
0.075
 41
1.898099999999999
 71
     1
 72
     5
  1
{\fCourier New|b0|i0|c0|p49;Name}
 73
     1
 44
1.0
  0
MTEXT
  5
2D8F
330
2A96
100
AcDbEntity
  8
0
  6
Continuous
370
    30
100
AcDbMText
 10
0.2
 20
8.0
 30
0.0
 40
0.075
 41
4.099999999999999
 71
     1
 72
     5
  1
{\fCourier New|b0|i0|c0|p49;Here}
 73
     1
 44
1.0
  0
MTEXT
  5
2D9D
330
2A96
100
AcDbEntity
  8
0
  6
Continuous
370
    30
100
AcDbMText
 10
0.1
 20
8.15
 30
0.0
 40
0.075
 41
2.1
 71
     1
 72
     5
  1
{\fArial|b0|i0|c0|p34;NOTES}
 73
     1
 44
1.0
  0
MTEXT
  5
2F1B
330
2A96
100
AcDbEntity
  8
0
  6
Continuous
370
    30
100
AcDbMText
 10
0.1
 20
0.1000000000000001
 30
0.0
 40
0.075
 41
2.799999999999999
 71
     1
 72
     5
  1
{\fArial|b0|i0|c0|p34;PART SPECIFICATION FORM   REV 5   DATE: 07-12-07}
 73
     1
 44
1.0
  0
MTEXT
  5
2FBA
330
2A96
100
AcDbEntity
  8
0
  6
Continuous
370
    30
100
AcDbMText
 10
4.4
 20
9.899999999999998
 30
0.0
 40
0.125
 41
1.3
 71
     1
 72
     5
  1
{\fArial|b0|i0|c0|p34;ACI SYSTEM\PDESCRIPTION:}
 73
     1
 44
1.0
  0
LINE
  5
2FBB
330
2A96
100
AcDbEntity
  8
0
  6
Continuous
370
    30
100
AcDbLine
 10
4.299999999999999
 20
9.5
 30
0.0
 11
8.200000000000001
 21
9.5
 31
0.0
  0
LINE
  5
2FBC
330
2A96
100
AcDbEntity
  8
0
  6
Continuous
370
    30
100
AcDbLine
 10
5.7
 20
10.0
 30
0.0
 11
5.7
 21
9.5
 31
0.0
  0
MTEXT
  5
2FC2
330
2A96
100
AcDbEntity
  8
0
  6
Continuous
370
    30
100
AcDbMText
 10
5.8
 20
9.899999999999998
 30
0.0
 40
0.075
 41
2.399999999999999
 71
     1
 72
     5
  1
{\fCourier New|b0|i0|c0|p49;Most important details here.}
 73
     1
 44
1.0
  0
LINE
  5
2FC3
330
2A96
100
AcDbEntity
  8
0
  6
Continuous
370
    30
100
AcDbLine
 10
5.7
 20
9.75
 30
0.0
 11
8.200000000000001
 21
9.75
 31
0.0
  0
LINE
  5
32BA
330
2A96
100
AcDbEntity
  8
0
  6
Continuous
370
    30
100
AcDbLine
 10
8.200000000000001
 20
0.35
 30
0.0
 11
0.05
 21
0.35
 31
0.0
  0
MTEXT
  5
32CD
330
2A96
100
AcDbEntity
  8
0
  6
Continuous
370
    30
100
AcDbMText
 10
6.5
 20
0.5
 30
0.0
 40
0.075
 41
1.1
 71
     1
 72
     5
  1
{\fArial|b0|i0|c0|p34;DRAWING NUMBER}
 73
     1
 44
1.0
  0
MTEXT
  5
32D3
330
2A96
100
AcDbEntity
  8
0
  6
Continuous
370
    30
100
AcDbMText
 10
7.7
 20
0.5
 30
0.0
 40
0.075
 41
0.5000000000000009
 71
     1
 72
     5
  1
{\fArial|b0|i0|c0|p34;REV}
 73
     1
 44
1.0
  0
MTEXT
  5
32D9
330
2A96
100
AcDbEntity
  8
0
  6
Continuous
370
    30
100
AcDbMText
 10
0.2
 20
0.5
 30
0.0
 40
0.075
 41
0.4
 71
     1
 72
     5
  1
{\fArial|b0|i0|c0|p34;DATE}
 73
     1
 44
1.0
  0
MTEXT
  5
32DF
330
2A96
100
AcDbEntity
  8
0
  6
Continuous
370
    30
100
AcDbMText
 10
4.7
 20
0.5
 30
0.0
 40
0.075
 41
0.7000000000000002
 71
     1
 72
     5
  1
{\fArial|b0|i0|c0|p34;DRAWN BY}
 73
     1
 44
1.0
  0
MTEXT
  5
32E5
330
2A96
100
AcDbEntity
  8
0
  6
Continuous
370
    30
100
AcDbMText
 10
5.5
 20
0.5
 30
0.0
 40
0.075
 41
0.9000000000000003
 71
     1
 72
     5
  1
{\fArial|b0|i0|c0|p34;APPROVED BY}
 73
     1
 44
1.0
  0
MTEXT
  5
32EB
330
2A96
100
AcDbEntity
  8
0
  6
Continuous
370
    30
100
AcDbMText
 10
1.2
 20
0.5
 30
0.0
 40
0.075
 41
0.9
 71
     1
 72
     5
  1
{\fArial|b0|i0|c0|p34;DESCRIPTION}
 73
     1
 44
1.0
  0
MTEXT
  5
32F3
330
2A96
100
AcDbEntity
  8
0
  6
Continuous
370
    30
100
AcDbMText
 10
12.61565383451102
 20
0.6025710303042624
 30
0.0
 40
0.075
 41
0.3999999999999995
 71
     1
 72
     5
  1
{\fArial|b0|i0|c0|p34;REV}
 73
     1
 44
1.0
  0
MTEXT
  5
32FF
330
2A96
100
AcDbEntity
  8
0
  6
Continuous
370
    30
100
AcDbMText
 10
4.7
 20
0.3
 30
0.0
 40
0.075
 41
0.7
 71
     1
 72
     5
  1
{\fCourier New|b0|i0|c0|p49;INI}
 73
     1
 44
1.0
  0
MTEXT
  5
3305
330
2A96
100
AcDbEntity
  8
0
  6
Continuous
370
    30
100
AcDbMText
 10
5.5
 20
0.3
 30
0.0
 40
0.075
 41
0.9
 71
     1
 72
     5
  1
{\fCourier New|b0|i0|c0|p49;INI}
 73
     1
 44
1.0
  0
MTEXT
  5
330B
330
2A96
100
AcDbEntity
  8
0
  6
Continuous
370
    30
100
AcDbMText
 10
6.5
 20
0.3
 30
0.0
 40
0.075
 41
1.1
 71
     1
 72
     5
  1
{\fCourier New|b0|i0|c0|p49;3000nnnn}
 73
     1
 44
1.0
  0
MTEXT
  5
3311
330
2A96
100
AcDbEntity
  8
0
  6
Continuous
370
    30
100
AcDbMText
 10
7.7
 20
0.3
 30
0.0
 40
0.075
 41
0.5
 71
     1
 72
     5
  1
{\fCourier New|b0|i0|c0|p49;1}
 73
     1
 44
1.0
  0
MTEXT
  5
331D
330
2A96
100
AcDbEntity
  8
0
  6
Continuous
370
    30
100
AcDbMText
 10
0.2
 20
0.3
 30
0.0
 40
0.075
 41
0.9
 71
     1
 72
     5
  1
{\fCourier New|b0|i0|c0|p49;07-12-07}
 73
     1
 44
1.0
  0
MTEXT
  5
3323
330
2A96
100
AcDbEntity
  8
0
  6
Continuous
370
    30
100
AcDbMText
 10
1.2
 20
0.3
 30
0.0
 40
0.075
 41
3.399999999999999
 71
     1
 72
     5
  1
{\fCourier New|b0|i0|c0|p49;INITIAL VERSION}
 73
     1
 44
1.0
  0
LINE
  5
3324
330
2A96
100
AcDbEntity
  8
0
  6
Continuous
370
    30
100
AcDbLine
 10
1.1
 20
0.55
 30
0.0
 11
1.1
 21
0.1500000000000001
 31
0.0
  0
LINE
  5
3325
330
2A96
100
AcDbEntity
  8
0
  6
Continuous
370
    30
100
AcDbLine
 10
7.6
 20
0.55
 30
0.0
 11
7.599999999999999
 21
0.1500000000000001
 31
0.0
  0
LINE
  5
3326
330
2A96
100
AcDbEntity
  8
0
  6
Continuous
370
    30
100
AcDbLine
 10
6.4
 20
0.55
 30
0.0
 11
6.4
 21
0.1500000000000001
 31
0.0
  0
LINE
  5
3327
330
2A96
100
AcDbEntity
  8
0
  6
Continuous
370
    30
100
AcDbLine
 10
5.4
 20
0.1500000000000001
 30
0.0
 11
5.4
 21
0.55
 31
0.0
  0
LINE
  5
3328
330
2A96
100
AcDbEntity
  8
0
  6
Continuous
370
    30
100
AcDbLine
 10
4.6
 20
0.1500000000000001
 30
0.0
 11
4.6
 21
0.55
 31
0.0
  0
LINE
  5
3329
330
2A96
100
AcDbEntity
  8
0
  6
Continuous
370
    30
100
AcDbLine
 10
8.200000000000001
 20
0.55
 30
0.0
 11
0.05
 21
0.55
 31
0.0
  0
MTEXT
  5
3335
330
2A96
100
AcDbEntity
  8
0
  6
Continuous
370
    30
100
AcDbMText
 10
7.4
 20
0.1000000000000001
 30
0.0
 40
0.075
 41
0.8
 71
     1
 72
     5
  1
{\fArial|b0|i0|c0|p34;PAGE 1}
 73
     1
 44
1.0
  0
LINE
  5
3C8D
330
2A96
100
AcDbEntity
  8
0
  6
Continuous
370
    30
100
AcDbLine
 10
5.8
 20
10.2
 30
0.0
 11
8.200000000000001
 21
10.2
 31
0.0
  0
MTEXT
  5
3C93
330
2A96
100
AcDbEntity
  8
0
  6
Continuous
370
    30
100
AcDbMText
 10
6.0
 20
10.15
 30
0.0
 40
0.075
 41
2.2
 71
     1
 72
     5
  1
{\fCourier New|b0|i0|c0|p49;Formerly 123456789012345}
 73
     1
 44
1.0
  0
ENDBLK
  5
2AA4
330
2A96
100
AcDbEntity
  8
0
370
    30
100
AcDbBlockEnd
  0
BLOCK
  5
33CF
330
3360
100
AcDbEntity
  8
0
370
    30
100
AcDbBlockBegin
  2
*Paper_Space15
 70
     0
 10
0.0
 20
0.0
 30
0.0
  3
*Paper_Space15
  1

  0
VIEWPORT
  5
3361
330
3360
100
AcDbEntity
  8
0
  6
Continuous
100
AcDbViewport
 10
5.8285388633846
 20
7.647873650176577
 30
0.0
 40
11.92756543099051
 41
6.441891878340866
 69
     0
 12
5.8285388633846
 22
7.647873650176577
 13
0.0
 23
0.0
 14
0.05
 24
0.05
 15
0.1
 25
0.1
 16
0.0
 26
0.0
 36
1.0
 17
0.0
 27
0.0
 37
0.0
 42
50.0
 43
0.0
 44
0.0
 45
6.441891878340866
 50
0.0
 51
0.0
 72
   100
 90
    33568
  1

281
     0
 71
     1
 74
     0
110
0.0
120
0.0
130
0.0
111
1.0
121
0.0
131
0.0
112
0.0
122
1.0
132
0.0
 79
     0
146
0.0
  0
VIEWPORT
  5
3362
330
3360
100
AcDbEntity
  8
Viewport Layer
  6
Continuous
370
    30
100
AcDbViewport
 10
4.125
 20
4.825
 30
0.0
 40
8.05
 41
8.450000000000001
 69
     0
 12
19.0
 22
6.0
 13
0.0
 23
0.0
 14
1.0
 24
1.0
 15
0.0
 25
0.0
 16
0.0
 26
0.0
 36
1.0
 17
0.0
 27
0.0
 37
0.0
 42
50.0
 43
0.0
 44
0.0
 45
11.26666666666666
 50
0.0
 51
0.0
 72
   100
 90
    32800
  1

281
     0
 71
     1
 74
     0
110
0.0
120
0.0
130
0.0
111
1.0
121
0.0
131
0.0
112
0.0
122
1.0
132
0.0
 79
     0
146
0.0
  0
MTEXT
  5
3365
330
3360
100
AcDbEntity
  8
0
  6
Continuous
370
    30
100
AcDbMText
 10
4.5
 20
9.8
 30
0.0
 40
0.075
 41
1.999999999999999
 71
     1
 72
     5
  1
{\fCourier New|b0|i0|c0|p49;3 PLACE DECIMAL = ±0.005\P2 PLACE DECIMAL = ±0.015\P1 PLACE DECIMAL = ±0.050\PALL DIMENSIONS IN INCHES.\PDRAWING NOT TO SCALE.}
 73
     1
 44
1.0
  0
MTEXT
  5
3366
330
3360
100
AcDbEntity
  8
0
  6
Continuous
370
    30
100
AcDbMText
 10
4.375
 20
10.7
 30
0.0
 40
0.5
 41
1.425
 71
     1
 72
     5
  1
{\fTimes New Roman|b1|i1|c0|p18;ACI}
 73
     1
 44
1.0
  0
MTEXT
  5
3367
330
3360
100
AcDbEntity
  8
0
  6
Continuous
370
    30
100
AcDbMText
 10
4.375
 20
10.15
 30
0.0
 40
0.075
 41
1.425
 71
     1
 72
     5
  1
{\fTimes New Roman|b1|i1|c0|p18;Automation Components, Inc.}
 73
     1
 44
1.0
  0
LINE
  5
3368
330
3360
100
AcDbEntity
  8
0
  6
Continuous
370
    30
100
AcDbLine
 10
6.5
 20
10.0
 30
0.0
 11
6.5
 21
9.099999999999999
 31
0.0
  0
MTEXT
  5
3369
330
3360
100
AcDbEntity
  8
0
  6
Continuous
370
    30
100
AcDbMText
 10
6.7
 20
9.8
 30
0.0
 40
0.075
 41
1.5
 71
     1
 72
     5
  1
{\fCourier New|b0|i0|c0|p49;CONFIDENTIAL INFORMATION-- PROPERTY OF ACI. UNAUTHORIZED USE STRICTLY FORBIDDEN.}
 73
     1
 44
1.0
  0
LINE
  5
336A
330
3360
100
AcDbEntity
  8
0
  6
Continuous
370
    30
100
AcDbLine
 10
4.299999999999999
 20
10.0
 30
0.0
 11
8.200000000000001
 21
10.0
 31
0.0
  0
MTEXT
  5
3371
330
3360
100
AcDbEntity
  8
0
  6
Continuous
370
    30
100
AcDbMText
 10
3.5
 20
4.9
 30
0.0
 40
0.2
 41
2.799999999999999
 71
     1
 72
     5
  1

 73
     1
 44
1.0
  0
MTEXT
  5
3398
330
3360
100
AcDbEntity
  8
0
  6
Continuous
370
    30
100
AcDbMText
 10
4.4
 20
9.949999999999999
 30
0.0
 40
0.075
 41
2.099999999999999
 71
     1
 72
     5
  1
{\fArial|b0|i0|c0|p34;TOLERANCE: (UNLESS NOTED)}
 73
     1
 44
1.0
  0
MTEXT
  5
3399
330
3360
100
AcDbEntity
  8
0
  6
Continuous
370
    30
100
AcDbMText
 10
6.6
 20
9.950000000000001
 30
0.0
 40
0.075
 41
1.599999999999999
 71
     1
 72
     5
  1
{\fArial|b0|i0|c0|p34;WARNING!}
 73
     1
 44
1.0
  0
LINE
  5
33A6
330
3360
100
AcDbEntity
  8
0
  6
Continuous
370
    30
100
AcDbLine
 10
4.299999999999999
 20
9.099999999999999
 30
0.0
 11
8.200000000000001
 21
9.099999999999997
 31
0.0
  0
LWPOLYLINE
  5
33AE
330
3360
100
AcDbEntity
  8
0
  6
Continuous
370
    30
100
AcDbPolyline
 90
        4
 70
     1
 43
0.0
 10
0.05
 20
10.74999999999999
 10
8.200000000000001
 20
10.74999999999999
 10
8.200000000000001
 20
0.15
 10
0.05
 20
0.15
  0
MTEXT
  5
33B4
330
3360
100
AcDbEntity
  8
0
  6
Continuous
370
    30
100
AcDbMText
 10
0.1
 20
0.1000000000000001
 30
0.0
 40
0.075
 41
2.799999999999999
 71
     1
 72
     5
  1
{\fArial|b0|i0|c0|p34;PART SPECIFICATION FORM   REV 5   DATE: 07-12-07}
 73
     1
 44
1.0
  0
LINE
  5
33BA
330
3360
100
AcDbEntity
  8
0
  6
Continuous
370
    30
100
AcDbLine
 10
8.200000000000001
 20
0.35
 30
0.0
 11
0.05
 21
0.35
 31
0.0
  0
MTEXT
  5
33BB
330
3360
100
AcDbEntity
  8
0
  6
Continuous
370
    30
100
AcDbMText
 10
6.5
 20
0.5
 30
0.0
 40
0.075
 41
1.1
 71
     1
 72
     5
  1
{\fArial|b0|i0|c0|p34;DRAWING NUMBER}
 73
     1
 44
1.0
  0
MTEXT
  5
33BC
330
3360
100
AcDbEntity
  8
0
  6
Continuous
370
    30
100
AcDbMText
 10
7.7
 20
0.5
 30
0.0
 40
0.075
 41
0.5000000000000009
 71
     1
 72
     5
  1
{\fArial|b0|i0|c0|p34;REV}
 73
     1
 44
1.0
  0
MTEXT
  5
33BD
330
3360
100
AcDbEntity
  8
0
  6
Continuous
370
    30
100
AcDbMText
 10
0.2
 20
0.5
 30
0.0
 40
0.075
 41
0.4
 71
     1
 72
     5
  1
{\fArial|b0|i0|c0|p34;DATE}
 73
     1
 44
1.0
  0
MTEXT
  5
33BE
330
3360
100
AcDbEntity
  8
0
  6
Continuous
370
    30
100
AcDbMText
 10
4.7
 20
0.5
 30
0.0
 40
0.075
 41
0.7000000000000002
 71
     1
 72
     5
  1
{\fArial|b0|i0|c0|p34;DRAWN BY}
 73
     1
 44
1.0
  0
MTEXT
  5
33BF
330
3360
100
AcDbEntity
  8
0
  6
Continuous
370
    30
100
AcDbMText
 10
5.5
 20
0.5
 30
0.0
 40
0.075
 41
0.9000000000000003
 71
     1
 72
     5
  1
{\fArial|b0|i0|c0|p34;APPROVED BY}
 73
     1
 44
1.0
  0
MTEXT
  5
33C0
330
3360
100
AcDbEntity
  8
0
  6
Continuous
370
    30
100
AcDbMText
 10
1.2
 20
0.5
 30
0.0
 40
0.075
 41
0.7999999999999999
 71
     1
 72
     5
  1
{\fArial|b0|i0|c0|p34;DESCRIPTION}
 73
     1
 44
1.0
  0
MTEXT
  5
33C1
330
3360
100
AcDbEntity
  8
0
  6
Continuous
370
    30
100
AcDbMText
 10
12.61565383451102
 20
0.6025710303042624
 30
0.0
 40
0.075
 41
0.3999999999999995
 71
     1
 72
     5
  1
{\fArial|b0|i0|c0|p34;REV}
 73
     1
 44
1.0
  0
MTEXT
  5
33C2
330
3360
100
AcDbEntity
  8
0
  6
Continuous
370
    30
100
AcDbMText
 10
4.7
 20
0.3
 30
0.0
 40
0.075
 41
0.7
 71
     1
 72
     5
  1
{\fCourier New|b0|i0|c0|p49;INI}
 73
     1
 44
1.0
  0
MTEXT
  5
33C3
330
3360
100
AcDbEntity
  8
0
  6
Continuous
370
    30
100
AcDbMText
 10
5.5
 20
0.3
 30
0.0
 40
0.075
 41
0.9
 71
     1
 72
     5
  1
{\fCourier New|b0|i0|c0|p49;INI}
 73
     1
 44
1.0
  0
MTEXT
  5
33C4
330
3360
100
AcDbEntity
  8
0
  6
Continuous
370
    30
100
AcDbMText
 10
6.5
 20
0.3
 30
0.0
 40
0.075
 41
1.1
 71
     1
 72
     5
  1
{\fCourier New|b0|i0|c0|p49;3000nnnn}
 73
     1
 44
1.0
  0
MTEXT
  5
33C5
330
3360
100
AcDbEntity
  8
0
  6
Continuous
370
    30
100
AcDbMText
 10
7.7
 20
0.3
 30
0.0
 40
0.075
 41
0.5
 71
     1
 72
     5
  1
{\fCourier New|b0|i0|c0|p49;1}
 73
     1
 44
1.0
  0
MTEXT
  5
33C6
330
3360
100
AcDbEntity
  8
0
  6
Continuous
370
    30
100
AcDbMText
 10
0.2
 20
0.3
 30
0.0
 40
0.075
 41
0.9
 71
     1
 72
     5
  1
{\fCourier New|b0|i0|c0|p49;07-12-07}
 73
     1
 44
1.0
  0
MTEXT
  5
33C7
330
3360
100
AcDbEntity
  8
0
  6
Continuous
370
    30
100
AcDbMText
 10
1.2
 20
0.3
 30
0.0
 40
0.075
 41
3.399999999999999
 71
     1
 72
     5
  1
{\fCourier New|b0|i0|c0|p49;INITIAL VERSION}
 73
     1
 44
1.0
  0
LINE
  5
33C8
330
3360
100
AcDbEntity
  8
0
  6
Continuous
370
    30
100
AcDbLine
 10
1.1
 20
0.55
 30
0.0
 11
1.1
 21
0.1500000000000001
 31
0.0
  0
LINE
  5
33C9
330
3360
100
AcDbEntity
  8
0
  6
Continuous
370
    30
100
AcDbLine
 10
7.6
 20
0.55
 30
0.0
 11
7.599999999999999
 21
0.1500000000000001
 31
0.0
  0
LINE
  5
33CA
330
3360
100
AcDbEntity
  8
0
  6
Continuous
370
    30
100
AcDbLine
 10
6.4
 20
0.55
 30
0.0
 11
6.4
 21
0.1500000000000001
 31
0.0
  0
LINE
  5
33CB
330
3360
100
AcDbEntity
  8
0
  6
Continuous
370
    30
100
AcDbLine
 10
5.4
 20
0.1500000000000001
 30
0.0
 11
5.4
 21
0.55
 31
0.0
  0
LINE
  5
33CC
330
3360
100
AcDbEntity
  8
0
  6
Continuous
370
    30
100
AcDbLine
 10
4.6
 20
0.1500000000000001
 30
0.0
 11
4.6
 21
0.55
 31
0.0
  0
LINE
  5
33CD
330
3360
100
AcDbEntity
  8
0
  6
Continuous
370
    30
100
AcDbLine
 10
8.200000000000001
 20
0.55
 30
0.0
 11
0.0
 21
0.55
 31
0.0
  0
MTEXT
  5
33CE
330
3360
100
AcDbEntity
  8
0
  6
Continuous
370
    30
100
AcDbMText
 10
7.4
 20
0.1000000000000001
 30
0.0
 40
0.075
 41
0.8
 71
     1
 72
     5
  1
{\fArial|b0|i0|c0|p34;PAGE 2}
 73
     1
 44
1.0
  0
LINE
  5
33D7
330
3360
100
AcDbEntity
  8
0
  6
Continuous
370
    30
100
AcDbLine
 10
4.299999999999999
 20
9.099999999999999
 30
0.0
 11
4.299999999999999
 21
10.74999999999999
 31
0.0
  0
MTEXT
  5
3C9D
330
3360
100
AcDbEntity
  8
0
  6
Continuous
370
    30
100
AcDbMText
 10
5.999999992923019
 20
10.14999999029272
 30
0.0
 40
0.075
 41
2.2
 71
     1
 72
     5
  1
{\fCourier New|b0|i0|c0|p49;Formerly 123456789012345}
 73
     1
 44
1.0
  0
LINE
  5
3C9E
330
3360
100
AcDbEntity
  8
0
  6
Continuous
370
    30
100
AcDbLine
 10
5.799999992923019
 20
10.19999999029272
 30
0.0
 11
8.19999999292302
 21
10.19999999029272
 31
0.0
  0
MTEXT
  5
3C9F
330
3360
100
AcDbEntity
  8
0
  6
Continuous
370
    30
100
AcDbMText
 10
5.999999992923019
 20
10.39999999029272
 30
0.0
 40
0.14
 41
2.200000000000001
 71
     1
 72
     5
  1
{\fCourier New|b0|i0|c0|p49;123456789012345}
 73
     1
 44
1.0
  0
MTEXT
  5
3CA0
330
3360
100
AcDbEntity
  8
0
  6
Continuous
370
    30
100
AcDbMText
 10
6.99999999292302
 20
10.69999999029272
 30
0.0
 40
0.2
 41
2.399999999999999
 71
     2
 72
     5
  1
{\fArial|b0|i0|c0|p34;ITEM NUMBER}
 73
     1
 44
1.0
  0
LINE
  5
3CA1
330
3360
100
AcDbEntity
  8
0
  6
Continuous
370
    30
100
AcDbLine
 10
5.799999992923019
 20
10.74999999029272
 30
0.0
 11
5.799999992923019
 21
9.999999990292721
 31
0.0
  0
ENDBLK
  5
33D0
330
3360
100
AcDbEntity
  8
0
370
    30
100
AcDbBlockEnd
  0
BLOCK
  5
3767
330
3743
100
AcDbEntity
  8
0
370
    30
100
AcDbBlockBegin
  2
A$C64F54320
 70
     0
 10
0.0
 20
0.0
 30
0.0
  3
A$C64F54320
  1

  0
LINE
  5
3744
330
3743
100
AcDbEntity
  8
0
  6
Continuous
370
    30
100
AcDbLine
 10
8.15000001151851
 20
0.4025710227329599
 30
0.0
 11
2.05000001151851
 21
0.4025710227329599
 31
0.0
  0
LINE
  5
3745
330
3743
100
AcDbEntity
  8
0
  6
Continuous
370
    30
100
AcDbLine
 10
8.15000001151851
 20
0.6025710227329598
 30
0.0
 11
0.0000000115185106
 21
0.6025710227329598
 31
0.0
  0
MTEXT
  5
3746
330
3743
100
AcDbEntity
  8
0
  6
Continuous
370
    30
100
AcDbMText
 10
2.400000017707228
 20
1.252571026041589
 30
0.0
 40
0.075
 41
1.599999999999999
 71
     1
 72
     5
  1
{\fCourier New|b0|i0|c0|p49;CONFIDENTIAL INFORMATION-- PROPERTY OF ACI. UNAUTHORIZED USE STRICTLY FORBIDDEN.}
 73
     1
 44
1.0
  0
MTEXT
  5
3747
330
3743
100
AcDbEntity
  8
0
  6
Continuous
370
    30
100
AcDbMText
 10
2.300000017707228
 20
1.40257102604159
 30
0.0
 40
0.075
 41
1.9
 71
     1
 72
     5
  1
{\fArial|b0|i0|c0|p34;WARNING!}
 73
     1
 44
1.0
  0
LINE
  5
3748
330
3743
100
AcDbEntity
  8
0
  6
Continuous
370
    30
100
AcDbLine
 10
8.150000017707228
 20
1.45257102604159
 30
0.0
 11
0.0000000177072281
 21
1.45257102604159
 31
0.0
  0
LINE
  5
3749
330
3743
100
AcDbEntity
  8
0
  6
Continuous
370
    30
100
AcDbLine
 10
0.0000000115185106
 20
0.4025710227329599
 30
0.0
 11
2.05000001151851
 21
0.4025710227329599
 31
0.0
  0
MTEXT
  5
374A
330
3743
100
AcDbEntity
  8
0
  6
Continuous
370
    30
100
AcDbMText
 10
0.2000000177072283
 20
1.252571026041589
 30
0.0
 40
0.075
 41
2.0
 71
     1
 72
     5
  1
{\fCourier New|b0|i0|c0|p49;3 PLACE DECIMAL = ±0.005\P2 PLACE DECIMAL = ±0.015\P1 PLACE DECIMAL = ±0.050\PALL DIMENSIONS IN INCHES.\PDRAWING NOT TO SCALE.}
 73
     1
 44
1.0
  0
MTEXT
  5
374B
330
3743
100
AcDbEntity
  8
0
  6
Continuous
370
    30
100
AcDbMText
 10
0.1000000177072282
 20
1.40257102604159
 30
0.0
 40
0.075
 41
2.1
 71
     1
 72
     5
  1
{\fArial|b0|i0|c0|p34;TOLERANCE: (UNLESS NOTED)}
 73
     1
 44
1.0
  0
MTEXT
  5
374C
330
3743
100
AcDbEntity
  8
0
  6
Continuous
370
    30
100
AcDbMText
 10
0.1500000115185101
 20
0.5525710227329598
 30
0.0
 40
0.075
 41
0.4000000000000001
 71
     1
 72
     5
  1
{\fArial|b0|i0|c0|p34;DATE}
 73
     1
 44
1.0
  0
MTEXT
  5
374D
330
3743
100
AcDbEntity
  8
0
  6
Continuous
370
    30
100
AcDbMText
 10
0.1500000115185101
 20
0.3525710227329598
 30
0.0
 40
0.1
 41
0.9
 71
     1
 72
     5
  1
{\fCourier New|b0|i0|c0|p49;06-15-07}
 73
     1
 44
1.0
  0
LINE
  5
374E
330
3743
100
AcDbEntity
  8
0
  6
Continuous
370
    30
100
AcDbLine
 10
0.0000000177072281
 20
1.45257102604159
 30
0.0
 11
0.0000000177072281
 21
0.60257102604159
 31
0.0
  0
LINE
  5
374F
330
3743
100
AcDbEntity
  8
0
  6
Continuous
370
    30
100
AcDbLine
 10
0.0000000177072281
 20
0.60257102604159
 30
0.0
 11
0.0000000177072281
 21
0.1525710260415899
 31
0.0
  0
LINE
  5
3750
330
3743
100
AcDbEntity
  8
0
  6
Continuous
370
    30
100
AcDbLine
 10
1.05000001151851
 20
0.6025710227329598
 30
0.0
 11
1.05000001151851
 21
0.1525710227329598
 31
0.0
  0
MTEXT
  5
3751
330
3743
100
AcDbEntity
  8
0
  6
Continuous
370
    30
100
AcDbMText
 10
1.15000001151851
 20
0.3525710227329598
 30
0.0
 40
0.1
 41
3.399999999999999
 71
     1
 72
     5
  1
{\fCourier New|b0|i0|c0|p49;INITIAL VERSION}
 73
     1
 44
1.0
  0
MTEXT
  5
3752
330
3743
100
AcDbEntity
  8
0
  6
Continuous
370
    30
100
AcDbMText
 10
1.15000001151851
 20
0.5525710227329598
 30
0.0
 40
0.075
 41
1.6
 71
     1
 72
     5
  1
{\fArial|b0|i0|c0|p34;DESCRIPTION}
 73
     1
 44
1.0
  0
LINE
  5
3753
330
3743
100
AcDbEntity
  8
0
  6
Continuous
370
    30
100
AcDbLine
 10
2.200000017707228
 20
1.45257102604159
 30
0.0
 11
2.200000017707227
 21
0.60257102604159
 31
0.0
  0
MTEXT
  5
3754
330
3743
100
AcDbEntity
  8
0
  6
Continuous
370
    30
100
AcDbMText
 10
6.950000017707228
 20
1.302571026041589
 30
0.0
 40
0.2
 41
2.399999999999999
 71
     2
 72
     5
  1
{\fArial|b0|i0|c0|p34;ITEM NUMBER}
 73
     1
 44
1.0
  0
MTEXT
  5
3755
330
3743
100
AcDbEntity
  8
0
  6
Continuous
370
    30
100
AcDbMText
 10
5.900000017707228
 20
0.9525710260415898
 30
0.0
 40
0.14
 41
2.25
 71
     1
 72
     5
  1
{\fCourier New|b0|i0|c0|p49;123456789012345}
 73
     1
 44
1.0
  0
MTEXT
  5
3756
330
3743
100
AcDbEntity
  8
0
  6
Continuous
370
    30
100
AcDbMText
 10
4.300000017707228
 20
1.352571026041589
 30
0.0
 40
0.5
 41
1.399999982316157
 71
     1
 72
     5
  1
{\fTimes New Roman|b1|i1|c0|p18;ACI}
 73
     1
 44
1.0
  0
MTEXT
  5
3757
330
3743
100
AcDbEntity
  8
0
  6
Continuous
370
    30
100
AcDbMText
 10
4.275000000023386
 20
0.8038868214754034
 30
0.0
 40
0.075
 41
1.425
 71
     1
 72
     5
  1
{\fTimes New Roman|b1|i1|c0|p18;Automation Components, Inc.}
 73
     1
 44
1.0
  0
LINE
  5
3758
330
3743
100
AcDbEntity
  8
0
  6
Continuous
370
    30
100
AcDbLine
 10
4.200000017707228
 20
1.45257102604159
 30
0.0
 11
4.200000017707228
 21
0.60257102604159
 31
0.0
  0
MTEXT
  5
3759
330
3743
100
AcDbEntity
  8
0
  6
Continuous
370
    30
100
AcDbMText
 10
4.650000017707228
 20
0.5525710260415899
 30
0.0
 40
0.075
 41
0.6999999938112822
 71
     1
 72
     5
  1
{\fArial|b0|i0|c0|p34;DRAWN BY}
 73
     1
 44
1.0
  0
MTEXT
  5
375A
330
3743
100
AcDbEntity
  8
0
  6
Continuous
370
    30
100
AcDbMText
 10
4.650000017707228
 20
0.3525710260415899
 30
0.0
 40
0.1
 41
0.6999999938112822
 71
     1
 72
     5
  1
{\fCourier New|b0|i0|c0|p49;INI}
 73
     1
 44
1.0
  0
LINE
  5
375B
330
3743
100
AcDbEntity
  8
0
  6
Continuous
370
    30
100
AcDbLine
 10
4.550000011518509
 20
0.1525710227329598
 30
0.0
 11
4.550000011518509
 21
0.6025710227329598
 31
0.0
  0
LINE
  5
375C
330
3743
100
AcDbEntity
  8
0
  6
Continuous
370
    30
100
AcDbLine
 10
5.35000001151851
 20
0.1525710227329598
 30
0.0
 11
5.35000001151851
 21
0.6025710227329598
 31
0.0
  0
LINE
  5
375D
330
3743
100
AcDbEntity
  8
0
  6
Continuous
370
    30
100
AcDbLine
 10
5.750000017707227
 20
1.45257102604159
 30
0.0
 11
5.750000017707227
 21
0.60257102604159
 31
0.0
  0
MTEXT
  5
375E
330
3743
100
AcDbEntity
  8
0
  6
Continuous
370
    30
100
AcDbMText
 10
5.450000011518511
 20
0.5525710227329598
 30
0.0
 40
0.075
 41
0.9000000000000003
 71
     1
 72
     5
  1
{\fArial|b0|i0|c0|p34;APPROVED BY}
 73
     1
 44
1.0
  0
MTEXT
  5
375F
330
3743
100
AcDbEntity
  8
0
  6
Continuous
370
    30
100
AcDbMText
 10
5.500000017707227
 20
0.3525710260415899
 30
0.0
 40
0.1
 41
0.8499999938112843
 71
     1
 72
     5
  1
{\fCourier New|b0|i0|c0|p49;INI}
 73
     1
 44
1.0
  0
MTEXT
  5
3760
330
3743
100
AcDbEntity
  8
0
  6
Continuous
370
    30
100
AcDbMText
 10
7.300000017707228
 20
0.1025710260415899
 30
0.0
 40
0.075
 41
0.8499999999999989
 71
     1
 72
     5
  1
{\fArial|b0|i0|c0|p34;PAGE 2}
 73
     1
 44
1.0
  0
MTEXT
  5
3761
330
3743
100
AcDbEntity
  8
0
  6
Continuous
370
    30
100
AcDbMText
 10
6.450000017707228
 20
0.5525710260415899
 30
0.0
 40
0.075
 41
1.099999999999999
 71
     1
 72
     5
  1
{\fArial|b0|i0|c0|p34;DRAWING NUMBER}
 73
     1
 44
1.0
  0
MTEXT
  5
3762
330
3743
100
AcDbEntity
  8
0
  6
Continuous
370
    30
100
AcDbMText
 10
6.450000017707228
 20
0.3525710260415899
 30
0.0
 40
0.1
 41
1.099999993811282
 71
     1
 72
     5
  1
{\fCourier New|b0|i0|c0|p49;3000nnnn}
 73
     1
 44
1.0
  0
LINE
  5
3763
330
3743
100
AcDbEntity
  8
0
  6
Continuous
370
    30
100
AcDbLine
 10
6.35000001151851
 20
0.6025710227329598
 30
0.0
 11
6.35000001151851
 21
0.1525710227329598
 31
0.0
  0
MTEXT
  5
3764
330
3743
100
AcDbEntity
  8
0
  6
Continuous
370
    30
100
AcDbMText
 10
7.650000017707228
 20
0.5525710260415899
 30
0.0
 40
0.075
 41
0.4999999938112838
 71
     1
 72
     5
  1
{\fArial|b0|i0|c0|p34;REV}
 73
     1
 44
1.0
  0
LINE
  5
3765
330
3743
100
AcDbEntity
  8
0
  6
Continuous
370
    30
100
AcDbLine
 10
7.550000011518509
 20
0.6025710227329598
 30
0.0
 11
7.550000011518509
 21
0.1525710227329598
 31
0.0
  0
MTEXT
  5
3766
330
3743
100
AcDbEntity
  8
0
  6
Continuous
370
    30
100
AcDbMText
 10
7.650000017707228
 20
0.3525710260415899
 30
0.0
 40
0.1
 41
0.4999999938112829
 71
     1
 72
     5
  1
{\fCourier New|b0|i0|c0|p49;1}
 73
     1
 44
1.0
  0
ENDBLK
  5
3768
330
3743
100
AcDbEntity
  8
0
370
    30
100
AcDbBlockEnd
  0
BLOCK
  5
4174
330
4169
100
AcDbEntity
  8
0
370
    30
100
AcDbBlockBegin
  2
*D17
 70
     1
 10
0.0
 20
0.0
 30
0.0
  3
*D17
  1

  0
LINE
  5
416A
330
4169
100
AcDbEntity
  8
0
 62
     0
370
    -2
100
AcDbLine
 10
31.43825396930332
 20
1.080942897008577
 30
0.0
 11
31.43825396930332
 21
0.5419439722359439
 31
0.0
  0
LINE
  5
416B
330
4169
100
AcDbEntity
  8
0
 62
     0
370
    -2
100
AcDbLine
 10
33.39825396930334
 20
1.080942897008579
 30
0.0
 11
33.39825396930334
 21
0.5419439722359439
 31
0.0
  0
LINE
  5
416C
330
4169
100
AcDbEntity
  8
0
 62
     0
370
    -2
100
AcDbLine
 10
31.51825396930332
 20
0.5919439722359439
 30
0.0
 11
31.83325396930333
 21
0.5919439722359439
 31
0.0
  0
LINE
  5
416D
330
4169
100
AcDbEntity
  8
0
 62
     0
370
    -2
100
AcDbLine
 10
33.31825396930334
 20
0.5919439722359439
 30
0.0
 11
33.00325396930333
 21
0.5919439722359439
 31
0.0
  0
SOLID
  5
416E
330
4169
100
AcDbEntity
  8
0
 62
     0
370
    30
100
AcDbTrace
 10
31.51825396930332
 20
0.6052773055692772
 30
0.0
 11
31.51825396930332
 21
0.5786106389026106
 31
0.0
 12
31.43825396930332
 22
0.5919439722359439
 32
0.0
 13
31.43825396930332
 23
0.5919439722359439
 33
0.0
  0
SOLID
  5
416F
330
4169
100
AcDbEntity
  8
0
 62
     0
370
    30
100
AcDbTrace
 10
33.31825396930334
 20
0.6052773055692772
 30
0.0
 11
33.31825396930334
 21
0.5786106389026106
 31
0.0
 12
33.39825396930334
 22
0.5919439722359439
 32
0.0
 13
33.39825396930334
 23
0.5919439722359439
 33
0.0
  0
MTEXT
  5
4170
330
4169
100
AcDbEntity
  8
0
 62
     0
370
    30
100
AcDbMText
 10
32.41825396930333
 20
0.5919439722359439
 30
0.0
 40
0.09
 41
0.0
 71
     5
 72
     1
  1
\A1;1.9600 [49.78]
 73
     1
 44
1.0
  0
POINT
  5
4171
330
4169
100
AcDbEntity
  8
Defpoints
 62
     0
370
    30
100
AcDbPoint
 10
31.43825396930332
 20
1.143442897008577
 30
0.0
  0
POINT
  5
4172
330
4169
100
AcDbEntity
  8
Defpoints
 62
     0
370
    30
100
AcDbPoint
 10
33.39825396930334
 20
1.143442897008579
 30
0.0
  0
POINT
  5
4173
330
4169
100
AcDbEntity
  8
Defpoints
 62
     0
370
    30
100
AcDbPoint
 10
33.39825396930334
 20
0.5919439722359439
 30
0.0
  0
ENDBLK
  5
4175
330
4169
100
AcDbEntity
  8
0
370
    30
100
AcDbBlockEnd
  0
BLOCK
  5
4181
330
4176
100
AcDbEntity
  8
0
370
    30
100
AcDbBlockBegin
  2
*D18
 70
     1
 10
0.0
 20
0.0
 30
0.0
  3
*D18
  1

  0
LINE
  5
4177
330
4176
100
AcDbEntity
  8
0
 62
     0
370
    -2
100
AcDbLine
 10
31.14325396930333
 20
1.080942897008574
 30
0.0
 11
31.14325396930333
 21
0.2979290734031419
 31
0.0
  0
LINE
  5
4178
330
4176
100
AcDbEntity
  8
0
 62
     0
370
    -2
100
AcDbLine
 10
33.69325396930334
 20
1.080942897008577
 30
0.0
 11
33.69325396930334
 21
0.2979290734031419
 31
0.0
  0
LINE
  5
4179
330
4176
100
AcDbEntity
  8
0
 62
     0
370
    -2
100
AcDbLine
 10
31.22325396930333
 20
0.3479290734031419
 30
0.0
 11
31.81825396930333
 21
0.3479290734031419
 31
0.0
  0
LINE
  5
417A
330
4176
100
AcDbEntity
  8
0
 62
     0
370
    -2
100
AcDbLine
 10
33.61325396930334
 20
0.3479290734031419
 30
0.0
 11
33.01825396930333
 21
0.3479290734031419
 31
0.0
  0
SOLID
  5
417B
330
4176
100
AcDbEntity
  8
0
 62
     0
370
    30
100
AcDbTrace
 10
31.22325396930333
 20
0.3612624067364752
 30
0.0
 11
31.22325396930333
 21
0.3345957400698087
 31
0.0
 12
31.14325396930333
 22
0.3479290734031419
 32
0.0
 13
31.14325396930333
 23
0.3479290734031419
 33
0.0
  0
SOLID
  5
417C
330
4176
100
AcDbEntity
  8
0
 62
     0
370
    30
100
AcDbTrace
 10
33.61325396930334
 20
0.3612624067364752
 30
0.0
 11
33.61325396930334
 21
0.3345957400698087
 31
0.0
 12
33.69325396930334
 22
0.3479290734031419
 32
0.0
 13
33.69325396930334
 23
0.3479290734031419
 33
0.0
  0
MTEXT
  5
417D
330
4176
100
AcDbEntity
  8
0
 62
     0
370
    30
100
AcDbMText
 10
32.41825396930333
 20
0.3479290734031419
 30
0.0
 40
0.09
 41
0.0
 71
     5
 72
     1
  1
\A1;2.5500 [64.77]
 73
     1
 44
1.0
  0
POINT
  5
417E
330
4176
100
AcDbEntity
  8
Defpoints
 62
     0
370
    30
100
AcDbPoint
 10
31.14325396930333
 20
1.143442897008574
 30
0.0
  0
POINT
  5
417F
330
4176
100
AcDbEntity
  8
Defpoints
 62
     0
370
    30
100
AcDbPoint
 10
33.69325396930334
 20
1.143442897008577
 30
0.0
  0
POINT
  5
4180
330
4176
100
AcDbEntity
  8
Defpoints
 62
     0
370
    30
100
AcDbPoint
 10
33.69325396930334
 20
0.3479290734031419
 30
0.0
  0
ENDBLK
  5
4182
330
4176
100
AcDbEntity
  8
0
370
    30
100
AcDbBlockEnd
  0
BLOCK
  5
418E
330
4183
100
AcDbEntity
  8
0
370
    30
100
AcDbBlockBegin
  2
*D19
 70
     1
 10
0.0
 20
0.0
 30
0.0
  3
*D19
  1

  0
LINE
  5
4184
330
4183
100
AcDbEntity
  8
0
 62
     0
370
    -2
100
AcDbLine
 10
31.37575396930333
 20
1.143442897008574
 30
0.0
 11
30.52915612089075
 21
1.143442897008574
 31
0.0
  0
LINE
  5
4185
330
4183
100
AcDbEntity
  8
0
 62
     0
370
    -2
100
AcDbLine
 10
31.37575396930333
 20
4.253442897008573
 30
0.0
 11
30.52915612089075
 21
4.253442897008573
 31
0.0
  0
LINE
  5
4186
330
4183
100
AcDbEntity
  8
0
 62
     0
370
    -2
100
AcDbLine
 10
30.57915612089075
 20
1.223442897008574
 30
0.0
 11
30.57915612089075
 21
2.563442897008574
 31
0.0
  0
LINE
  5
4187
330
4183
100
AcDbEntity
  8
0
 62
     0
370
    -2
100
AcDbLine
 10
30.57915612089075
 20
4.173442897008573
 30
0.0
 11
30.57915612089075
 21
2.833442897008574
 31
0.0
  0
SOLID
  5
4188
330
4183
100
AcDbEntity
  8
0
 62
     0
370
    30
100
AcDbTrace
 10
30.56582278755742
 20
1.223442897008574
 30
0.0
 11
30.59248945422408
 21
1.223442897008574
 31
0.0
 12
30.57915612089075
 22
1.143442897008574
 32
0.0
 13
30.57915612089075
 23
1.143442897008574
 33
0.0
  0
SOLID
  5
4189
330
4183
100
AcDbEntity
  8
0
 62
     0
370
    30
100
AcDbTrace
 10
30.56582278755742
 20
4.173442897008573
 30
0.0
 11
30.59248945422408
 21
4.173442897008573
 31
0.0
 12
30.57915612089075
 22
4.253442897008573
 32
0.0
 13
30.57915612089075
 23
4.253442897008573
 33
0.0
  0
MTEXT
  5
418A
330
4183
100
AcDbEntity
  8
0
 62
     0
370
    30
100
AcDbMText
 10
30.57915612089075
 20
2.698442897008579
 30
0.0
 40
0.09
 41
0.0
 71
     5
 72
     1
  1
\A1;3.1100 [78.99]
 73
     1
 44
1.0
  0
POINT
  5
418B
330
4183
100
AcDbEntity
  8
Defpoints
 62
     0
370
    30
100
AcDbPoint
 10
31.43825396930334
 20
1.143442897008574
 30
0.0
  0
POINT
  5
418C
330
4183
100
AcDbEntity
  8
Defpoints
 62
     0
370
    30
100
AcDbPoint
 10
31.43825396930334
 20
4.253442897008573
 30
0.0
  0
POINT
  5
418D
330
4183
100
AcDbEntity
  8
Defpoints
 62
     0
370
    30
100
AcDbPoint
 10
30.57915612089075
 20
4.253442897008573
 30
0.0
  0
ENDBLK
  5
418F
330
4183
100
AcDbEntity
  8
0
370
    30
100
AcDbBlockEnd
  0
BLOCK
  5
419B
330
4190
100
AcDbEntity
  8
0
370
    30
100
AcDbBlockBegin
  2
*D20
 70
     1
 10
0.0
 20
0.0
 30
0.0
  3
*D20
  1

  0
LINE
  5
4191
330
4190
100
AcDbEntity
  8
0
 62
     0
370
    -2
100
AcDbLine
 10
31.37575396930333
 20
4.548442897008575
 30
0.0
 11
29.93974215993089
 21
4.548442897008576
 31
0.0
  0
LINE
  5
4192
330
4190
100
AcDbEntity
  8
0
 62
     0
370
    -2
100
AcDbLine
 10
31.37575396930332
 20
0.8484428970085744
 30
0.0
 11
29.93974215993089
 21
0.8484428970085748
 31
0.0
  0
LINE
  5
4193
330
4190
100
AcDbEntity
  8
0
 62
     0
370
    -2
100
AcDbLine
 10
29.98974215993089
 20
4.468442897008576
 30
0.0
 11
29.98974215993089
 21
2.466613190409941
 31
0.0
  0
LINE
  5
4194
330
4190
100
AcDbEntity
  8
0
 62
     0
370
    -2
100
AcDbLine
 10
29.98974215993089
 20
0.9284428970085748
 30
0.0
 11
29.98974215993089
 21
2.196613190409941
 31
0.0
  0
SOLID
  5
4195
330
4190
100
AcDbEntity
  8
0
 62
     0
370
    30
100
AcDbTrace
 10
29.97640882659755
 20
4.468442897008576
 30
0.0
 11
30.00307549326422
 21
4.468442897008575
 31
0.0
 12
29.98974215993089
 22
4.548442897008576
 32
0.0
 13
29.98974215993089
 23
4.548442897008576
 33
0.0
  0
SOLID
  5
4196
330
4190
100
AcDbEntity
  8
0
 62
     0
370
    30
100
AcDbTrace
 10
29.97640882659755
 20
0.9284428970085748
 30
0.0
 11
30.00307549326422
 21
0.9284428970085748
 31
0.0
 12
29.98974215993089
 22
0.8484428970085748
 32
0.0
 13
29.98974215993089
 23
0.8484428970085748
 33
0.0
  0
MTEXT
  5
4197
330
4190
100
AcDbEntity
  8
0
 62
     0
370
    30
100
AcDbMText
 10
29.98974215993089
 20
2.331613190409946
 30
0.0
 40
0.09
 41
0.0
 71
     5
 72
     1
  1
\A1;3.7000 [93.98]
 73
     1
 44
1.0
  0
POINT
  5
4198
330
4190
100
AcDbEntity
  8
Defpoints
 62
     0
370
    30
100
AcDbPoint
 10
31.43825396930334
 20
4.548442897008575
 30
0.0
  0
POINT
  5
4199
330
4190
100
AcDbEntity
  8
Defpoints
 62
     0
370
    30
100
AcDbPoint
 10
31.43825396930332
 20
0.8484428970085744
 30
0.0
  0
POINT
  5
419A
330
4190
100
AcDbEntity
  8
Defpoints
 62
     0
370
    30
100
AcDbPoint
 10
29.98974215993089
 20
0.8484428970085748
 30
0.0
  0
ENDBLK
  5
419C
330
4190
100
AcDbEntity
  8
0
370
    30
100
AcDbBlockEnd
  0
BLOCK
  5
41A8
330
419D
100
AcDbEntity
  8
0
370
    30
100
AcDbBlockBegin
  2
*D21
 70
     1
 10
0.0
 20
0.0
 30
0.0
  3
*D21
  1

  0
LINE
  5
419E
330
419D
100
AcDbEntity
  8
0
 62
     0
370
    -2
100
AcDbLine
 10
35.27878909302263
 20
4.610942897008575
 30
0.0
 11
35.27878909302263
 21
5.110462898207509
 31
0.0
  0
LINE
  5
419F
330
419D
100
AcDbEntity
  8
0
 62
     0
370
    -2
100
AcDbLine
 10
36.81128909302263
 20
4.610942897008575
 30
0.0
 11
36.81128909302263
 21
5.110462898207509
 31
0.0
  0
LINE
  5
41A0
330
419D
100
AcDbEntity
  8
0
 62
     0
370
    -2
100
AcDbLine
 10
35.19878909302263
 20
5.060462898207509
 30
0.0
 11
35.11878909302264
 21
5.060462898207509
 31
0.0
  0
LINE
  5
41A1
330
419D
100
AcDbEntity
  8
0
 62
     0
370
    -2
100
AcDbLine
 10
36.89128909302263
 20
5.060462898207509
 30
0.0
 11
36.97128909302263
 21
5.060462898207509
 31
0.0
  0
SOLID
  5
41A2
330
419D
100
AcDbEntity
  8
0
 62
     0
370
    30
100
AcDbTrace
 10
35.19878909302263
 20
5.073796231540843
 30
0.0
 11
35.19878909302263
 21
5.047129564874175
 31
0.0
 12
35.27878909302263
 22
5.060462898207509
 32
0.0
 13
35.27878909302263
 23
5.060462898207509
 33
0.0
  0
SOLID
  5
41A3
330
419D
100
AcDbEntity
  8
0
 62
     0
370
    30
100
AcDbTrace
 10
36.89128909302263
 20
5.073796231540843
 30
0.0
 11
36.89128909302263
 21
5.047129564874175
 31
0.0
 12
36.81128909302263
 22
5.060462898207509
 32
0.0
 13
36.81128909302263
 23
5.060462898207509
 33
0.0
  0
MTEXT
  5
41A4
330
419D
100
AcDbEntity
  8
0
 62
     0
370
    30
100
AcDbMText
 10
36.04503909302263
 20
5.060462898207509
 30
0.0
 40
0.09
 41
0.0
 71
     5
 72
     1
  1
\A1;1.5325 [38.93]
 73
     1
 44
1.0
  0
POINT
  5
41A5
330
419D
100
AcDbEntity
  8
Defpoints
 62
     0
370
    30
100
AcDbPoint
 10
35.27878909302263
 20
4.548442897008575
 30
0.0
  0
POINT
  5
41A6
330
419D
100
AcDbEntity
  8
Defpoints
 62
     0
370
    30
100
AcDbPoint
 10
36.81128909302263
 20
4.548442897008575
 30
0.0
  0
POINT
  5
41A7
330
419D
100
AcDbEntity
  8
Defpoints
 62
     0
370
    30
100
AcDbPoint
 10
36.81128909302263
 20
5.060462898207509
 30
0.0
  0
ENDBLK
  5
41A9
330
419D
100
AcDbEntity
  8
0
370
    30
100
AcDbBlockEnd
  0
BLOCK
  5
41B5
330
41AA
100
AcDbEntity
  8
0
370
    30
100
AcDbBlockBegin
  2
*D22
 70
     1
 10
0.0
 20
0.0
 30
0.0
  3
*D22
  1

  0
LINE
  5
41AB
330
41AA
100
AcDbEntity
  8
0
 62
     0
370
    -2
100
AcDbLine
 10
37.52336588430303
 20
4.610942897008575
 30
0.0
 11
37.52336588430303
 21
5.110462898207509
 31
0.0
  0
LINE
  5
41AC
330
41AA
100
AcDbEntity
  8
0
 62
     0
370
    -2
100
AcDbLine
 10
38.12336588430303
 20
4.610942897008575
 30
0.0
 11
38.12336588430303
 21
5.110462898207509
 31
0.0
  0
LINE
  5
41AD
330
41AA
100
AcDbEntity
  8
0
 62
     0
370
    -2
100
AcDbLine
 10
37.60336588430303
 20
5.060462898207509
 30
0.0
 11
38.04336588430303
 21
5.060462898207509
 31
0.0
  0
LINE
  5
41AE
330
41AA
100
AcDbEntity
  8
0
 62
     0
370
    -2
100
AcDbLine
 10
38.12336588430303
 20
5.060462898207509
 30
0.0
 11
38.20336588430303
 21
5.060462898207509
 31
0.0
  0
SOLID
  5
41AF
330
41AA
100
AcDbEntity
  8
0
 62
     0
370
    30
100
AcDbTrace
 10
37.60336588430303
 20
5.073796231540843
 30
0.0
 11
37.60336588430303
 21
5.047129564874175
 31
0.0
 12
37.52336588430303
 22
5.060462898207509
 32
0.0
 13
37.52336588430303
 23
5.060462898207509
 33
0.0
  0
SOLID
  5
41B0
330
41AA
100
AcDbEntity
  8
0
 62
     0
370
    30
100
AcDbTrace
 10
38.04336588430303
 20
5.073796231540843
 30
0.0
 11
38.04336588430303
 21
5.047129564874175
 31
0.0
 12
38.12336588430303
 22
5.060462898207509
 32
0.0
 13
38.12336588430303
 23
5.060462898207509
 33
0.0
  0
MTEXT
  5
41B1
330
41AA
100
AcDbEntity
  8
0
 62
     0
370
    30
100
AcDbMText
 10
38.77336588430303
 20
5.060462898207509
 30
0.0
 40
0.09
 41
0.0
 71
     5
 72
     1
  1
\A1;0.6000 [15.24]
 73
     1
 44
1.0
  0
POINT
  5
41B2
330
41AA
100
AcDbEntity
  8
Defpoints
 62
     0
370
    30
100
AcDbPoint
 10
37.52336588430303
 20
4.548442897008575
 30
0.0
  0
POINT
  5
41B3
330
41AA
100
AcDbEntity
  8
Defpoints
 62
     0
370
    30
100
AcDbPoint
 10
38.12336588430303
 20
4.548442897008575
 30
0.0
  0
POINT
  5
41B4
330
41AA
100
AcDbEntity
  8
Defpoints
 62
     0
370
    30
100
AcDbPoint
 10
38.12336588430303
 20
5.060462898207509
 30
0.0
  0
ENDBLK
  5
41B6
330
41AA
100
AcDbEntity
  8
0
370
    30
100
AcDbBlockEnd
  0
BLOCK
  5
41C2
330
41B7
100
AcDbEntity
  8
0
370
    30
100
AcDbBlockBegin
  2
*D23
 70
     1
 10
0.0
 20
0.0
 30
0.0
  3
*D23
  1

  0
LINE
  5
41B8
330
41B7
100
AcDbEntity
  8
0
 62
     0
370
    -2
100
AcDbLine
 10
35.27878909302263
 20
0.7859428970085763
 30
0.0
 11
35.27878909302263
 21
0.4028412294065643
 31
0.0
  0
LINE
  5
41B9
330
41B7
100
AcDbEntity
  8
0
 62
     0
370
    -2
100
AcDbLine
 10
36.04128909302263
 20
2.034692897008573
 30
0.0
 11
36.04128909302263
 21
0.4028412294065643
 31
0.0
  0
LINE
  5
41BA
330
41B7
100
AcDbEntity
  8
0
 62
     0
370
    -2
100
AcDbLine
 10
35.35878909302264
 20
0.4528412294065643
 30
0.0
 11
35.96128909302263
 21
0.4528412294065643
 31
0.0
  0
LINE
  5
41BB
330
41B7
100
AcDbEntity
  8
0
 62
     0
370
    -2
100
AcDbLine
 10
36.04128909302263
 20
0.4528412294065643
 30
0.0
 11
36.12128909302263
 21
0.4528412294065643
 31
0.0
  0
SOLID
  5
41BC
330
41B7
100
AcDbEntity
  8
0
 62
     0
370
    30
100
AcDbTrace
 10
35.35878909302264
 20
0.4661745627398976
 30
0.0
 11
35.35878909302264
 21
0.439507896073231
 31
0.0
 12
35.27878909302263
 22
0.4528412294065643
 32
0.0
 13
35.27878909302263
 23
0.4528412294065643
 33
0.0
  0
SOLID
  5
41BD
330
41B7
100
AcDbEntity
  8
0
 62
     0
370
    30
100
AcDbTrace
 10
35.96128909302263
 20
0.4661745627398976
 30
0.0
 11
35.96128909302263
 21
0.439507896073231
 31
0.0
 12
36.04128909302263
 22
0.4528412294065643
 32
0.0
 13
36.04128909302263
 23
0.4528412294065643
 33
0.0
  0
MTEXT
  5
41BE
330
41B7
100
AcDbEntity
  8
0
 62
     0
370
    30
100
AcDbMText
 10
36.71378909302263
 20
0.4528412294065643
 30
0.0
 40
0.09
 41
0.0
 71
     5
 72
     1
  1
\A1;0.7625 [19.37]
 73
     1
 44
1.0
  0
POINT
  5
41BF
330
41B7
100
AcDbEntity
  8
Defpoints
 62
     0
370
    30
100
AcDbPoint
 10
35.27878909302263
 20
0.8484428970085762
 30
0.0
  0
POINT
  5
41C0
330
41B7
100
AcDbEntity
  8
Defpoints
 62
     0
370
    30
100
AcDbPoint
 10
36.04128909302263
 20
2.097192897008573
 30
0.0
  0
POINT
  5
41C1
330
41B7
100
AcDbEntity
  8
Defpoints
 62
     0
370
    30
100
AcDbPoint
 10
36.04128909302263
 20
0.4528412294065643
 30
0.0
  0
ENDBLK
  5
41C3
330
41B7
100
AcDbEntity
  8
0
370
    30
100
AcDbBlockEnd
  0
BLOCK
  5
41CF
330
41C4
100
AcDbEntity
  8
0
370
    30
100
AcDbBlockBegin
  2
*D24
 70
     1
 10
0.0
 20
0.0
 30
0.0
  3
*D24
  1

  0
LINE
  5
41C5
330
41C4
100
AcDbEntity
  8
0
 62
     0
370
    -2
100
AcDbLine
 10
35.21628909302263
 20
0.8484428970085764
 30
0.0
 11
34.66362785990451
 21
0.8484428970085764
 31
0.0
  0
LINE
  5
41C6
330
41C4
100
AcDbEntity
  8
0
 62
     0
370
    -2
100
AcDbLine
 10
35.97878909302263
 20
2.097192897008573
 30
0.0
 11
34.66362785990451
 21
2.097192897008574
 31
0.0
  0
LINE
  5
41C7
330
41C4
100
AcDbEntity
  8
0
 62
     0
370
    -2
100
AcDbLine
 10
34.7136278599045
 20
0.9284428970085764
 30
0.0
 11
34.7136278599045
 21
1.337817897008575
 31
0.0
  0
LINE
  5
41C8
330
41C4
100
AcDbEntity
  8
0
 62
     0
370
    -2
100
AcDbLine
 10
34.7136278599045
 20
2.017192897008574
 30
0.0
 11
34.7136278599045
 21
1.607817897008575
 31
0.0
  0
SOLID
  5
41C9
330
41C4
100
AcDbEntity
  8
0
 62
     0
370
    30
100
AcDbTrace
 10
34.70029452657117
 20
0.9284428970085764
 30
0.0
 11
34.72696119323784
 21
0.9284428970085764
 31
0.0
 12
34.7136278599045
 22
0.8484428970085764
 32
0.0
 13
34.7136278599045
 23
0.8484428970085764
 33
0.0
  0
SOLID
  5
41CA
330
41C4
100
AcDbEntity
  8
0
 62
     0
370
    30
100
AcDbTrace
 10
34.70029452657117
 20
2.017192897008574
 30
0.0
 11
34.72696119323784
 21
2.017192897008574
 31
0.0
 12
34.7136278599045
 22
2.097192897008574
 32
0.0
 13
34.7136278599045
 23
2.097192897008574
 33
0.0
  0
MTEXT
  5
41CB
330
41C4
100
AcDbEntity
  8
0
 62
     0
370
    30
100
AcDbMText
 10
34.7136278599045
 20
1.47281789700858
 30
0.0
 40
0.09
 41
0.0
 71
     5
 72
     1
  1
\A1;1.2488 [31.72]
 73
     1
 44
1.0
  0
POINT
  5
41CC
330
41C4
100
AcDbEntity
  8
Defpoints
 62
     0
370
    30
100
AcDbPoint
 10
35.27878909302263
 20
0.8484428970085762
 30
0.0
  0
POINT
  5
41CD
330
41C4
100
AcDbEntity
  8
Defpoints
 62
     0
370
    30
100
AcDbPoint
 10
36.04128909302263
 20
2.097192897008573
 30
0.0
  0
POINT
  5
41CE
330
41C4
100
AcDbEntity
  8
Defpoints
 62
     0
370
    30
100
AcDbPoint
 10
34.7136278599045
 20
2.097192897008574
 30
0.0
  0
ENDBLK
  5
41D0
330
41C4
100
AcDbEntity
  8
0
370
    30
100
AcDbBlockEnd
  0
BLOCK
  5
41DC
330
41D1
100
AcDbEntity
  8
0
370
    30
100
AcDbBlockBegin
  2
*D25
 70
     1
 10
0.0
 20
0.0
 30
0.0
  3
*D25
  1

  0
LINE
  5
41D2
330
41D1
100
AcDbEntity
  8
0
 62
     0
370
    -2
100
AcDbLine
 10
35.97878909302263
 20
2.097192897008573
 30
0.0
 11
34.66362785990451
 21
2.097192897008574
 31
0.0
  0
LINE
  5
41D3
330
41D1
100
AcDbEntity
  8
0
 62
     0
370
    -2
100
AcDbLine
 10
35.97878909302263
 20
3.299692897008576
 30
0.0
 11
34.66362785990451
 21
3.299692897008576
 31
0.0
  0
LINE
  5
41D4
330
41D1
100
AcDbEntity
  8
0
 62
     0
370
    -2
100
AcDbLine
 10
34.7136278599045
 20
2.177192897008574
 30
0.0
 11
34.7136278599045
 21
2.563442897008575
 31
0.0
  0
LINE
  5
41D5
330
41D1
100
AcDbEntity
  8
0
 62
     0
370
    -2
100
AcDbLine
 10
34.7136278599045
 20
3.219692897008576
 30
0.0
 11
34.7136278599045
 21
2.833442897008575
 31
0.0
  0
SOLID
  5
41D6
330
41D1
100
AcDbEntity
  8
0
 62
     0
370
    30
100
AcDbTrace
 10
34.70029452657117
 20
2.177192897008574
 30
0.0
 11
34.72696119323784
 21
2.177192897008574
 31
0.0
 12
34.7136278599045
 22
2.097192897008574
 32
0.0
 13
34.7136278599045
 23
2.097192897008574
 33
0.0
  0
SOLID
  5
41D7
330
41D1
100
AcDbEntity
  8
0
 62
     0
370
    30
100
AcDbTrace
 10
34.70029452657117
 20
3.219692897008576
 30
0.0
 11
34.72696119323784
 21
3.219692897008576
 31
0.0
 12
34.7136278599045
 22
3.299692897008576
 32
0.0
 13
34.7136278599045
 23
3.299692897008576
 33
0.0
  0
MTEXT
  5
41D8
330
41D1
100
AcDbEntity
  8
0
 62
     0
370
    30
100
AcDbMText
 10
34.7136278599045
 20
2.69844289700858
 30
0.0
 40
0.09
 41
0.0
 71
     5
 72
     1
  1
\A1;1.2025 [30.54]
 73
     1
 44
1.0
  0
POINT
  5
41D9
330
41D1
100
AcDbEntity
  8
Defpoints
 62
     0
370
    30
100
AcDbPoint
 10
36.04128909302263
 20
2.097192897008573
 30
0.0
  0
POINT
  5
41DA
330
41D1
100
AcDbEntity
  8
Defpoints
 62
     0
370
    30
100
AcDbPoint
 10
36.04128909302263
 20
3.299692897008576
 30
0.0
  0
POINT
  5
41DB
330
41D1
100
AcDbEntity
  8
Defpoints
 62
     0
370
    30
100
AcDbPoint
 10
34.7136278599045
 20
3.299692897008576
 30
0.0
  0
ENDBLK
  5
41DD
330
41D1
100
AcDbEntity
  8
0
370
    30
100
AcDbBlockEnd
  0
BLOCK
  5
41E9
330
41DE
100
AcDbEntity
  8
0
370
    30
100
AcDbBlockBegin
  2
*D26
 70
     1
 10
0.0
 20
0.0
 30
0.0
  3
*D26
  1

  0
LINE
  5
41DF
330
41DE
100
AcDbEntity
  8
0
 62
     0
370
    -2
100
AcDbLine
 10
35.97878909302263
 20
3.299692897008576
 30
0.0
 11
34.66362785990451
 21
3.299692897008576
 31
0.0
  0
LINE
  5
41E0
330
41DE
100
AcDbEntity
  8
0
 62
     0
370
    -2
100
AcDbLine
 10
35.21628909302263
 20
4.548442897008575
 30
0.0
 11
34.66362785990451
 21
4.548442897008575
 31
0.0
  0
LINE
  5
41E1
330
41DE
100
AcDbEntity
  8
0
 62
     0
370
    -2
100
AcDbLine
 10
34.7136278599045
 20
3.379692897008576
 30
0.0
 11
34.7136278599045
 21
3.789067897008576
 31
0.0
  0
LINE
  5
41E2
330
41DE
100
AcDbEntity
  8
0
 62
     0
370
    -2
100
AcDbLine
 10
34.7136278599045
 20
4.468442897008575
 30
0.0
 11
34.7136278599045
 21
4.059067897008575
 31
0.0
  0
SOLID
  5
41E3
330
41DE
100
AcDbEntity
  8
0
 62
     0
370
    30
100
AcDbTrace
 10
34.70029452657117
 20
3.379692897008576
 30
0.0
 11
34.72696119323784
 21
3.379692897008576
 31
0.0
 12
34.7136278599045
 22
3.299692897008576
 32
0.0
 13
34.7136278599045
 23
3.299692897008576
 33
0.0
  0
SOLID
  5
41E4
330
41DE
100
AcDbEntity
  8
0
 62
     0
370
    30
100
AcDbTrace
 10
34.70029452657117
 20
4.468442897008575
 30
0.0
 11
34.72696119323784
 21
4.468442897008575
 31
0.0
 12
34.7136278599045
 22
4.548442897008575
 32
0.0
 13
34.7136278599045
 23
4.548442897008575
 33
0.0
  0
MTEXT
  5
41E5
330
41DE
100
AcDbEntity
  8
0
 62
     0
370
    30
100
AcDbMText
 10
34.7136278599045
 20
3.924067897008581
 30
0.0
 40
0.09
 41
0.0
 71
     5
 72
     1
  1
\A1;1.2488 [31.72]
 73
     1
 44
1.0
  0
POINT
  5
41E6
330
41DE
100
AcDbEntity
  8
Defpoints
 62
     0
370
    30
100
AcDbPoint
 10
36.04128909302263
 20
3.299692897008576
 30
0.0
  0
POINT
  5
41E7
330
41DE
100
AcDbEntity
  8
Defpoints
 62
     0
370
    30
100
AcDbPoint
 10
35.27878909302263
 20
4.548442897008575
 30
0.0
  0
POINT
  5
41E8
330
41DE
100
AcDbEntity
  8
Defpoints
 62
     0
370
    30
100
AcDbPoint
 10
34.7136278599045
 20
4.548442897008575
 30
0.0
  0
ENDBLK
  5
41EA
330
41DE
100
AcDbEntity
  8
0
370
    30
100
AcDbBlockEnd
  0
BLOCK
  5
41F6
330
41EB
100
AcDbEntity
  8
0
370
    30
100
AcDbBlockBegin
  2
*D27
 70
     1
 10
0.0
 20
0.0
 30
0.0
  3
*D27
  1

  0
LINE
  5
41EC
330
41EB
100
AcDbEntity
  8
0
 62
     0
370
    -2
100
AcDbLine
 10
33.69325396930335
 20
5.262715897011197
 30
0.0
 11
33.69325396930335
 21
5.051436370840055
 31
0.0
  0
LINE
  5
41ED
330
41EB
100
AcDbEntity
  8
0
 62
     0
370
    -2
100
AcDbLine
 10
32.41825396930333
 20
6.025215897011193
 30
0.0
 11
32.41825396930333
 21
5.051436370840055
 31
0.0
  0
LINE
  5
41EE
330
41EB
100
AcDbEntity
  8
0
 62
     0
370
    -2
100
AcDbLine
 10
33.77325396930334
 20
5.101436370840055
 30
0.0
 11
33.85325396930334
 21
5.101436370840055
 31
0.0
  0
LINE
  5
41EF
330
41EB
100
AcDbEntity
  8
0
 62
     0
370
    -2
100
AcDbLine
 10
32.33825396930333
 20
5.101436370840055
 30
0.0
 11
32.25825396930334
 21
5.101436370840055
 31
0.0
  0
SOLID
  5
41F0
330
41EB
100
AcDbEntity
  8
0
 62
     0
370
    30
100
AcDbTrace
 10
33.77325396930334
 20
5.114769704173388
 30
0.0
 11
33.77325396930334
 21
5.088103037506721
 31
0.0
 12
33.69325396930335
 22
5.101436370840055
 32
0.0
 13
33.69325396930335
 23
5.101436370840055
 33
0.0
  0
SOLID
  5
41F1
330
41EB
100
AcDbEntity
  8
0
 62
     0
370
    30
100
AcDbTrace
 10
32.33825396930333
 20
5.114769704173388
 30
0.0
 11
32.33825396930333
 21
5.088103037506721
 31
0.0
 12
32.41825396930333
 22
5.101436370840055
 32
0.0
 13
32.41825396930333
 23
5.101436370840055
 33
0.0
  0
MTEXT
  5
41F2
330
41EB
100
AcDbEntity
  8
0
 62
     0
370
    30
100
AcDbMText
 10
33.08254638996771
 20
5.101436370840055
 30
0.0
 40
0.09
 41
0.0
 71
     5
 72
     1
  1
\A1;1.2750 [32.39]
 73
     1
 44
1.0
  0
POINT
  5
41F3
330
41EB
100
AcDbEntity
  8
Defpoints
 62
     0
370
    30
100
AcDbPoint
 10
33.69325396930335
 20
5.325215897011197
 30
0.0
  0
POINT
  5
41F4
330
41EB
100
AcDbEntity
  8
Defpoints
 62
     0
370
    30
100
AcDbPoint
 10
32.41825396930333
 20
6.087715897011193
 30
0.0
  0
POINT
  5
41F5
330
41EB
100
AcDbEntity
  8
Defpoints
 62
     0
370
    30
100
AcDbPoint
 10
32.41825396930333
 20
5.101436370840055
 30
0.0
  0
ENDBLK
  5
41F7
330
41EB
100
AcDbEntity
  8
0
370
    30
100
AcDbBlockEnd
  0
BLOCK
  5
4203
330
41F8
100
AcDbEntity
  8
0
370
    30
100
AcDbBlockBegin
  2
*D28
 70
     1
 10
0.0
 20
0.0
 30
0.0
  3
*D28
  1

  0
LINE
  5
41F9
330
41F8
100
AcDbEntity
  8
0
 62
     0
370
    -2
100
AcDbLine
 10
33.75575396930335
 20
5.325215897011197
 30
0.0
 11
34.39166274614693
 21
5.325215897011196
 31
0.0
  0
LINE
  5
41FA
330
41F8
100
AcDbEntity
  8
0
 62
     0
370
    -2
100
AcDbLine
 10
32.48075396930333
 20
6.087715897011193
 30
0.0
 11
34.39166274614693
 21
6.087715897011192
 31
0.0
  0
LINE
  5
41FB
330
41F8
100
AcDbEntity
  8
0
 62
     0
370
    -2
100
AcDbLine
 10
34.34166274614693
 20
5.405215897011196
 30
0.0
 11
34.34166274614693
 21
5.571465897011194
 31
0.0
  0
LINE
  5
41FC
330
41F8
100
AcDbEntity
  8
0
 62
     0
370
    -2
100
AcDbLine
 10
34.34166274614693
 20
6.007715897011192
 30
0.0
 11
34.34166274614693
 21
5.841465897011194
 31
0.0
  0
SOLID
  5
41FD
330
41F8
100
AcDbEntity
  8
0
 62
     0
370
    30
100
AcDbTrace
 10
34.3283294128136
 20
5.405215897011196
 30
0.0
 11
34.35499607948027
 21
5.405215897011196
 31
0.0
 12
34.34166274614693
 22
5.325215897011196
 32
0.0
 13
34.34166274614693
 23
5.325215897011196
 33
0.0
  0
SOLID
  5
41FE
330
41F8
100
AcDbEntity
  8
0
 62
     0
370
    30
100
AcDbTrace
 10
34.3283294128136
 20
6.007715897011192
 30
0.0
 11
34.35499607948027
 21
6.007715897011192
 31
0.0
 12
34.34166274614693
 22
6.087715897011192
 32
0.0
 13
34.34166274614693
 23
6.087715897011192
 33
0.0
  0
MTEXT
  5
41FF
330
41F8
100
AcDbEntity
  8
0
 62
     0
370
    30
100
AcDbMText
 10
34.34166274614693
 20
5.7064658970112
 30
0.0
 40
0.09
 41
0.0
 71
     5
 72
     1
  1
\A1;0.7625 [19.37]
 73
     1
 44
1.0
  0
POINT
  5
4200
330
41F8
100
AcDbEntity
  8
Defpoints
 62
     0
370
    30
100
AcDbPoint
 10
33.69325396930335
 20
5.325215897011197
 30
0.0
  0
POINT
  5
4201
330
41F8
100
AcDbEntity
  8
Defpoints
 62
     0
370
    30
100
AcDbPoint
 10
32.41825396930333
 20
6.087715897011193
 30
0.0
  0
POINT
  5
4202
330
41F8
100
AcDbEntity
  8
Defpoints
 62
     0
370
    30
100
AcDbPoint
 10
34.34166274614693
 20
6.087715897011192
 30
0.0
  0
ENDBLK
  5
4204
330
41F8
100
AcDbEntity
  8
0
370
    30
100
AcDbBlockEnd
  0
BLOCK
  5
420E
330
4205
100
AcDbEntity
  8
0
370
    30
100
AcDbBlockBegin
  2
*D29
 70
     1
 10
0.0
 20
0.0
 30
0.0
  3
*D29
  1

  0
LINE
  5
4206
330
4205
100
AcDbEntity
  8
0
 62
     0
370
    -2
100
AcDbLine
 10
32.71887037004116
 20
3.835168560499328
 30
0.0
 11
32.82199473672291
 21
3.835168560499326
 31
0.0
  0
LINE
  5
4207
330
4205
100
AcDbEntity
  8
0
 62
     0
370
    -2
100
AcDbLine
 10
32.82199473672291
 20
3.835168560499326
 30
0.0
 11
33.19997897036384
 21
4.109526168323071
 31
0.0
  0
MTEXT
  5
4208
330
4205
100
AcDbEntity
  8
0
 62
     0
370
    30
100
AcDbMText
 10
31.90137037004117
 20
3.835168560499324
 30
0.0
 40
0.09
 41
0.0
 71
     5
 72
     1
  1
\A1;\U+22050.3300 [\U+22058.38] x 4\PMOUNTING HOLE
 73
     1
 44
1.0
  0
SOLID
  5
4209
330
4205
100
AcDbEntity
  8
0
 62
     0
370
    30
100
AcDbTrace
 10
33.19214676744218
 20
4.120316644455833
 30
0.0
 11
33.2078111732855
 21
4.098735692190309
 31
0.0
 12
33.26472182716041
 22
4.156519385853034
 32
0.0
 13
33.26472182716041
 23
4.156519385853034
 33
0.0
  0
LINE
  5
420A
330
4205
100
AcDbEntity
  8
0
 62
     0
370
    -2
100
AcDbLine
 10
33.34825396930336
 20
4.253442897008577
 30
0.0
 11
33.44825396930335
 21
4.253442897008575
 31
0.0
  0
LINE
  5
420B
330
4205
100
AcDbEntity
  8
0
 62
     0
370
    -2
100
AcDbLine
 10
33.39825396930335
 20
4.203442897008576
 30
0.0
 11
33.39825396930335
 21
4.303442897008576
 31
0.0
  0
POINT
  5
420C
330
4205
100
AcDbEntity
  8
Defpoints
 62
     0
370
    30
100
AcDbPoint
 10
33.26472182716041
 20
4.156519385853034
 30
0.0
  0
POINT
  5
420D
330
4205
100
AcDbEntity
  8
Defpoints
 62
     0
370
    30
100
AcDbPoint
 10
33.53178611144628
 20
4.350366408164124
 30
0.0
  0
ENDBLK
  5
420F
330
4205
100
AcDbEntity
  8
0
370
    30
100
AcDbBlockEnd
  0
BLOCK
  5
4219
330
4210
100
AcDbEntity
  8
0
370
    30
100
AcDbBlockBegin
  2
*D30
 70
     1
 10
0.0
 20
0.0
 30
0.0
  3
*D30
  1

  0
LINE
  5
4211
330
4210
100
AcDbEntity
  8
0
 62
     0
370
    -2
100
AcDbLine
 10
32.91089990519599
 20
3.286544029384234
 30
0.0
 11
32.99089990519599
 21
3.286544029384236
 31
0.0
  0
LINE
  5
4212
330
4210
100
AcDbEntity
  8
0
 62
     0
370
    -2
100
AcDbLine
 10
32.99089990519599
 20
3.286544029384236
 30
0.0
 11
33.28372013696558
 21
3.981584475674935
 31
0.0
  0
MTEXT
  5
4213
330
4210
100
AcDbEntity
  8
0
 62
     0
370
    30
100
AcDbMText
 10
32.07089990519598
 20
3.286544029384236
 30
0.0
 40
0.09
 41
0.0
 71
     5
 72
     1
  1
\A1;\U+22050.4300 [\U+220510.92] x 4\PMOUNTING HOLE
 73
     1
 44
1.0
  0
SOLID
  5
4214
330
4210
100
AcDbEntity
  8
0
 62
     0
370
    30
100
AcDbTrace
 10
33.27143275069062
 20
3.986761146063082
 30
0.0
 11
33.29600752324054
 21
3.976407805286788
 31
0.0
 12
33.31478015929447
 22
4.055308793324735
 32
0.0
 13
33.31478015929447
 23
4.055308793324735
 33
0.0
  0
LINE
  5
4215
330
4210
100
AcDbEntity
  8
0
 62
     0
370
    -2
100
AcDbLine
 10
33.34825396930336
 20
4.253442897008577
 30
0.0
 11
33.44825396930335
 21
4.253442897008577
 31
0.0
  0
LINE
  5
4216
330
4210
100
AcDbEntity
  8
0
 62
     0
370
    -2
100
AcDbLine
 10
33.39825396930336
 20
4.20344289700858
 30
0.0
 11
33.39825396930336
 21
4.303442897008581
 31
0.0
  0
POINT
  5
4217
330
4210
100
AcDbEntity
  8
Defpoints
 62
     0
370
    30
100
AcDbPoint
 10
33.31478015929447
 20
4.055308793324735
 30
0.0
  0
POINT
  5
4218
330
4210
100
AcDbEntity
  8
Defpoints
 62
     0
370
    30
100
AcDbPoint
 10
33.48172777931225
 20
4.45157700069242
 30
0.0
  0
ENDBLK
  5
421A
330
4210
100
AcDbEntity
  8
0
370
    30
100
AcDbBlockEnd
  0
BLOCK
  5
4224
330
421B
100
AcDbEntity
  8
0
370
    30
100
AcDbBlockBegin
  2
*D31
 70
     1
 10
0.0
 20
0.0
 30
0.0
  3
*D31
  1

  0
LINE
  5
421C
330
421B
100
AcDbEntity
  8
0
 62
     0
370
    -2
100
AcDbLine
 10
31.07948792224797
 20
5.012819294505593
 30
0.0
 11
31.15948792224799
 21
5.012819294505593
 31
0.0
  0
LINE
  5
421D
330
421B
100
AcDbEntity
  8
0
 62
     0
370
    -2
100
AcDbLine
 10
31.15948792224799
 20
5.012819294505593
 30
0.0
 11
32.00760395114747
 21
5.737050012459263
 31
0.0
  0
MTEXT
  5
421E
330
421B
100
AcDbEntity
  8
0
 62
     0
370
    30
100
AcDbMText
 10
30.21698792224797
 20
5.012819294505597
 30
0.0
 40
0.09
 41
0.0
 71
     5
 72
     1
  1
\A1;\U+22050.9200 [\U+220523.37] x 6\PCONDUIT KNOCKOUTS
 73
     1
 44
1.0
  0
SOLID
  5
421F
330
421B
100
AcDbEntity
  8
0
 62
     0
370
    30
100
AcDbTrace
 10
31.99894553424495
 20
5.747189519080395
 30
0.0
 11
32.01626236804998
 21
5.726910505838132
 31
0.0
 12
32.06844099087426
 22
5.789000513874363
 32
0.0
 13
32.06844099087426
 23
5.789000513874363
 33
0.0
  0
LINE
  5
4220
330
421B
100
AcDbEntity
  8
0
 62
     0
370
    -2
100
AcDbLine
 10
32.36825396930333
 20
6.087715897011197
 30
0.0
 11
32.46825396930333
 21
6.087715897011198
 31
0.0
  0
LINE
  5
4221
330
421B
100
AcDbEntity
  8
0
 62
     0
370
    -2
100
AcDbLine
 10
32.41825396930333
 20
6.037715897011194
 30
0.0
 11
32.41825396930333
 21
6.137715897011197
 31
0.0
  0
POINT
  5
4222
330
421B
100
AcDbEntity
  8
Defpoints
 62
     0
370
    30
100
AcDbPoint
 10
32.06844099087426
 20
5.789000513874363
 30
0.0
  0
POINT
  5
4223
330
421B
100
AcDbEntity
  8
Defpoints
 62
     0
370
    30
100
AcDbPoint
 10
32.76806694773241
 20
6.38643128014803
 30
0.0
  0
ENDBLK
  5
4225
330
421B
100
AcDbEntity
  8
0
370
    30
100
AcDbBlockEnd
  0
BLOCK
  5
42BA
330
4226
100
AcDbEntity
  8
0
370
    30
100
AcDbBlockBegin
  2
A$C5DEF5365
 70
     0
 10
0.0
 20
0.0
 30
0.0
  3
A$C5DEF5365
  1

  0
DIMENSION
  5
4227
330
4226
100
AcDbEntity
  8
0
370
    30
100
AcDbDimension
  2
*D31
 10
3.323579073085262
 20
6.088502218868043
 30
0.0
 11
0.772500047600822
 21
4.714890233225609
 31
0.0
 12
-29.44448787464715
 22
-0.2979290612799872
 32
0.0
 70
   131
  1
<> x 6\PCONDUIT KNOCKOUTS
 71
     5
 42
0.9200000000000088
  3
DIM STYLE 1
100
AcDbDiametricDimension
 15
2.623953116227113
 25
5.491071452594376
 35
0.0
 40
0.0
1001
ACAD
1000
DSTYLE
1002
{
1070
   288
1070
     1
1002
}
  0
DIMENSION
  5
4228
330
4226
100
AcDbEntity
  8
0
370
    30
100
AcDbDimension
  2
*D20
 10
0.5452542852837397
 20
0.5505138357285877
 30
0.0
 11
0.5452542852837397
 21
2.033684129129959
 31
0.0
 12
-29.44448787464715
 22
-0.2979290612799872
 32
0.0
 70
   128
 71
     5
 42
3.700000000000001
  3
DIM STYLE 1
100
AcDbAlignedDimension
 13
1.993766094656187
 23
4.250513835728588
 33
0.0
 14
1.993766094656173
 24
0.5505138357285873
 34
0.0
 50
90.0
100
AcDbRotatedDimension
  0
DIMENSION
  5
4229
330
4226
100
AcDbEntity
  8
0
370
    30
100
AcDbDimension
  2
*D22
 10
8.678878009655882
 20
4.762533836927522
 30
0.0
 11
9.32887800965588
 21
4.762533836927522
 31
0.0
 12
-29.44448787464715
 22
-0.2979290612799872
 32
0.0
 71
     5
 42
0.6000000000000015
  3
DIM STYLE 1
100
AcDbAlignedDimension
 13
8.07887800965588
 23
4.250513835728588
 33
0.0
 14
8.678878009655882
 24
4.250513835728588
 34
0.0
100
AcDbRotatedDimension
  0
DIMENSION
  5
422A
330
4226
100
AcDbEntity
  8
0
370
    30
100
AcDbDimension
  2
*D24
 10
5.269139985257353
 20
1.799263835728587
 30
0.0
 11
5.269139985257353
 21
1.174888835728593
 31
0.0
 12
-29.44448787464715
 22
-0.2979290612799872
 32
0.0
 71
     5
 42
1.248749999999997
  3
DIM STYLE 1
100
AcDbAlignedDimension
 13
5.834301218375486
 23
0.5505138357285891
 33
0.0
 14
6.596801218375482
 24
1.799263835728586
 34
0.0
 50
90.0
100
AcDbRotatedDimension
  0
DIMENSION
  5
422B
330
4226
100
AcDbEntity
  8
0
370
    30
100
AcDbDimension
  2
*D23
 10
6.596801218375482
 20
0.154912168126577
 30
0.0
 11
7.269301218375481
 21
0.154912168126577
 31
0.0
 12
-29.44448787464715
 22
-0.2979290612799872
 32
0.0
 71
     5
 42
0.7624999999999958
  3
DIM STYLE 1
100
AcDbAlignedDimension
 13
5.834301218375486
 23
0.5505138357285891
 33
0.0
 14
6.596801218375482
 24
1.799263835728586
 34
0.0
100
AcDbRotatedDimension
  0
DIMENSION
  5
422C
330
4226
100
AcDbEntity
  8
0
370
    30
100
AcDbDimension
  2
*D19
 10
1.134668246243606
 20
3.955513835728586
 30
0.0
 11
1.134668246243606
 21
2.400513835728592
 31
0.0
 12
-29.44448787464715
 22
-0.2979290612799872
 32
0.0
 71
     5
 42
3.109999999999999
  3
DIM STYLE 1
100
AcDbAlignedDimension
 13
1.993766094656187
 23
0.8455138357285871
 33
0.0
 14
1.993766094656187
 24
3.955513835728586
 34
0.0
 50
90.0
100
AcDbRotatedDimension
  0
LINE
  5
422D
330
4226
100
AcDbEntity
  8
HIDDEN
370
    30
100
AcDbLine
 10
8.163878009655896
 20
0.6305138357285927
 30
0.0
 11
8.163878009655881
 21
4.170513835728588
 31
0.0
  0
LINE
  5
422E
330
4226
100
AcDbEntity
  8
0
  6
Continuous
370
    30
100
AcDbLine
 10
8.678878009655882
 20
4.250513835728588
 30
0.0
 11
8.678878009655882
 21
0.5505138357285891
 31
0.0
  0
LINE
  5
422F
330
4226
100
AcDbEntity
  8
0
  6
Continuous
370
    30
100
AcDbLine
 10
8.07887800965588
 20
0.5505138357285891
 30
0.0
 11
8.07887800965588
 21
4.250513835728588
 31
0.0
  0
LINE
  5
4230
330
4226
100
AcDbEntity
  8
0
  6
Continuous
370
    30
100
AcDbLine
 10
7.451801218375493
 20
0.6305138357285927
 30
0.0
 11
7.451801218375479
 21
4.170513835728588
 31
0.0
  0
LINE
  5
4231
330
4226
100
AcDbEntity
  8
0
  6
Continuous
370
    30
100
AcDbLine
 10
7.166801218375482
 20
1.000513835728588
 30
0.0
 11
7.166801218375482
 21
3.800513835728589
 31
0.0
  0
LINE
  5
4232
330
4226
100
AcDbEntity
  8
0
  6
Continuous
370
    30
100
AcDbLine
 10
6.026801218375481
 20
3.800513835728589
 30
0.0
 11
6.026801218375481
 21
1.000513835728588
 31
0.0
  0
LINE
  5
4233
330
4226
100
AcDbEntity
  8
0
  6
Continuous
370
    30
100
AcDbLine
 10
7.125551218375477
 20
1.059013835728588
 30
0.0
 11
7.125551218375477
 21
3.742013835728588
 31
0.0
  0
LINE
  5
4234
330
4226
100
AcDbEntity
  8
0
  6
Continuous
370
    30
100
AcDbLine
 10
6.06805121837548
 20
3.742013835728588
 30
0.0
 11
6.06805121837548
 21
1.059013835728588
 31
0.0
  0
LINE
  5
4235
330
4226
100
AcDbEntity
  8
0
  6
Continuous
370
    30
100
AcDbLine
 10
7.366801218375485
 20
0.5505138357285891
 30
0.0
 11
7.366801218375485
 21
4.250513835728588
 31
0.0
  0
LINE
  5
4236
330
4226
100
AcDbEntity
  8
0
  6
Continuous
370
    30
100
AcDbLine
 10
5.834301218375486
 20
4.250513835728588
 30
0.0
 11
5.834301218375486
 21
0.5505138357285891
 31
0.0
  0
LINE
  5
4237
330
4226
100
AcDbEntity
  8
0
  6
Continuous
370
    30
100
AcDbLine
 10
4.24876609465619
 20
0.8455138357285907
 30
0.0
 11
4.248766094656204
 21
3.955513835728586
 31
0.0
  0
LINE
  5
4238
330
4226
100
AcDbEntity
  8
0
  6
Continuous
370
    30
100
AcDbLine
 10
1.698766094656185
 20
3.955513835728586
 30
0.0
 11
1.698766094656185
 21
0.8455138357285871
 31
0.0
  0
DIMENSION
  5
4239
330
4226
100
AcDbEntity
  8
0
370
    30
100
AcDbDimension
  2
*D18
 10
4.24876609465619
 20
0.0500000121231548
 30
0.0
 11
2.973766094656184
 21
0.0500000121231548
 31
0.0
 12
-29.44448787464715
 22
-0.2979290612799872
 32
0.0
 71
     5
 42
2.550000000000011
  3
DIM STYLE 1
100
AcDbAlignedDimension
 13
1.698766094656178
 23
0.8455138357285871
 33
0.0
 14
4.24876609465619
 24
0.8455138357285907
 34
0.0
100
AcDbRotatedDimension
  0
DIMENSION
  5
423A
330
4226
100
AcDbEntity
  8
0
370
    30
100
AcDbDimension
  2
*D17
 10
3.953766094656188
 20
0.2940149109559567
 30
0.0
 11
2.973766094656184
 21
0.2940149109559567
 31
0.0
 12
-29.44448787464715
 22
-0.2979290612799872
 32
0.0
 71
     5
 42
1.960000000000015
  3
DIM STYLE 1
100
AcDbAlignedDimension
 13
1.993766094656173
 23
0.8455138357285907
 33
0.0
 14
3.953766094656188
 24
0.8455138357285925
 34
0.0
100
AcDbRotatedDimension
  0
LINE
  5
423B
330
4226
100
AcDbEntity
  8
0
  6
Continuous
370
    30
100
AcDbLine
 10
1.993766094656187
 20
0.5505138357285873
 30
0.0
 11
3.953766094656188
 21
0.5505138357285926
 31
0.0
  0
CIRCLE
  5
423C
330
4226
100
AcDbEntity
  8
0
370
    30
100
AcDbCircle
 10
1.993766094656173
 20
0.8455138357285907
 30
0.0
 40
0.165
  0
CIRCLE
  5
423D
330
4226
100
AcDbEntity
  8
0
  6
Continuous
370
    30
100
AcDbCircle
 10
1.993766094656173
 20
0.8455138357285907
 30
0.0
 40
0.215
  0
ARC
  5
423E
330
4226
100
AcDbEntity
  8
0
  6
Continuous
370
    30
100
AcDbCircle
 10
1.993766094656187
 20
0.8455138357285871
 30
0.0
 40
0.295
100
AcDbArc
 50
180.0
 51
270.0
  0
CIRCLE
  5
423F
330
4226
100
AcDbEntity
  8
0
370
    30
100
AcDbCircle
 10
3.953766094656188
 20
0.8455138357285925
 30
0.0
 40
0.165
  0
CIRCLE
  5
4240
330
4226
100
AcDbEntity
  8
0
  6
Continuous
370
    30
100
AcDbCircle
 10
3.953766094656188
 20
0.8455138357285925
 30
0.0
 40
0.215
  0
ARC
  5
4241
330
4226
100
AcDbEntity
  8
0
  6
Continuous
370
    30
100
AcDbCircle
 10
3.953766094656188
 20
0.8455138357285925
 30
0.0
 40
0.295
100
AcDbArc
 50
270.0
 51
359.9999999999996
  0
LINE
  5
4242
330
4226
100
AcDbEntity
  8
0
370
    30
100
AcDbLine
 10
7.366801218375485
 20
0.6805138357285934
 30
0.0
 11
7.451801218375493
 21
0.6805138357285934
 31
0.0
  0
LINE
  5
4243
330
4226
100
AcDbEntity
  8
0
370
    30
100
AcDbLine
 10
7.366801218375485
 20
1.010513835728591
 30
0.0
 11
7.451801218375493
 21
1.010513835728591
 31
0.0
  0
LINE
  5
4244
330
4226
100
AcDbEntity
  8
0
  6
Continuous
370
    30
100
AcDbLine
 10
7.366801218375478
 20
0.6305138357285927
 30
0.0
 11
7.451801218375486
 21
0.6305138357285927
 31
0.0
  0
LINE
  5
4245
330
4226
100
AcDbEntity
  8
HIDDEN
370
    30
100
AcDbLine
 10
6.084301218375486
 20
0.6805138357285934
 30
0.0
 11
7.366801218375485
 21
0.6805138357285934
 31
0.0
  0
LINE
  5
4246
330
4226
100
AcDbEntity
  8
HIDDEN
370
    30
100
AcDbLine
 10
6.084301218375486
 20
1.010513835728591
 30
0.0
 11
7.366801218375485
 21
1.010513835728591
 31
0.0
  0
LINE
  5
4247
330
4226
100
AcDbEntity
  8
0
  6
Continuous
370
    30
100
AcDbLine
 10
6.026801218375481
 20
1.000513835728588
 30
0.0
 11
7.166801218375482
 21
1.000513835728588
 31
0.0
  0
LINE
  5
4248
330
4226
100
AcDbEntity
  8
0
  6
Continuous
370
    30
100
AcDbLine
 10
6.06805121837548
 20
1.059013835728588
 30
0.0
 11
7.125551218375477
 21
1.059013835728588
 31
0.0
  0
LINE
  5
4249
330
4226
100
AcDbEntity
  8
0
  6
Continuous
370
    30
100
AcDbLine
 10
5.834301218375486
 20
0.5505138357285891
 30
0.0
 11
7.366801218375485
 21
0.5505138357285891
 31
0.0
  0
LINE
  5
424A
330
4226
100
AcDbEntity
  8
HIDDEN
  6
Continuous
370
    30
100
AcDbLine
 10
6.084301218375486
 20
1.010513835728591
 30
0.0
 11
6.084301218375493
 21
0.6805138357285952
 31
0.0
  0
LINE
  5
424B
330
4226
100
AcDbEntity
  8
0
  6
Continuous
370
    30
100
AcDbLine
 10
6.06805121837548
 20
1.059013835728588
 30
0.0
 11
6.026801218375481
 21
1.059013835728588
 31
0.0
  0
LINE
  5
424C
330
4226
100
AcDbEntity
  8
0
  6
Continuous
370
    30
100
AcDbLine
 10
7.125551218375477
 20
1.059013835728588
 30
0.0
 11
7.166801218375482
 21
1.059013835728588
 31
0.0
  0
LINE
  5
424D
330
4226
100
AcDbEntity
  8
HIDDEN
100
AcDbLine
 10
8.318878009655882
 20
0.6305138357285927
 30
0.0
 11
8.678878009655882
 21
0.6305138357285927
 31
0.0
  0
LINE
  5
424E
330
4226
100
AcDbEntity
  8
HIDDEN
100
AcDbLine
 10
8.318878009655882
 20
1.060513835728592
 30
0.0
 11
8.678878009655882
 21
1.060513835728592
 31
0.0
  0
LINE
  5
424F
330
4226
100
AcDbEntity
  8
0
  6
Continuous
370
    30
100
AcDbLine
 10
8.678878009655882
 20
0.5505138357285891
 30
0.0
 11
8.07887800965588
 21
0.5505138357285891
 31
0.0
  0
LEADER
  5
4250
330
4226
100
AcDbEntity
  8
0
370
    30
100
AcDbLeader
  3
Standard
 40
0.21
 41
1.32
 76
     2
 10
7.50323959740772
 20
0.8494046411292988
 30
0.0
 10
8.07887800965588
 20
0.8455138357285942
 30
0.0
213
0.8670767912803896
223
0.09
233
0.0
1001
ACAD
1000
DSTYLE
1002
{
1070
   147
1040
0.09
1070
    77
1070
     0
1002
}
  0
LINE
  5
4251
330
4226
100
AcDbEntity
  8
HIDDEN
370
    30
100
AcDbLine
 10
8.07887800965588
 20
0.6805138357285952
 30
0.0
 11
8.318878009655882
 21
0.6805138357285934
 31
0.0
  0
LINE
  5
4252
330
4226
100
AcDbEntity
  8
HIDDEN
370
    30
100
AcDbLine
 10
8.07887800965588
 20
1.010513835728593
 30
0.0
 11
8.318878009655882
 21
1.010513835728591
 31
0.0
  0
LINE
  5
4253
330
4226
100
AcDbEntity
  8
HIDDEN
100
AcDbLine
 10
8.318878009655882
 20
1.060513835728592
 30
0.0
 11
8.318878009655882
 21
0.6305138357285945
 31
0.0
  0
LINE
  5
4254
330
4226
100
AcDbEntity
  8
HIDDEN
370
    30
100
AcDbLine
 10
8.07887800965588
 20
0.6305138357285927
 30
0.0
 11
8.163878009655888
 21
0.6305138357285927
 31
0.0
  0
DIMENSION
  5
4255
330
4226
100
AcDbEntity
  8
0
370
    30
100
AcDbDimension
  2
*D28
 10
4.897174871499785
 20
5.789786835731205
 30
0.0
 11
4.897174871499785
 21
5.408536835731213
 31
0.0
 12
-29.44448787464715
 22
-0.2979290612799872
 32
0.0
 71
     5
 42
0.7624999999999958
  3
DIM STYLE 1
100
AcDbAlignedDimension
 13
4.248766094656197
 23
5.02728683573121
 33
0.0
 14
2.973766094656184
 24
5.789786835731206
 34
0.0
 50
90.0
100
AcDbRotatedDimension
  0
DIMENSION
  5
4256
330
4226
100
AcDbEntity
  8
0
370
    30
100
AcDbDimension
  2
*D26
 10
5.269139985257353
 20
4.250513835728588
 30
0.0
 11
5.269139985257353
 21
3.626138835728594
 31
0.0
 12
-29.44448787464715
 22
-0.2979290612799872
 32
0.0
 71
     5
 42
1.248749999999999
  3
DIM STYLE 1
100
AcDbAlignedDimension
 13
6.596801218375482
 23
3.001763835728588
 33
0.0
 14
5.834301218375486
 24
4.250513835728588
 34
0.0
 50
90.0
100
AcDbRotatedDimension
1001
ACAD
1000
DSTYLE
1002
{
1070
   279
1070
     1
1002
}
  0
DIMENSION
  5
4257
330
4226
100
AcDbEntity
  8
0
370
    30
100
AcDbDimension
  2
*D25
 10
5.269139985257353
 20
3.001763835728589
 30
0.0
 11
5.269139985257353
 21
2.400513835728593
 31
0.0
 12
-29.44448787464715
 22
-0.2979290612799872
 32
0.0
 71
     5
 42
1.202500000000002
  3
DIM STYLE 1
100
AcDbAlignedDimension
 13
6.596801218375482
 23
1.799263835728586
 33
0.0
 14
6.596801218375482
 24
3.001763835728588
 34
0.0
 50
90.0
100
AcDbRotatedDimension
1001
ACAD
1000
DSTYLE
1002
{
1070
   279
1070
     1
1002
}
  0
LINE
  5
4258
330
4226
100
AcDbEntity
  8
0
  6
Continuous
370
    30
100
AcDbLine
 10
2.207266094656183
 20
5.261036835731204
 30
0.0
 11
2.207266094656183
 21
6.318536835731201
 31
0.0
  0
LINE
  5
4259
330
4226
100
AcDbEntity
  8
HIDDEN
370
    30
100
AcDbLine
 10
2.158766094656179
 20
5.277286835731203
 30
0.0
 11
2.158766094656179
 21
6.644786835731203
 31
0.0
  0
LINE
  5
425A
330
4226
100
AcDbEntity
  8
HIDDEN
370
    30
100
AcDbLine
 10
1.828766094656181
 20
5.277286835731203
 30
0.0
 11
1.828766094656181
 21
6.644786835731196
 31
0.0
  0
MTEXT
  5
425B
330
4226
100
AcDbEntity
  8
0
370
    30
100
AcDbMText
 10
2.726289808767077
 20
5.839245557328567
 30
0.0
 40
0.09
 41
4.231799999999999
 71
     1
 72
     5
  1
Pg11/16
 73
     1
 44
1.0
  0
CIRCLE
  5
425C
330
4226
100
AcDbEntity
  8
0
  6
Continuous
370
    30
100
AcDbCircle
 10
2.973766094656184
 20
5.789786835731206
 30
0.0
 40
0.335
  0
CIRCLE
  5
425D
330
4226
100
AcDbEntity
  8
0
  6
Continuous
370
    30
100
AcDbCircle
 10
2.973766094656184
 20
5.789786835731206
 30
0.0
 40
0.375
  0
CIRCLE
  5
425E
330
4226
100
AcDbEntity
  8
0
  6
Continuous
370
    30
100
AcDbCircle
 10
2.973766094656184
 20
5.789786835731206
 30
0.0
 40
0.4185000000000001
  0
CIRCLE
  5
425F
330
4226
100
AcDbEntity
  8
0
  6
Continuous
370
    30
100
AcDbCircle
 10
2.973766094656184
 20
5.789786835731206
 30
0.0
 40
0.4600000000000001
  0
LINE
  5
4260
330
4226
100
AcDbEntity
  8
0
  6
Continuous
370
    30
100
AcDbLine
 10
1.698766094656178
 20
6.559786835731209
 30
0.0
 11
1.698766094656178
 21
5.02728683573121
 31
0.0
  0
LINE
  5
4261
330
4226
100
AcDbEntity
  8
0
  6
Continuous
370
    30
100
AcDbLine
 10
2.148766094656174
 20
6.359786835731206
 30
0.0
 11
2.148766094656174
 21
5.219786835731206
 31
0.0
  0
LINE
  5
4262
330
4226
100
AcDbEntity
  8
0
  6
Continuous
370
    30
100
AcDbLine
 10
3.740266094656199
 20
5.261036835731204
 30
0.0
 11
3.740266094656199
 21
6.318536835731201
 31
0.0
  0
LINE
  5
4263
330
4226
100
AcDbEntity
  8
HIDDEN
370
    30
100
AcDbLine
 10
3.788766094656203
 20
5.27728683573121
 30
0.0
 11
3.788766094656203
 21
6.559786835731209
 31
0.0
  0
LINE
  5
4264
330
4226
100
AcDbEntity
  8
HIDDEN
370
    30
100
AcDbLine
 10
4.118766094656201
 20
5.27728683573121
 30
0.0
 11
4.118766094656201
 21
6.559786835731209
 31
0.0
  0
LINE
  5
4265
330
4226
100
AcDbEntity
  8
0
  6
Continuous
370
    30
100
AcDbLine
 10
4.248766094656197
 20
5.02728683573121
 30
0.0
 11
4.248766094656197
 21
6.559786835731209
 31
0.0
  0
LINE
  5
4266
330
4226
100
AcDbEntity
  8
0
  6
Continuous
370
    30
100
AcDbLine
 10
3.798766094656201
 20
5.219786835731206
 30
0.0
 11
3.798766094656201
 21
6.359786835731206
 31
0.0
  0
MTEXT
  5
4267
102
{ACAD_REACTORS
330
426E
102
}
330
4226
100
AcDbEntity
  8
0
370
    30
100
AcDbMText
 10
2.34196983733473
 20
2.381083493819655
 30
0.0
 40
0.09
 41
0.0
 71
     1
 72
     1
  1
CL2 RATED CABLE &\P304 SERIES SS PROBE
 73
     1
 44
1.0
  0
DIMENSION
  5
4268
330
4226
100
AcDbEntity
  8
0
370
    30
100
AcDbDimension
  2
*D30
 10
4.037239904665099
 20
4.153647939412433
 30
0.0
 11
2.626412030548834
 21
2.988614968104249
 31
0.0
 12
-29.44448787464715
 22
-0.2979290612799872
 32
0.0
 70
   131
  1
<> x 4\PMOUNTING HOLE
 71
     5
 42
0.4299999999999998
  3
DIM STYLE 1
100
AcDbDiametricDimension
 15
3.87029228464732
 25
3.757379732044748
 35
0.0
 40
0.0
1001
ACAD
1000
DSTYLE
1002
{
1070
   288
1070
     1
1002
}
  0
DIMENSION
  5
4269
330
4226
100
AcDbEntity
  8
0
370
    30
100
AcDbDimension
  2
*D29
 10
4.087298236799128
 20
4.052437346884136
 30
0.0
 11
2.456882495394015
 21
3.537239499219337
 31
0.0
 12
-29.44448787464715
 22
-0.2979290612799872
 32
0.0
 70
   131
  1
<> x 4\PMOUNTING HOLE
 71
     5
 42
0.3299999999999983
  3
DIM STYLE 1
100
AcDbDiametricDimension
 15
3.820233952513262
 25
3.858590324573047
 35
0.0
 40
0.0
1001
ACAD
1000
DSTYLE
1002
{
1070
   288
1070
     1
1002
}
  0
LINE
  5
426A
330
4226
100
AcDbEntity
  8
0
  6
Continuous
370
    30
100
AcDbLine
 10
3.740266094656199
 20
5.219786835731198
 30
0.0
 11
2.148766094656174
 21
5.219786835731198
 31
0.0
  0
LINE
  5
426B
330
4226
100
AcDbEntity
  8
0
  6
Continuous
370
    30
100
AcDbLine
 10
3.740266094656192
 20
5.261036835731204
 30
0.0
 11
2.207266094656183
 21
5.261036835731204
 31
0.0
  0
LINE
  5
426C
330
4226
100
AcDbEntity
  8
0
  6
Continuous
370
    30
100
AcDbLine
 10
1.698766094656178
 20
5.02728683573121
 30
0.0
 11
4.248766094656197
 21
5.02728683573121
 31
0.0
  0
LINE
  5
426D
330
4226
100
AcDbEntity
  8
0
  6
Continuous
370
    30
100
AcDbLine
 10
3.953766094656202
 20
4.250513835728588
 30
0.0
 11
1.993766094656187
 21
4.250513835728586
 31
0.0
  0
LEADER
  5
426E
330
4226
100
AcDbEntity
  8
0
370
    30
100
AcDbLeader
  3
DIM STYLE 1
 73
     0
 40
0.2420115356885364
 41
1.309769286229271
 76
     3
 10
1.29366394921319
 20
2.95176383572859
 30
0.0
 10
2.027403208572792
 20
2.336083493819655
 30
0.0
 10
2.25196983733473
 20
2.336083493819655
 30
0.0
340
4267
213
0.0
223
-0.045
233
0.0
1001
ACAD
1000
DSTYLE
1002
{
1070
   147
1040
0.09
1070
    77
1070
     0
1002
}
  0
LINE
  5
426F
330
4226
100
AcDbEntity
  8
0
370
    30
100
AcDbLine
 10
1.698766094656185
 20
2.951763835728588
 30
0.0
 11
0.8885618037701945
 21
2.95176383572859
 31
0.0
  0
LINE
  5
4270
330
4226
100
AcDbEntity
  8
0
370
    30
100
AcDbLine
 10
1.698766094656185
 20
3.051763835728589
 30
0.0
 11
0.9011355391961473
 21
3.051763835728587
 31
0.0
  0
LINE
  5
4271
330
4226
100
AcDbEntity
  8
0
370
    30
100
AcDbLine
 10
0.9207499055436443
 20
3.007515263399405
 30
0.0
 11
0.8439162020746024
 21
2.87443538525734
 31
0.0
  0
LINE
  5
4272
330
4226
100
AcDbEntity
  8
0
370
    30
100
AcDbLine
 10
0.8747552018309079
 20
2.995191019683469
 30
0.0
 11
0.9207499055436443
 21
3.007515263399405
 31
0.0
  0
LINE
  5
4273
330
4226
100
AcDbEntity
  8
0
370
    30
100
AcDbLine
 10
0.9260481009522578
 20
3.105188996822198
 30
0.0
 11
0.8747552018309079
 21
2.995191019683469
 31
0.0
  0
CIRCLE
  5
4274
330
4226
100
AcDbEntity
  8
0
370
    30
100
AcDbCircle
 10
1.993766094656187
 20
3.955513835728586
 30
0.0
 40
0.165
  0
CIRCLE
  5
4275
330
4226
100
AcDbEntity
  8
0
  6
Continuous
370
    30
100
AcDbCircle
 10
1.993766094656187
 20
3.955513835728586
 30
0.0
 40
0.215
  0
ARC
  5
4276
330
4226
100
AcDbEntity
  8
0
  6
Continuous
370
    30
100
AcDbCircle
 10
1.993766094656187
 20
3.955513835728586
 30
0.0
 40
0.295
100
AcDbArc
 50
90.0
 51
180.0
  0
LINE
  5
4277
330
4226
100
AcDbEntity
  8
HIDDEN
  6
Continuous
370
    30
100
AcDbLine
 10
1.828766094656181
 20
5.27728683573121
 30
0.0
 11
2.158766094656179
 21
5.277286835731203
 31
0.0
  0
LINE
  5
4278
330
4226
100
AcDbEntity
  8
0
  6
Continuous
370
    30
100
AcDbLine
 10
2.207266094656183
 20
5.261036835731204
 30
0.0
 11
2.207266094656183
 21
5.219786835731206
 31
0.0
  0
DIMENSION
  5
4279
330
4226
100
AcDbEntity
  8
0
370
    30
100
AcDbDimension
  2
*D27
 10
2.973766094656184
 20
4.803507309560067
 30
0.0
 11
3.638058515320565
 21
4.803507309560067
 31
0.0
 12
-29.44448787464715
 22
-0.2979290612799872
 32
0.0
 70
   128
 71
     5
 42
1.275000000000012
  3
DIM STYLE 1
100
AcDbAlignedDimension
 13
4.248766094656197
 23
5.02728683573121
 33
0.0
 14
2.973766094656184
 24
5.789786835731206
 34
0.0
100
AcDbRotatedDimension
  0
LINE
  5
427A
330
4226
100
AcDbEntity
  8
HIDDEN
  6
Continuous
370
    30
100
AcDbLine
 10
3.788766094656203
 20
5.27728683573121
 30
0.0
 11
4.118766094656194
 21
5.277286835731217
 31
0.0
  0
CIRCLE
  5
427B
330
4226
100
AcDbEntity
  8
0
370
    30
100
AcDbCircle
 10
3.953766094656202
 20
3.955513835728588
 30
0.0
 40
0.165
  0
CIRCLE
  5
427C
330
4226
100
AcDbEntity
  8
0
  6
Continuous
370
    30
100
AcDbCircle
 10
3.953766094656202
 20
3.955513835728588
 30
0.0
 40
0.215
  0
LINE
  5
427D
330
4226
100
AcDbEntity
  8
0
370
    30
100
AcDbLine
 10
3.740266094656199
 20
5.219786835731198
 30
0.0
 11
3.798766094656201
 21
5.219786835731206
 31
0.0
  0
LINE
  5
427E
330
4226
100
AcDbEntity
  8
0
  6
Continuous
370
    30
100
AcDbLine
 10
3.740266094656199
 20
5.261036835731204
 30
0.0
 11
3.740266094656199
 21
5.219786835731206
 31
0.0
  0
ARC
  5
427F
330
4226
100
AcDbEntity
  8
0
  6
Continuous
370
    30
100
AcDbCircle
 10
3.953766094656202
 20
3.955513835728588
 30
0.0
 40
0.295
100
AcDbArc
 50
359.9999999999997
 51
90.0
  0
LINE
  5
4280
330
4226
100
AcDbEntity
  8
0
  6
Continuous
370
    30
100
AcDbLine
 10
4.24876609465619
 20
7.271863627011601
 30
0.0
 11
1.698766094656178
 21
7.271863627011605
 31
0.0
  0
LINE
  5
4281
330
4226
100
AcDbEntity
  8
0
  6
Continuous
370
    30
100
AcDbLine
 10
1.698766094656178
 20
7.871863627011606
 30
0.0
 11
4.24876609465619
 21
7.871863627011606
 31
0.0
  0
LINE
  5
4282
330
4226
100
AcDbEntity
  8
HIDDEN
370
    30
100
AcDbLine
 10
4.168766094656199
 20
7.35686362701162
 30
0.0
 11
1.778766094656184
 21
7.356863627011605
 31
0.0
  0
LINE
  5
4283
330
4226
100
AcDbEntity
  8
0
  6
Continuous
370
    30
100
AcDbLine
 10
4.248766094656197
 20
6.559786835731205
 30
0.0
 11
1.698766094656178
 21
6.559786835731209
 31
0.0
  0
LINE
  5
4284
330
4226
100
AcDbEntity
  8
0
  6
Continuous
370
    30
100
AcDbLine
 10
4.168766094656199
 20
6.644786835731217
 30
0.0
 11
1.778766094656184
 21
6.644786835731203
 31
0.0
  0
LINE
  5
4285
330
4226
100
AcDbEntity
  8
0
  6
Continuous
370
    30
100
AcDbLine
 10
3.740266094656199
 20
6.359786835731206
 30
0.0
 11
2.148766094656174
 21
6.359786835731206
 31
0.0
  0
LINE
  5
4286
330
4226
100
AcDbEntity
  8
0
  6
Continuous
370
    30
100
AcDbLine
 10
3.740266094656192
 20
6.318536835731201
 30
0.0
 11
2.207266094656183
 21
6.318536835731201
 31
0.0
  0
LEADER
  5
4287
330
4226
100
AcDbEntity
  8
0
370
    30
100
AcDbLeader
  3
Standard
 40
0.21
 41
1.32
 76
     2
 10
1.989875289255472
 20
6.696225214763444
 30
0.0
 10
1.99376609465618
 20
7.271863627011605
 30
0.0
211
0.0000000000000001
221
1.0
231
0.0
213
-0.09
223
0.8670767912803896
233
0.0
1001
ACAD
1000
DSTYLE
1002
{
1070
   147
1040
0.09
1070
    77
1070
     0
1002
}
  0
LINE
  5
4288
330
4226
100
AcDbEntity
  8
0
  6
Continuous
370
    30
100
AcDbLine
 10
1.778766094656177
 20
6.559786835731202
 30
0.0
 11
1.778766094656177
 21
6.64478683573121
 31
0.0
  0
LINE
  5
4289
330
4226
100
AcDbEntity
  8
0
  6
Continuous
370
    30
100
AcDbLine
 10
2.207266094656183
 20
6.318536835731201
 30
0.0
 11
2.207266094656183
 21
6.359786835731206
 31
0.0
  0
LINE
  5
428A
330
4226
100
AcDbEntity
  8
HIDDEN
100
AcDbLine
 10
1.778766094656184
 20
7.511863627011607
 30
0.0
 11
2.208766094656176
 21
7.511863627011607
 31
0.0
  0
LINE
  5
428B
330
4226
100
AcDbEntity
  8
HIDDEN
370
    30
100
AcDbLine
 10
1.778766094656177
 20
7.271863627011605
 30
0.0
 11
1.778766094656177
 21
7.356863627011613
 31
0.0
  0
LINE
  5
428C
330
4226
100
AcDbEntity
  8
HIDDEN
370
    30
100
AcDbLine
 10
1.828766094656181
 20
7.271863627011597
 30
0.0
 11
1.828766094656181
 21
7.511863627011607
 31
0.0
  0
LINE
  5
428D
330
4226
100
AcDbEntity
  8
0
  6
Continuous
370
    30
100
AcDbLine
 10
1.698766094656178
 20
7.271863627011605
 30
0.0
 11
1.698766094656178
 21
7.871863627011606
 31
0.0
  0
LINE
  5
428E
330
4226
100
AcDbEntity
  8
HIDDEN
100
AcDbLine
 10
1.778766094656184
 20
7.511863627011599
 30
0.0
 11
1.778766094656184
 21
7.871863627011606
 31
0.0
  0
LINE
  5
428F
330
4226
100
AcDbEntity
  8
HIDDEN
370
    30
100
AcDbLine
 10
2.158766094656179
 20
7.271863627011597
 30
0.0
 11
2.158766094656179
 21
7.511863627011607
 31
0.0
  0
LINE
  5
4290
330
4226
100
AcDbEntity
  8
HIDDEN
100
AcDbLine
 10
2.208766094656176
 20
7.511863627011599
 30
0.0
 11
2.208766094656176
 21
7.871863627011606
 31
0.0
  0
LINE
  5
4291
330
4226
100
AcDbEntity
  8
HIDDEN
100
AcDbLine
 10
3.738766094656192
 20
7.511863627011607
 30
0.0
 11
4.168766094656199
 21
7.511863627011607
 31
0.0
  0
LINE
  5
4292
330
4226
100
AcDbEntity
  8
0
370
    30
100
AcDbLine
 10
3.740266094656199
 20
6.359786835731206
 30
0.0
 11
3.798766094656201
 21
6.359786835731206
 31
0.0
  0
LINE
  5
4293
330
4226
100
AcDbEntity
  8
0
370
    30
100
AcDbLine
 10
3.788766094656203
 20
6.559786835731209
 30
0.0
 11
3.788766094656203
 21
6.644786835731217
 31
0.0
  0
LINE
  5
4294
330
4226
100
AcDbEntity
  8
0
  6
Continuous
370
    30
100
AcDbLine
 10
3.740266094656199
 20
6.318536835731201
 30
0.0
 11
3.740266094656199
 21
6.359786835731206
 31
0.0
  0
LINE
  5
4295
330
4226
100
AcDbEntity
  8
HIDDEN
370
    30
100
AcDbLine
 10
3.788766094656196
 20
7.271863627011605
 30
0.0
 11
3.788766094656203
 21
7.511863627011607
 31
0.0
  0
LINE
  5
4296
330
4226
100
AcDbEntity
  8
HIDDEN
100
AcDbLine
 10
3.738766094656192
 20
7.511863627011607
 30
0.0
 11
3.738766094656192
 21
7.871863627011606
 31
0.0
  0
LEADER
  5
4297
330
4226
100
AcDbEntity
  8
0
370
    30
100
AcDbLeader
  3
Standard
 40
0.21
 41
1.32
 76
     2
 10
3.949875289255494
 20
6.696225214763444
 30
0.0
 10
3.953766094656195
 20
7.271863627011605
 30
0.0
211
0.0000000000000001
221
1.0
231
0.0
213
-0.09
223
0.8670767912803896
233
0.0
1001
ACAD
1000
DSTYLE
1002
{
1070
   147
1040
0.09
1070
    77
1070
     0
1002
}
  0
LINE
  5
4298
330
4226
100
AcDbEntity
  8
0
  6
Continuous
370
    30
100
AcDbLine
 10
4.168766094656199
 20
6.559786835731202
 30
0.0
 11
4.168766094656199
 21
6.64478683573121
 31
0.0
  0
LINE
  5
4299
330
4226
100
AcDbEntity
  8
0
370
    30
100
AcDbLine
 10
4.118766094656201
 20
6.559786835731209
 30
0.0
 11
4.118766094656201
 21
6.644786835731217
 31
0.0
  0
LINE
  5
429A
330
4226
100
AcDbEntity
  8
HIDDEN
370
    30
100
AcDbLine
 10
4.168766094656199
 20
7.271863627011605
 30
0.0
 11
4.168766094656199
 21
7.356863627011613
 31
0.0
  0
LINE
  5
429B
330
4226
100
AcDbEntity
  8
HIDDEN
370
    30
100
AcDbLine
 10
4.118766094656194
 20
7.271863627011605
 30
0.0
 11
4.118766094656201
 21
7.511863627011607
 31
0.0
  0
LINE
  5
429C
330
4226
100
AcDbEntity
  8
0
  6
Continuous
370
    30
100
AcDbLine
 10
4.248766094656197
 20
7.871863627011606
 30
0.0
 11
4.248766094656197
 21
7.271863627011605
 31
0.0
  0
LINE
  5
429D
330
4226
100
AcDbEntity
  8
HIDDEN
100
AcDbLine
 10
4.168766094656199
 20
7.511863627011607
 30
0.0
 11
4.168766094656199
 21
7.871863627011606
 31
0.0
  0
DIMENSION
  5
429E
330
4226
100
AcDbEntity
  8
0
370
    30
100
AcDbDimension
  2
*D21
 10
7.366801218375485
 20
4.762533836927522
 30
0.0
 11
6.600551218375485
 21
4.762533836927522
 31
0.0
 12
-29.44448787464715
 22
-0.2979290612799872
 32
0.0
 71
     5
 42
1.532499999999998
  3
DIM STYLE 1
100
AcDbAlignedDimension
 13
5.834301218375486
 23
4.250513835728588
 33
0.0
 14
7.366801218375485
 24
4.250513835728588
 34
0.0
100
AcDbRotatedDimension
  0
LINE
  5
429F
330
4226
100
AcDbEntity
  8
HIDDEN
370
    30
100
AcDbLine
 10
6.084301218375479
 20
4.120513835728587
 30
0.0
 11
7.451801218375472
 21
4.120513835728587
 31
0.0
  0
LINE
  5
42A0
330
4226
100
AcDbEntity
  8
HIDDEN
370
    30
100
AcDbLine
 10
6.084301218375479
 20
3.790513835728587
 30
0.0
 11
7.451801218375479
 21
3.790513835728589
 31
0.0
  0
LINE
  5
42A1
330
4226
100
AcDbEntity
  8
0
  6
Continuous
370
    30
100
AcDbLine
 10
7.366801218375478
 20
4.17051383572859
 30
0.0
 11
7.451801218375486
 21
4.17051383572859
 31
0.0
  0
CIRCLE
  5
42A2
330
4226
100
AcDbEntity
  8
0
  6
Continuous
370
    30
100
AcDbCircle
 10
6.596801218375482
 20
3.001763835728588
 30
0.0
 40
0.4600000000000001
  0
CIRCLE
  5
42A3
330
4226
100
AcDbEntity
  8
0
  6
Continuous
370
    30
100
AcDbCircle
 10
6.596801218375482
 20
3.001763835728588
 30
0.0
 40
0.4185000000000001
  0
CIRCLE
  5
42A4
330
4226
100
AcDbEntity
  8
0
  6
Continuous
370
    30
100
AcDbCircle
 10
6.596801218375482
 20
1.799263835728586
 30
0.0
 40
0.4185000000000001
  0
CIRCLE
  5
42A5
330
4226
100
AcDbEntity
  8
0
  6
Continuous
370
    30
100
AcDbCircle
 10
6.596801218375482
 20
1.799263835728586
 30
0.0
 40
0.4600000000000001
  0
CIRCLE
  5
42A6
330
4226
100
AcDbEntity
  8
0
  6
Continuous
370
    30
100
AcDbCircle
 10
6.596801218375482
 20
1.799263835728586
 30
0.0
 40
0.335
  0
CIRCLE
  5
42A7
330
4226
100
AcDbEntity
  8
0
  6
Continuous
370
    30
100
AcDbCircle
 10
6.596801218375482
 20
1.799263835728586
 30
0.0
 40
0.375
  0
MTEXT
  5
42A8
330
4226
100
AcDbEntity
  8
0
370
    30
100
AcDbMText
 10
6.646259939972843
 20
2.046740121617693
 30
0.0
 40
0.09
 41
4.231799999999999
 71
     1
 72
     5
  1
Pg11/16
 11
-0.0000000000000002
 21
-1.0
 31
0.0
 73
     1
 44
1.0
  0
CIRCLE
  5
42A9
330
4226
100
AcDbEntity
  8
0
  6
Continuous
370
    30
100
AcDbCircle
 10
6.596801218375482
 20
3.001763835728588
 30
0.0
 40
0.335
  0
CIRCLE
  5
42AA
330
4226
100
AcDbEntity
  8
0
  6
Continuous
370
    30
100
AcDbCircle
 10
6.596801218375482
 20
3.001763835728588
 30
0.0
 40
0.375
  0
MTEXT
  5
42AB
330
4226
100
AcDbEntity
  8
0
370
    30
100
AcDbMText
 10
6.646259939972843
 20
3.249240121617695
 30
0.0
 40
0.09
 41
4.231799999999999
 71
     1
 72
     5
  1
Pg11/16
 11
-0.0000000000000002
 21
-1.0
 31
0.0
 73
     1
 44
1.0
  0
LINE
  5
42AC
330
4226
100
AcDbEntity
  8
0
  6
Continuous
370
    30
100
AcDbLine
 10
7.166801218375482
 20
3.800513835728589
 30
0.0
 11
6.026801218375481
 21
3.800513835728589
 31
0.0
  0
LINE
  5
42AD
330
4226
100
AcDbEntity
  8
0
  6
Continuous
370
    30
100
AcDbLine
 10
6.06805121837548
 20
3.742013835728588
 30
0.0
 11
7.125551218375477
 21
3.742013835728588
 31
0.0
  0
LINE
  5
42AE
330
4226
100
AcDbEntity
  8
0
  6
Continuous
370
    30
100
AcDbLine
 10
7.366801218375485
 20
4.250513835728588
 30
0.0
 11
5.834301218375486
 21
4.250513835728588
 31
0.0
  0
LINE
  5
42AF
330
4226
100
AcDbEntity
  8
HIDDEN
  6
Continuous
370
    30
100
AcDbLine
 10
6.084301218375486
 20
4.120513835728587
 30
0.0
 11
6.084301218375479
 21
3.790513835728589
 31
0.0
  0
LINE
  5
42B0
330
4226
100
AcDbEntity
  8
0
  6
Continuous
370
    30
100
AcDbLine
 10
6.06805121837548
 20
3.742013835728588
 30
0.0
 11
6.026801218375481
 21
3.742013835728588
 31
0.0
  0
LINE
  5
42B1
330
4226
100
AcDbEntity
  8
0
  6
Continuous
370
    30
100
AcDbLine
 10
7.125551218375477
 20
3.742013835728588
 30
0.0
 11
7.166801218375482
 21
3.742013835728588
 31
0.0
  0
LINE
  5
42B2
330
4226
100
AcDbEntity
  8
HIDDEN
100
AcDbLine
 10
8.318878009655875
 20
4.170513835728586
 30
0.0
 11
8.678878009655882
 21
4.170513835728588
 31
0.0
  0
LINE
  5
42B3
330
4226
100
AcDbEntity
  8
HIDDEN
100
AcDbLine
 10
8.318878009655875
 20
3.740513835728586
 30
0.0
 11
8.678878009655882
 21
3.740513835728588
 31
0.0
  0
LINE
  5
42B4
330
4226
100
AcDbEntity
  8
0
  6
Continuous
370
    30
100
AcDbLine
 10
8.07887800965588
 20
4.250513835728588
 30
0.0
 11
8.678878009655882
 21
4.250513835728588
 31
0.0
  0
LEADER
  5
42B5
330
4226
100
AcDbEntity
  8
0
370
    30
100
AcDbLeader
  3
Standard
 40
0.21
 41
1.32
 76
     2
 10
7.50323959740772
 20
3.959404641129291
 30
0.0
 10
8.07887800965588
 20
3.955513835728586
 30
0.0
213
0.8670767912803896
223
0.09
233
0.0
1001
ACAD
1000
DSTYLE
1002
{
1070
   147
1040
0.09
1070
    77
1070
     0
1002
}
  0
LINE
  5
42B6
330
4226
100
AcDbEntity
  8
HIDDEN
370
    30
100
AcDbLine
 10
8.078878009655873
 20
4.120513835728587
 30
0.0
 11
8.318878009655882
 21
4.120513835728587
 31
0.0
  0
LINE
  5
42B7
330
4226
100
AcDbEntity
  8
HIDDEN
370
    30
100
AcDbLine
 10
8.078878009655873
 20
3.790513835728587
 30
0.0
 11
8.318878009655882
 21
3.790513835728589
 31
0.0
  0
LINE
  5
42B8
330
4226
100
AcDbEntity
  8
HIDDEN
100
AcDbLine
 10
8.318878009655882
 20
4.170513835728586
 30
0.0
 11
8.318878009655882
 21
3.740513835728588
 31
0.0
  0
LINE
  5
42B9
330
4226
100
AcDbEntity
  8
HIDDEN
370
    30
100
AcDbLine
 10
8.07887800965588
 20
4.17051383572859
 30
0.0
 11
8.163878009655888
 21
4.17051383572859
 31
0.0
  0
ENDBLK
  5
42BB
330
4226
100
AcDbEntity
  8
0
370
    30
100
AcDbBlockEnd
  0
BLOCK
  5
51B8
330
51AD
100
AcDbEntity
  8
0
370
    30
100
AcDbBlockBegin
  2
*D33
 70
     1
 10
0.0
 20
0.0
 30
0.0
  3
*D33
  1

  0
LINE
  5
5CA7
330
51AD
100
AcDbEntity
  8
0
 62
     0
370
    -2
100
AcDbLine
 10
35.62296444937922
 20
17.76234922578338
 30
0.0
 11
36.34455569534701
 21
17.76234922578338
 31
0.0
  0
LINE
  5
5CA8
330
51AD
100
AcDbEntity
  8
0
 62
     0
370
    -2
100
AcDbLine
 10
35.62296444937922
 20
21.96234922578338
 30
0.0
 11
36.34455569534701
 21
21.96234922578338
 31
0.0
  0
LINE
  5
5CA9
330
51AD
100
AcDbEntity
  8
0
 62
     0
370
    -2
100
AcDbLine
 10
36.29455569534701
 20
17.91234922578338
 30
0.0
 11
36.29455569534701
 21
19.71414446731186
 31
0.0
  0
LINE
  5
5CAA
330
51AD
100
AcDbEntity
  8
0
 62
     0
370
    -2
100
AcDbLine
 10
36.29455569534701
 20
21.81234922578338
 30
0.0
 11
36.29455569534701
 21
20.0105539842549
 31
0.0
  0
SOLID
  5
5CAB
330
51AD
100
AcDbEntity
  8
0
 62
     0
370
    30
100
AcDbTrace
 10
36.26955569534701
 20
17.91234922578338
 30
0.0
 11
36.31955569534701
 21
17.91234922578338
 31
0.0
 12
36.29455569534701
 22
17.76234922578338
 32
0.0
 13
36.29455569534701
 23
17.76234922578338
 33
0.0
  0
SOLID
  5
5CAC
330
51AD
100
AcDbEntity
  8
0
 62
     0
370
    30
100
AcDbTrace
 10
36.26955569534701
 20
21.81234922578338
 30
0.0
 11
36.31955569534701
 21
21.81234922578338
 31
0.0
 12
36.29455569534701
 22
21.96234922578338
 32
0.0
 13
36.29455569534701
 23
21.96234922578338
 33
0.0
  0
MTEXT
  5
5CAD
330
51AD
100
AcDbEntity
  8
0
 62
     0
100
AcDbMText
 10
36.294555695347
 20
19.86234922578338
 30
0.0
 40
0.09
 41
0.0
 71
     5
 72
     1
  1
\A1;4.2000" [106.68mm]
 73
     1
 44
1.0
  0
POINT
  5
5CAE
330
51AD
100
AcDbEntity
  8
Defpoints
 62
     0
370
    30
100
AcDbPoint
 10
35.56046444937922
 20
17.76234922578338
 30
0.0
  0
POINT
  5
5CAF
330
51AD
100
AcDbEntity
  8
Defpoints
 62
     0
370
    30
100
AcDbPoint
 10
35.56046444937922
 20
21.96234922578338
 30
0.0
  0
POINT
  5
5CB0
330
51AD
100
AcDbEntity
  8
Defpoints
 62
     0
370
    30
100
AcDbPoint
 10
36.29455569534701
 20
21.96234922578338
 30
0.0
  0
ENDBLK
  5
51B9
330
51AD
100
AcDbEntity
  8
0
370
    30
100
AcDbBlockEnd
  0
BLOCK
  5
51C5
330
51BA
100
AcDbEntity
  8
0
370
    30
100
AcDbBlockBegin
  2
*D34
 70
     1
 10
0.0
 20
0.0
 30
0.0
  3
*D34
  1

  0
LINE
  5
5CB1
330
51BA
100
AcDbEntity
  8
0
 62
     0
370
    -2
100
AcDbLine
 10
35.61046444937923
 20
21.97484922578338
 30
0.0
 11
35.61046444937923
 21
22.25620553944566
 31
0.0
  0
LINE
  5
5CB2
330
51BA
100
AcDbEntity
  8
0
 62
     0
370
    -2
100
AcDbLine
 10
33.26046444937922
 20
21.97484922578338
 30
0.0
 11
33.26046444937922
 21
22.25620553944566
 31
0.0
  0
LINE
  5
5CB3
330
51BA
100
AcDbEntity
  8
0
 62
     0
370
    -2
100
AcDbLine
 10
35.46046444937923
 20
22.20620553944566
 30
0.0
 11
35.04220201246502
 21
22.20620553944566
 31
0.0
  0
LINE
  5
5CB4
330
51BA
100
AcDbEntity
  8
0
 62
     0
370
    -2
100
AcDbLine
 10
33.41046444937922
 20
22.20620553944566
 30
0.0
 11
33.82872688629343
 21
22.20620553944566
 31
0.0
  0
SOLID
  5
5CB5
330
51BA
100
AcDbEntity
  8
0
 62
     0
370
    30
100
AcDbTrace
 10
35.46046444937923
 20
22.23120553944565
 30
0.0
 11
35.46046444937923
 21
22.18120553944566
 31
0.0
 12
35.61046444937923
 22
22.20620553944566
 32
0.0
 13
35.61046444937923
 23
22.20620553944566
 33
0.0
  0
SOLID
  5
5CB6
330
51BA
100
AcDbEntity
  8
0
 62
     0
370
    30
100
AcDbTrace
 10
33.41046444937922
 20
22.23120553944565
 30
0.0
 11
33.41046444937922
 21
22.18120553944566
 31
0.0
 12
33.26046444937922
 22
22.20620553944566
 32
0.0
 13
33.26046444937922
 23
22.20620553944566
 33
0.0
  0
MTEXT
  5
5CB7
330
51BA
100
AcDbEntity
  8
0
 62
     0
100
AcDbMText
 10
34.43546444937922
 20
22.20620553944566
 30
0.0
 40
0.09
 41
0.0
 71
     5
 72
     1
  1
\A1;2.3500" [59.69mm]
 73
     1
 44
1.0
  0
POINT
  5
5CB8
330
51BA
100
AcDbEntity
  8
Defpoints
 62
     0
370
    30
100
AcDbPoint
 10
35.61046444937923
 20
21.91234922578338
 30
0.0
  0
POINT
  5
5CB9
330
51BA
100
AcDbEntity
  8
Defpoints
 62
     0
370
    30
100
AcDbPoint
 10
33.26046444937922
 20
21.91234922578338
 30
0.0
  0
POINT
  5
5CBA
330
51BA
100
AcDbEntity
  8
Defpoints
 62
     0
370
    30
100
AcDbPoint
 10
33.26046444937922
 20
22.20620553944566
 30
0.0
  0
ENDBLK
  5
51C6
330
51BA
100
AcDbEntity
  8
0
370
    30
100
AcDbBlockEnd
  0
BLOCK
  5
51D2
330
51C7
100
AcDbEntity
  8
0
370
    30
100
AcDbBlockBegin
  2
*D35
 70
     1
 10
0.0
 20
0.0
 30
0.0
  3
*D35
  1

  0
LINE
  5
651A
330
51C7
100
AcDbEntity
  8
0
  6
Continuous
 62
     0
370
    -2
100
AcDbLine
 10
37.44754175358596
 20
10.62495741292961
 30
0.0
 11
37.44754175358596
 21
13.59362138523409
 31
0.0
  0
LINE
  5
651B
330
51C7
100
AcDbEntity
  8
0
  6
Continuous
 62
     0
370
    -2
100
AcDbLine
 10
36.20304175358596
 20
10.62258731688431
 30
0.0
 11
36.20304175358596
 21
13.59362138523409
 31
0.0
  0
LINE
  5
651C
330
51C7
100
AcDbEntity
  8
0
  6
Continuous
 62
     0
370
    -2
100
AcDbLine
 10
36.35304175358595
 20
13.54362138523409
 30
0.0
 11
37.29754175358596
 21
13.54362138523409
 31
0.0
  0
LINE
  5
651D
330
51C7
100
AcDbEntity
  8
0
  6
Continuous
 62
     0
370
    -2
100
AcDbLine
 10
37.44754175358596
 20
13.54362138523409
 30
0.0
 11
39.14193378369544
 21
13.54362138523409
 31
0.0
  0
SOLID
  5
651E
330
51C7
100
AcDbEntity
  8
0
  6
Continuous
 62
     0
370
    30
100
AcDbTrace
 10
36.35304175358595
 20
13.56862138523409
 30
0.0
 11
36.35304175358595
 21
13.51862138523409
 31
0.0
 12
36.20304175358596
 22
13.54362138523409
 32
0.0
 13
36.20304175358596
 23
13.54362138523409
 33
0.0
  0
SOLID
  5
651F
330
51C7
100
AcDbEntity
  8
0
  6
Continuous
 62
     0
370
    30
100
AcDbTrace
 10
37.29754175358596
 20
13.56862138523409
 30
0.0
 11
37.29754175358596
 21
13.51862138523409
 31
0.0
 12
37.44754175358596
 22
13.54362138523409
 32
0.0
 13
37.44754175358596
 23
13.54362138523409
 33
0.0
  0
MTEXT
  5
6520
330
51C7
100
AcDbEntity
  8
0
  6
Continuous
 62
     0
370
    30
100
AcDbMText
 10
39.67586673250583
 20
13.54362138523409
 30
0.0
 40
0.09
 41
0.0
 71
     5
 72
     1
  1
\A1;1.25" [31.75mm]
 73
     1
 44
1.0
  0
POINT
  5
6521
330
51C7
100
AcDbEntity
  8
Defpoints
  6
Continuous
 62
     0
370
    30
100
AcDbPoint
 10
37.44754175358596
 20
10.56245741292961
 30
0.0
  0
POINT
  5
6522
330
51C7
100
AcDbEntity
  8
Defpoints
  6
Continuous
 62
     0
370
    30
100
AcDbPoint
 10
36.20304175358596
 20
10.56008731688431
 30
0.0
  0
POINT
  5
6523
330
51C7
100
AcDbEntity
  8
Defpoints
  6
Continuous
 62
     0
370
    30
100
AcDbPoint
 10
36.20304175358596
 20
13.54362138523409
 30
0.0
  0
ENDBLK
  5
51D3
330
51C7
100
AcDbEntity
  8
0
370
    30
100
AcDbBlockEnd
  0
BLOCK
  5
51DF
330
51D4
100
AcDbEntity
  8
0
370
    30
100
AcDbBlockBegin
  2
*D36
 70
     1
 10
0.0
 20
0.0
 30
0.0
  3
*D36
  1

  0
LINE
  5
5CC5
330
51D4
100
AcDbEntity
  8
0
  6
Continuous
 62
     0
370
    -2
100
AcDbLine
 10
44.6905006762658
 20
19.22614150968142
 30
0.0
 11
44.6905006762658
 21
18.47012330488331
 31
0.0
  0
LINE
  5
5CC6
330
51D4
100
AcDbEntity
  8
0
  6
Continuous
 62
     0
370
    -2
100
AcDbLine
 10
47.36255310766678
 20
19.3494529108703
 30
0.0
 11
47.36255310766678
 21
18.47012330488331
 31
0.0
  0
LINE
  5
5CC7
330
51D4
100
AcDbEntity
  8
0
  6
Continuous
 62
     0
370
    -2
100
AcDbLine
 10
44.8405006762658
 20
18.52012330488331
 30
0.0
 11
45.48727310681849
 21
18.52012330488331
 31
0.0
  0
LINE
  5
5CC8
330
51D4
100
AcDbEntity
  8
0
  6
Continuous
 62
     0
370
    -2
100
AcDbLine
 10
47.21255310766678
 20
18.52012330488331
 30
0.0
 11
46.56578067711409
 21
18.52012330488331
 31
0.0
  0
SOLID
  5
5CC9
330
51D4
100
AcDbEntity
  8
0
  6
Continuous
 62
     0
370
    30
100
AcDbTrace
 10
44.8405006762658
 20
18.54512330488331
 30
0.0
 11
44.8405006762658
 21
18.49512330488331
 31
0.0
 12
44.6905006762658
 22
18.52012330488331
 32
0.0
 13
44.6905006762658
 23
18.52012330488331
 33
0.0
  0
SOLID
  5
5CCA
330
51D4
100
AcDbEntity
  8
0
  6
Continuous
 62
     0
370
    30
100
AcDbTrace
 10
47.21255310766678
 20
18.54512330488331
 30
0.0
 11
47.21255310766678
 21
18.49512330488331
 31
0.0
 12
47.36255310766678
 22
18.52012330488331
 32
0.0
 13
47.36255310766678
 23
18.52012330488331
 33
0.0
  0
MTEXT
  5
5CCB
330
51D4
100
AcDbEntity
  8
0
  6
Continuous
 62
     0
370
    30
100
AcDbMText
 10
46.02652689196629
 20
18.52012330488331
 30
0.0
 40
0.09
 41
0.0
 71
     5
 72
     1
  1
\A1;7.3" [184.42mm]
 73
     1
 44
1.0
  0
POINT
  5
5CCC
330
51D4
100
AcDbEntity
  8
Defpoints
  6
Continuous
 62
     0
370
    30
100
AcDbPoint
 10
44.6905006762658
 20
19.28864150968142
 30
0.0
  0
POINT
  5
5CCD
330
51D4
100
AcDbEntity
  8
Defpoints
  6
Continuous
 62
     0
370
    30
100
AcDbPoint
 10
47.36255310766678
 20
19.4119529108703
 30
0.0
  0
POINT
  5
5CCE
330
51D4
100
AcDbEntity
  8
Defpoints
  6
Continuous
 62
     0
370
    30
100
AcDbPoint
 10
47.36255310766678
 20
18.52012330488331
 30
0.0
  0
ENDBLK
  5
51E0
330
51D4
100
AcDbEntity
  8
0
370
    30
100
AcDbBlockEnd
  0
BLOCK
  5
51EC
330
51E1
100
AcDbEntity
  8
0
370
    30
100
AcDbBlockBegin
  2
*D37
 70
     1
 10
0.0
 20
0.0
 30
0.0
  3
*D37
  1

  0
LINE
  5
5CCF
330
51E1
100
AcDbEntity
  8
0
 62
     0
370
    -2
100
AcDbLine
 10
43.88875067626581
 20
18.66484922578338
 30
0.0
 11
43.88875067626581
 21
17.52596479054902
 31
0.0
  0
LINE
  5
5CD0
330
51E1
100
AcDbEntity
  8
0
 62
     0
370
    -2
100
AcDbLine
 10
44.69050067626581
 20
17.89284922578338
 30
0.0
 11
44.69050067626581
 21
17.52596479054902
 31
0.0
  0
LINE
  5
5CD1
330
51E1
100
AcDbEntity
  8
0
 62
     0
370
    -2
100
AcDbLine
 10
44.0387506762658
 20
17.57596479054902
 30
0.0
 11
44.54050067626581
 21
17.57596479054902
 31
0.0
  0
LINE
  5
5CD2
330
51E1
100
AcDbEntity
  8
0
 62
     0
370
    -2
100
AcDbLine
 10
44.69050067626581
 20
17.57596479054902
 30
0.0
 11
44.84050067626582
 21
17.57596479054902
 31
0.0
  0
SOLID
  5
5CD3
330
51E1
100
AcDbEntity
  8
0
 62
     0
370
    30
100
AcDbTrace
 10
44.0387506762658
 20
17.60096479054903
 30
0.0
 11
44.0387506762658
 21
17.55096479054903
 31
0.0
 12
43.88875067626581
 22
17.57596479054902
 32
0.0
 13
43.88875067626581
 23
17.57596479054902
 33
0.0
  0
SOLID
  5
5CD4
330
51E1
100
AcDbEntity
  8
0
 62
     0
370
    30
100
AcDbTrace
 10
44.54050067626581
 20
17.60096479054903
 30
0.0
 11
44.54050067626581
 21
17.55096479054903
 31
0.0
 12
44.69050067626581
 22
17.57596479054902
 32
0.0
 13
44.69050067626581
 23
17.57596479054902
 33
0.0
  0
MTEXT
  5
5CD5
330
51E1
100
AcDbEntity
  8
0
 62
     0
370
    30
100
AcDbMText
 10
45.44626491563135
 20
17.57596479054902
 30
0.0
 40
0.09
 41
0.0
 71
     5
 72
     1
  1
\A1;0.8018" [20.36mm]
 73
     1
 44
1.0
  0
POINT
  5
5CD6
330
51E1
100
AcDbEntity
  8
Defpoints
 62
     0
370
    30
100
AcDbPoint
 10
43.88875067626581
 20
18.72734922578338
 30
0.0
  0
POINT
  5
5CD7
330
51E1
100
AcDbEntity
  8
Defpoints
 62
     0
370
    30
100
AcDbPoint
 10
44.69050067626581
 20
17.95534922578338
 30
0.0
  0
POINT
  5
5CD8
330
51E1
100
AcDbEntity
  8
Defpoints
 62
     0
370
    30
100
AcDbPoint
 10
44.69050067626581
 20
17.57596479054902
 30
0.0
  0
ENDBLK
  5
51ED
330
51E1
100
AcDbEntity
  8
0
370
    30
100
AcDbBlockEnd
  0
BLOCK
  5
51F6
330
51EE
100
AcDbEntity
  8
0
370
    30
100
AcDbBlockBegin
  2
*D38
 70
     1
 10
0.0
 20
0.0
 30
0.0
  3
*D38
  1

  0
LINE
  5
5CD9
330
51EE
100
AcDbEntity
  8
0
 62
     0
370
    -2
100
AcDbLine
 10
41.4490690743522
 20
24.75266136997473
 30
0.0
 11
40.10954868923825
 21
24.54048089255771
 31
0.0
  0
MTEXT
  5
5CDA
330
51EE
100
AcDbEntity
  8
0
 62
     0
370
    30
100
AcDbMText
 10
42.14820750261464
 20
24.75266136997473
 30
0.0
 40
0.09
 41
0.0
 71
     5
 72
     1
  1
\A1;1/2" KNOCKOUT 11x
 73
     1
 44
1.0
  0
SOLID
  5
5CDB
330
51EE
100
AcDbEntity
  8
0
 62
     0
370
    30
100
AcDbTrace
 10
40.10563744474938
 20
24.56517304043002
 30
0.0
 11
40.11345993372712
 21
24.51578874468539
 31
0.0
 12
39.96139580200435
 22
24.51701342562451
 32
0.0
 13
39.96139580200435
 23
24.51701342562451
 33
0.0
  0
LINE
  5
5CDC
330
51EE
100
AcDbEntity
  8
0
 62
     0
370
    -2
100
AcDbLine
 10
39.47286325579201
 20
24.44754972350226
 30
0.0
 11
39.572863255792
 21
24.44754972350226
 31
0.0
  0
LINE
  5
5CDD
330
51EE
100
AcDbEntity
  8
0
 62
     0
370
    -2
100
AcDbLine
 10
39.52286325579201
 20
24.39754972350226
 30
0.0
 11
39.52286325579201
 21
24.49754972350226
 31
0.0
  0
POINT
  5
5CDE
330
51EE
100
AcDbEntity
  8
Defpoints
 62
     0
370
    30
100
AcDbPoint
 10
39.96139580200435
 20
24.51701342562451
 30
0.0
  0
POINT
  5
5CDF
330
51EE
100
AcDbEntity
  8
Defpoints
 62
     0
370
    30
100
AcDbPoint
 10
39.08433070957968
 20
24.37808602138001
 30
0.0
  0
ENDBLK
  5
51F7
330
51EE
100
AcDbEntity
  8
0
370
    30
100
AcDbBlockEnd
  0
BLOCK
  5
5203
330
51F8
100
AcDbEntity
  8
0
370
    30
100
AcDbBlockBegin
  2
*D39
 70
     1
 10
0.0
 20
0.0
 30
0.0
  3
*D39
  1

  0
LINE
  5
5CE0
330
51F8
100
AcDbEntity
  8
0
 62
     0
370
    -2
100
AcDbLine
 10
38.39586325579202
 20
21.85534922578338
 30
0.0
 11
37.64378735395416
 21
21.85534922578338
 31
0.0
  0
LINE
  5
5CE1
330
51F8
100
AcDbEntity
  8
0
 62
     0
370
    -2
100
AcDbLine
 10
38.39586325579202
 20
17.85534922578338
 30
0.0
 11
37.64378735395416
 21
17.85534922578338
 31
0.0
  0
LINE
  5
5CE2
330
51F8
100
AcDbEntity
  8
0
 62
     0
370
    -2
100
AcDbLine
 10
37.69378735395415
 20
21.70534922578338
 30
0.0
 11
37.69378735395415
 21
20.0035539842549
 31
0.0
  0
LINE
  5
5CE3
330
51F8
100
AcDbEntity
  8
0
 62
     0
370
    -2
100
AcDbLine
 10
37.69378735395415
 20
18.00534922578338
 30
0.0
 11
37.69378735395415
 21
19.70714446731186
 31
0.0
  0
SOLID
  5
5CE4
330
51F8
100
AcDbEntity
  8
0
 62
     0
370
    30
100
AcDbTrace
 10
37.66878735395415
 20
21.70534922578338
 30
0.0
 11
37.71878735395415
 21
21.70534922578338
 31
0.0
 12
37.69378735395415
 22
21.85534922578338
 32
0.0
 13
37.69378735395415
 23
21.85534922578338
 33
0.0
  0
SOLID
  5
5CE5
330
51F8
100
AcDbEntity
  8
0
 62
     0
370
    30
100
AcDbTrace
 10
37.66878735395415
 20
18.00534922578338
 30
0.0
 11
37.71878735395415
 21
18.00534922578338
 31
0.0
 12
37.69378735395415
 22
17.85534922578338
 32
0.0
 13
37.69378735395415
 23
17.85534922578338
 33
0.0
  0
MTEXT
  5
5CE6
330
51F8
100
AcDbEntity
  8
0
 62
     0
370
    30
100
AcDbMText
 10
37.69378735395415
 20
19.85534922578338
 30
0.0
 40
0.09
 41
0.0
 71
     5
 72
     1
  1
\A1;4.0000" [101.60mm]
 73
     1
 44
1.0
  0
POINT
  5
5CE7
330
51F8
100
AcDbEntity
  8
Defpoints
 62
     0
370
    30
100
AcDbPoint
 10
38.45836325579202
 20
21.85534922578338
 30
0.0
  0
POINT
  5
5CE8
330
51F8
100
AcDbEntity
  8
Defpoints
 62
     0
370
    30
100
AcDbPoint
 10
38.45836325579202
 20
17.85534922578338
 30
0.0
  0
POINT
  5
5CE9
330
51F8
100
AcDbEntity
  8
Defpoints
 62
     0
370
    30
100
AcDbPoint
 10
37.69378735395415
 20
17.85534922578338
 30
0.0
  0
ENDBLK
  5
5204
330
51F8
100
AcDbEntity
  8
0
370
    30
100
AcDbBlockEnd
  0
BLOCK
  5
5210
330
5205
100
AcDbEntity
  8
0
370
    30
100
AcDbBlockBegin
  2
*D40
 70
     1
 10
0.0
 20
0.0
 30
0.0
  3
*D40
  1

  0
LINE
  5
5CEA
330
5205
100
AcDbEntity
  8
0
 62
     0
370
    -2
100
AcDbLine
 10
38.45836325579202
 20
17.79284922578338
 30
0.0
 11
38.45836325579202
 21
17.38675811977301
 31
0.0
  0
LINE
  5
5CEB
330
5205
100
AcDbEntity
  8
0
 62
     0
370
    -2
100
AcDbLine
 10
40.58836325579203
 20
17.79284922578338
 30
0.0
 11
40.58836325579203
 21
17.38675811977301
 31
0.0
  0
LINE
  5
5CEC
330
5205
100
AcDbEntity
  8
0
 62
     0
370
    -2
100
AcDbLine
 10
38.60836325579202
 20
17.43675811977301
 30
0.0
 11
38.91662569270622
 21
17.43675811977301
 31
0.0
  0
LINE
  5
5CED
330
5205
100
AcDbEntity
  8
0
 62
     0
370
    -2
100
AcDbLine
 10
40.43836325579202
 20
17.43675811977301
 30
0.0
 11
40.13010081887781
 21
17.43675811977301
 31
0.0
  0
SOLID
  5
5CEE
330
5205
100
AcDbEntity
  8
0
 62
     0
370
    30
100
AcDbTrace
 10
38.60836325579202
 20
17.46175811977301
 30
0.0
 11
38.60836325579202
 21
17.41175811977301
 31
0.0
 12
38.45836325579202
 22
17.43675811977301
 32
0.0
 13
38.45836325579202
 23
17.43675811977301
 33
0.0
  0
SOLID
  5
5CEF
330
5205
100
AcDbEntity
  8
0
 62
     0
370
    30
100
AcDbTrace
 10
40.43836325579202
 20
17.46175811977301
 30
0.0
 11
40.43836325579202
 21
17.41175811977301
 31
0.0
 12
40.58836325579203
 22
17.43675811977301
 32
0.0
 13
40.58836325579203
 23
17.43675811977301
 33
0.0
  0
MTEXT
  5
5CF0
330
5205
100
AcDbEntity
  8
0
 62
     0
370
    30
100
AcDbMText
 10
39.52336325579202
 20
17.43675811977301
 30
0.0
 40
0.09
 41
0.0
 71
     5
 72
     1
  1
\A1;2.1300" [54.10mm]
 73
     1
 44
1.0
  0
POINT
  5
5CF1
330
5205
100
AcDbEntity
  8
Defpoints
 62
     0
370
    30
100
AcDbPoint
 10
38.45836325579202
 20
17.85534922578338
 30
0.0
  0
POINT
  5
5CF2
330
5205
100
AcDbEntity
  8
Defpoints
 62
     0
370
    30
100
AcDbPoint
 10
40.58836325579203
 20
17.85534922578338
 30
0.0
  0
POINT
  5
5CF3
330
5205
100
AcDbEntity
  8
Defpoints
 62
     0
370
    30
100
AcDbPoint
 10
40.58836325579203
 20
17.43675811977301
 30
0.0
  0
ENDBLK
  5
5211
330
5205
100
AcDbEntity
  8
0
370
    30
100
AcDbBlockEnd
  0
BLOCK
  5
521D
330
5212
100
AcDbEntity
  8
0
370
    30
100
AcDbBlockBegin
  2
*D41
 70
     1
 10
0.0
 20
0.0
 30
0.0
  3
*D41
  1

  0
LINE
  5
5CF4
330
5212
100
AcDbEntity
  8
0
 62
     0
370
    -2
100
AcDbLine
 10
38.39586325579203
 20
25.23654972350227
 30
0.0
 11
36.82627722180685
 21
25.23654972350227
 31
0.0
  0
LINE
  5
5CF5
330
5212
100
AcDbEntity
  8
0
 62
     0
370
    -2
100
AcDbLine
 10
38.28486325579204
 20
23.65854972350227
 30
0.0
 11
36.82627722180685
 21
23.65854972350227
 31
0.0
  0
LINE
  5
5CF6
330
5212
100
AcDbEntity
  8
0
 62
     0
370
    -2
100
AcDbLine
 10
36.87627722180685
 20
25.08654972350226
 30
0.0
 11
36.87627722180685
 21
24.59575448197379
 31
0.0
  0
LINE
  5
5CF7
330
5212
100
AcDbEntity
  8
0
 62
     0
370
    -2
100
AcDbLine
 10
36.87627722180685
 20
23.80854972350226
 30
0.0
 11
36.87627722180685
 21
24.29934496503074
 31
0.0
  0
SOLID
  5
5CF8
330
5212
100
AcDbEntity
  8
0
 62
     0
370
    30
100
AcDbTrace
 10
36.85127722180685
 20
25.08654972350226
 30
0.0
 11
36.90127722180685
 21
25.08654972350226
 31
0.0
 12
36.87627722180685
 22
25.23654972350227
 32
0.0
 13
36.87627722180685
 23
25.23654972350227
 33
0.0
  0
SOLID
  5
5CF9
330
5212
100
AcDbEntity
  8
0
 62
     0
370
    30
100
AcDbTrace
 10
36.85127722180685
 20
23.80854972350226
 30
0.0
 11
36.90127722180685
 21
23.80854972350226
 31
0.0
 12
36.87627722180685
 22
23.65854972350227
 32
0.0
 13
36.87627722180685
 23
23.65854972350227
 33
0.0
  0
MTEXT
  5
5CFA
330
5212
100
AcDbEntity
  8
0
 62
     0
370
    30
100
AcDbMText
 10
36.87627722180684
 20
24.44754972350227
 30
0.0
 40
0.09
 41
0.0
 71
     5
 72
     1
  1
\A1;1.5780" [40.08mm]
 73
     1
 44
1.0
  0
POINT
  5
5CFB
330
5212
100
AcDbEntity
  8
Defpoints
 62
     0
370
    30
100
AcDbPoint
 10
38.45836325579202
 20
25.23654972350227
 30
0.0
  0
POINT
  5
5CFC
330
5212
100
AcDbEntity
  8
Defpoints
 62
     0
370
    30
100
AcDbPoint
 10
38.34736325579203
 20
23.65854972350227
 30
0.0
  0
POINT
  5
5CFD
330
5212
100
AcDbEntity
  8
Defpoints
 62
     0
370
    30
100
AcDbPoint
 10
36.87627722180685
 20
23.65854972350227
 30
0.0
  0
ENDBLK
  5
521E
330
5212
100
AcDbEntity
  8
0
370
    30
100
AcDbBlockEnd
  0
BLOCK
  5
522A
330
521F
100
AcDbEntity
  8
0
370
    30
100
AcDbBlockBegin
  2
*D42
 70
     1
 10
0.0
 20
0.0
 30
0.0
  3
*D42
  1

  0
LINE
  5
5CFE
330
521F
100
AcDbEntity
  8
0
 62
     0
370
    -2
100
AcDbLine
 10
38.45836325579202
 20
23.59604972350227
 30
0.0
 11
38.45836325579202
 21
23.10202077757708
 31
0.0
  0
LINE
  5
5CFF
330
521F
100
AcDbEntity
  8
0
 62
     0
370
    -2
100
AcDbLine
 10
39.52286325579202
 20
24.38504972350227
 30
0.0
 11
39.52286325579202
 21
23.10202077757708
 31
0.0
  0
LINE
  5
5D00
330
521F
100
AcDbEntity
  8
0
 62
     0
370
    -2
100
AcDbLine
 10
39.37286325579202
 20
23.15202077757708
 30
0.0
 11
38.60836325579203
 21
23.15202077757708
 31
0.0
  0
LINE
  5
5D01
330
521F
100
AcDbEntity
  8
0
 62
     0
370
    -2
100
AcDbLine
 10
38.45836325579202
 20
23.15202077757708
 30
0.0
 11
38.29141806415204
 21
23.15202077757708
 31
0.0
  0
SOLID
  5
5D02
330
521F
100
AcDbEntity
  8
0
 62
     0
370
    30
100
AcDbTrace
 10
39.37286325579202
 20
23.17702077757708
 30
0.0
 11
39.37286325579202
 21
23.12702077757708
 31
0.0
 12
39.52286325579202
 22
23.15202077757708
 32
0.0
 13
39.52286325579202
 23
23.15202077757708
 33
0.0
  0
SOLID
  5
5D03
330
521F
100
AcDbEntity
  8
0
 62
     0
370
    30
100
AcDbTrace
 10
38.60836325579203
 20
23.17702077757708
 30
0.0
 11
38.60836325579203
 21
23.12702077757708
 31
0.0
 12
38.45836325579202
 22
23.15202077757708
 32
0.0
 13
38.45836325579202
 23
23.15202077757708
 33
0.0
  0
MTEXT
  5
5D04
330
521F
100
AcDbEntity
  8
0
 62
     0
370
    30
100
AcDbMText
 10
37.69103954937193
 20
23.15202077757708
 30
0.0
 40
0.09
 41
0.0
 71
     5
 72
     1
  1
\A1;1.0645" [27.04mm]
 73
     1
 44
1.0
  0
POINT
  5
5D05
330
521F
100
AcDbEntity
  8
Defpoints
 62
     0
370
    30
100
AcDbPoint
 10
38.45836325579202
 20
23.65854972350227
 30
0.0
  0
POINT
  5
5D06
330
521F
100
AcDbEntity
  8
Defpoints
 62
     0
370
    30
100
AcDbPoint
 10
39.52286325579202
 20
24.44754972350227
 30
0.0
  0
POINT
  5
5D07
330
521F
100
AcDbEntity
  8
Defpoints
 62
     0
370
    30
100
AcDbPoint
 10
39.52286325579202
 20
23.15202077757708
 30
0.0
  0
ENDBLK
  5
522B
330
521F
100
AcDbEntity
  8
0
370
    30
100
AcDbBlockEnd
  0
BLOCK
  5
5237
330
522C
100
AcDbEntity
  8
0
370
    30
100
AcDbBlockBegin
  2
*D43
 70
     1
 10
0.0
 20
0.0
 30
0.0
  3
*D43
  1

  0
LINE
  5
5D08
330
522C
100
AcDbEntity
  8
0
 62
     0
370
    -2
100
AcDbLine
 10
38.39586325579203
 20
25.23654972350227
 30
0.0
 11
37.64532889749524
 21
25.23654972350227
 31
0.0
  0
LINE
  5
5D09
330
522C
100
AcDbEntity
  8
0
 62
     0
370
    -2
100
AcDbLine
 10
39.46036325579202
 20
24.44754972350227
 30
0.0
 11
37.64532889749524
 21
24.44754972350227
 31
0.0
  0
LINE
  5
5D0A
330
522C
100
AcDbEntity
  8
0
 62
     0
370
    -2
100
AcDbLine
 10
37.69532889749523
 20
25.08654972350226
 30
0.0
 11
37.69532889749523
 21
24.99025448197379
 31
0.0
  0
LINE
  5
5D0B
330
522C
100
AcDbEntity
  8
0
 62
     0
370
    -2
100
AcDbLine
 10
37.69532889749523
 20
24.59754972350227
 30
0.0
 11
37.69532889749523
 21
24.69384496503074
 31
0.0
  0
SOLID
  5
5D0C
330
522C
100
AcDbEntity
  8
0
 62
     0
370
    30
100
AcDbTrace
 10
37.67032889749524
 20
25.08654972350226
 30
0.0
 11
37.72032889749523
 21
25.08654972350226
 31
0.0
 12
37.69532889749523
 22
25.23654972350227
 32
0.0
 13
37.69532889749523
 23
25.23654972350227
 33
0.0
  0
SOLID
  5
5D0D
330
522C
100
AcDbEntity
  8
0
 62
     0
370
    30
100
AcDbTrace
 10
37.67032889749524
 20
24.59754972350227
 30
0.0
 11
37.72032889749523
 21
24.59754972350227
 31
0.0
 12
37.69532889749523
 22
24.44754972350227
 32
0.0
 13
37.69532889749523
 23
24.44754972350227
 33
0.0
  0
MTEXT
  5
5D0E
330
522C
100
AcDbEntity
  8
0
 62
     0
370
    30
100
AcDbMText
 10
37.69532889749523
 20
24.84204972350227
 30
0.0
 40
0.09
 41
0.0
 71
     5
 72
     1
  1
\A1;0.7890" [20.04mm]
 73
     1
 44
1.0
  0
POINT
  5
5D0F
330
522C
100
AcDbEntity
  8
Defpoints
 62
     0
370
    30
100
AcDbPoint
 10
38.45836325579202
 20
25.23654972350227
 30
0.0
  0
POINT
  5
5D10
330
522C
100
AcDbEntity
  8
Defpoints
 62
     0
370
    30
100
AcDbPoint
 10
39.52286325579202
 20
24.44754972350227
 30
0.0
  0
POINT
  5
5D11
330
522C
100
AcDbEntity
  8
Defpoints
 62
     0
370
    30
100
AcDbPoint
 10
37.69532889749523
 20
24.44754972350227
 30
0.0
  0
ENDBLK
  5
5238
330
522C
100
AcDbEntity
  8
0
370
    30
100
AcDbBlockEnd
  0
BLOCK
  5
5244
330
5239
100
AcDbEntity
  8
0
370
    30
100
AcDbBlockBegin
  2
*D44
 70
     1
 10
0.0
 20
0.0
 30
0.0
  3
*D44
  1

  0
LINE
  5
5D12
330
5239
100
AcDbEntity
  8
0
 62
     0
370
    -2
100
AcDbLine
 10
43.8262506762658
 20
19.85534922578338
 30
0.0
 11
42.18889073840098
 21
19.85534922578338
 31
0.0
  0
LINE
  5
5D13
330
5239
100
AcDbEntity
  8
0
 62
     0
370
    -2
100
AcDbLine
 10
43.8262506762658
 20
20.98334922578338
 30
0.0
 11
42.18889073840098
 21
20.98334922578338
 31
0.0
  0
LINE
  5
5D14
330
5239
100
AcDbEntity
  8
0
 62
     0
370
    -2
100
AcDbLine
 10
42.23889073840098
 20
20.00534922578338
 30
0.0
 11
42.23889073840098
 21
20.27114446731185
 31
0.0
  0
LINE
  5
5D15
330
5239
100
AcDbEntity
  8
0
 62
     0
370
    -2
100
AcDbLine
 10
42.23889073840098
 20
20.83334922578338
 30
0.0
 11
42.23889073840098
 21
20.5675539842549
 31
0.0
  0
SOLID
  5
5D16
330
5239
100
AcDbEntity
  8
0
 62
     0
370
    30
100
AcDbTrace
 10
42.21389073840098
 20
20.00534922578338
 30
0.0
 11
42.26389073840098
 21
20.00534922578338
 31
0.0
 12
42.23889073840098
 22
19.85534922578338
 32
0.0
 13
42.23889073840098
 23
19.85534922578338
 33
0.0
  0
SOLID
  5
5D17
330
5239
100
AcDbEntity
  8
0
 62
     0
370
    30
100
AcDbTrace
 10
42.21389073840098
 20
20.83334922578338
 30
0.0
 11
42.26389073840098
 21
20.83334922578338
 31
0.0
 12
42.23889073840098
 22
20.98334922578338
 32
0.0
 13
42.23889073840098
 23
20.98334922578338
 33
0.0
  0
MTEXT
  5
5D18
330
5239
100
AcDbEntity
  8
0
 62
     0
370
    30
100
AcDbMText
 10
42.23889073840097
 20
20.41934922578338
 30
0.0
 40
0.09
 41
0.0
 71
     5
 72
     1
  1
\A1;1.1280" [28.65mm]
 73
     1
 44
1.0
  0
POINT
  5
5D19
330
5239
100
AcDbEntity
  8
Defpoints
 62
     0
370
    30
100
AcDbPoint
 10
43.88875067626581
 20
19.85534922578338
 30
0.0
  0
POINT
  5
5D1A
330
5239
100
AcDbEntity
  8
Defpoints
 62
     0
370
    30
100
AcDbPoint
 10
43.88875067626581
 20
20.98334922578338
 30
0.0
  0
POINT
  5
5D1B
330
5239
100
AcDbEntity
  8
Defpoints
 62
     0
370
    30
100
AcDbPoint
 10
42.23889073840098
 20
20.98334922578338
 30
0.0
  0
ENDBLK
  5
5245
330
5239
100
AcDbEntity
  8
0
370
    30
100
AcDbBlockEnd
  0
BLOCK
  5
5251
330
5246
100
AcDbEntity
  8
0
370
    30
100
AcDbBlockBegin
  2
*D45
 70
     1
 10
0.0
 20
0.0
 30
0.0
  3
*D45
  1

  0
LINE
  5
5D1C
330
5246
100
AcDbEntity
  8
0
 62
     0
370
    -2
100
AcDbLine
 10
43.8262506762658
 20
18.72734922578338
 30
0.0
 11
42.18889073840098
 21
18.72734922578338
 31
0.0
  0
LINE
  5
5D1D
330
5246
100
AcDbEntity
  8
0
 62
     0
370
    -2
100
AcDbLine
 10
43.8262506762658
 20
19.85534922578338
 30
0.0
 11
42.18889073840098
 21
19.85534922578338
 31
0.0
  0
LINE
  5
5D1E
330
5246
100
AcDbEntity
  8
0
 62
     0
370
    -2
100
AcDbLine
 10
42.23889073840098
 20
18.87734922578338
 30
0.0
 11
42.23889073840098
 21
19.14314446731186
 31
0.0
  0
LINE
  5
5D1F
330
5246
100
AcDbEntity
  8
0
 62
     0
370
    -2
100
AcDbLine
 10
42.23889073840098
 20
19.70534922578338
 30
0.0
 11
42.23889073840098
 21
19.4395539842549
 31
0.0
  0
SOLID
  5
5D20
330
5246
100
AcDbEntity
  8
0
 62
     0
370
    30
100
AcDbTrace
 10
42.21389073840098
 20
18.87734922578338
 30
0.0
 11
42.26389073840098
 21
18.87734922578338
 31
0.0
 12
42.23889073840098
 22
18.72734922578338
 32
0.0
 13
42.23889073840098
 23
18.72734922578338
 33
0.0
  0
SOLID
  5
5D21
330
5246
100
AcDbEntity
  8
0
 62
     0
370
    30
100
AcDbTrace
 10
42.21389073840098
 20
19.70534922578338
 30
0.0
 11
42.26389073840098
 21
19.70534922578338
 31
0.0
 12
42.23889073840098
 22
19.85534922578338
 32
0.0
 13
42.23889073840098
 23
19.85534922578338
 33
0.0
  0
MTEXT
  5
5D22
330
5246
100
AcDbEntity
  8
0
 62
     0
370
    30
100
AcDbMText
 10
42.23889073840097
 20
19.29134922578338
 30
0.0
 40
0.09
 41
0.0
 71
     5
 72
     1
  1
\A1;1.1280" [28.65mm]
 73
     1
 44
1.0
  0
POINT
  5
5D23
330
5246
100
AcDbEntity
  8
Defpoints
 62
     0
370
    30
100
AcDbPoint
 10
43.88875067626581
 20
18.72734922578338
 30
0.0
  0
POINT
  5
5D24
330
5246
100
AcDbEntity
  8
Defpoints
 62
     0
370
    30
100
AcDbPoint
 10
43.88875067626581
 20
19.85534922578338
 30
0.0
  0
POINT
  5
5D25
330
5246
100
AcDbEntity
  8
Defpoints
 62
     0
370
    30
100
AcDbPoint
 10
42.23889073840098
 20
19.85534922578338
 30
0.0
  0
ENDBLK
  5
5252
330
5246
100
AcDbEntity
  8
0
370
    30
100
AcDbBlockEnd
  0
BLOCK
  5
525E
330
5253
100
AcDbEntity
  8
0
370
    30
100
AcDbBlockBegin
  2
*D46
 70
     1
 10
0.0
 20
0.0
 30
0.0
  3
*D46
  1

  0
LINE
  5
5D26
330
5253
100
AcDbEntity
  8
0
 62
     0
370
    -2
100
AcDbLine
 10
43.02450067626581
 20
17.85534922578338
 30
0.0
 11
42.18889073840098
 21
17.85534922578338
 31
0.0
  0
LINE
  5
5D27
330
5253
100
AcDbEntity
  8
0
 62
     0
370
    -2
100
AcDbLine
 10
43.8262506762658
 20
18.72734922578338
 30
0.0
 11
42.18889073840098
 21
18.72734922578338
 31
0.0
  0
LINE
  5
5D28
330
5253
100
AcDbEntity
  8
0
 62
     0
370
    -2
100
AcDbLine
 10
42.23889073840098
 20
18.00534922578338
 30
0.0
 11
42.23889073840098
 21
18.14314446731185
 31
0.0
  0
LINE
  5
5D29
330
5253
100
AcDbEntity
  8
0
 62
     0
370
    -2
100
AcDbLine
 10
42.23889073840098
 20
18.57734922578338
 30
0.0
 11
42.23889073840098
 21
18.4395539842549
 31
0.0
  0
SOLID
  5
5D2A
330
5253
100
AcDbEntity
  8
0
 62
     0
370
    30
100
AcDbTrace
 10
42.21389073840098
 20
18.00534922578338
 30
0.0
 11
42.26389073840098
 21
18.00534922578338
 31
0.0
 12
42.23889073840098
 22
17.85534922578338
 32
0.0
 13
42.23889073840098
 23
17.85534922578338
 33
0.0
  0
SOLID
  5
5D2B
330
5253
100
AcDbEntity
  8
0
 62
     0
370
    30
100
AcDbTrace
 10
42.21389073840098
 20
18.57734922578338
 30
0.0
 11
42.26389073840098
 21
18.57734922578338
 31
0.0
 12
42.23889073840098
 22
18.72734922578338
 32
0.0
 13
42.23889073840098
 23
18.72734922578338
 33
0.0
  0
MTEXT
  5
5D2C
330
5253
100
AcDbEntity
  8
0
 62
     0
370
    30
100
AcDbMText
 10
42.23889073840097
 20
18.29134922578338
 30
0.0
 40
0.09
 41
0.0
 71
     5
 72
     1
  1
\A1;0.8720" [22.15mm]
 73
     1
 44
1.0
  0
POINT
  5
5D2D
330
5253
100
AcDbEntity
  8
Defpoints
 62
     0
370
    30
100
AcDbPoint
 10
43.0870006762658
 20
17.85534922578338
 30
0.0
  0
POINT
  5
5D2E
330
5253
100
AcDbEntity
  8
Defpoints
 62
     0
370
    30
100
AcDbPoint
 10
43.88875067626581
 20
18.72734922578338
 30
0.0
  0
POINT
  5
5D2F
330
5253
100
AcDbEntity
  8
Defpoints
 62
     0
370
    30
100
AcDbPoint
 10
42.23889073840098
 20
18.72734922578338
 30
0.0
  0
ENDBLK
  5
525F
330
5253
100
AcDbEntity
  8
0
370
    30
100
AcDbBlockEnd
  0
BLOCK
  5
526B
330
5260
100
AcDbEntity
  8
0
370
    30
100
AcDbBlockBegin
  2
*D47
 70
     1
 10
0.0
 20
0.0
 30
0.0
  3
*D47
  1

  0
LINE
  5
5D30
330
5260
100
AcDbEntity
  8
0
 62
     0
370
    -2
100
AcDbLine
 10
43.88875067626581
 20
18.66484922578338
 30
0.0
 11
43.88875067626581
 21
17.52596479054902
 31
0.0
  0
LINE
  5
5D31
330
5260
100
AcDbEntity
  8
0
 62
     0
370
    -2
100
AcDbLine
 10
43.0870006762658
 20
17.68932762235316
 30
0.0
 11
43.0870006762658
 21
17.52596479054902
 31
0.0
  0
LINE
  5
5D32
330
5260
100
AcDbEntity
  8
0
 62
     0
370
    -2
100
AcDbLine
 10
43.7387506762658
 20
17.57596479054902
 30
0.0
 11
43.23700067626581
 21
17.57596479054902
 31
0.0
  0
LINE
  5
5D33
330
5260
100
AcDbEntity
  8
0
 62
     0
370
    -2
100
AcDbLine
 10
43.0870006762658
 20
17.57596479054902
 30
0.0
 11
42.9370006762658
 21
17.57596479054902
 31
0.0
  0
SOLID
  5
5D34
330
5260
100
AcDbEntity
  8
0
 62
     0
370
    30
100
AcDbTrace
 10
43.7387506762658
 20
17.60096479054903
 30
0.0
 11
43.7387506762658
 21
17.55096479054903
 31
0.0
 12
43.88875067626581
 22
17.57596479054902
 32
0.0
 13
43.88875067626581
 23
17.57596479054902
 33
0.0
  0
SOLID
  5
5D35
330
5260
100
AcDbEntity
  8
0
 62
     0
370
    30
100
AcDbTrace
 10
43.23700067626581
 20
17.60096479054903
 30
0.0
 11
43.23700067626581
 21
17.55096479054903
 31
0.0
 12
43.0870006762658
 22
17.57596479054902
 32
0.0
 13
43.0870006762658
 23
17.57596479054902
 33
0.0
  0
MTEXT
  5
5D36
330
5260
100
AcDbEntity
  8
0
 62
     0
370
    30
100
AcDbMText
 10
42.33123643690027
 20
17.57596479054902
 30
0.0
 40
0.09
 41
0.0
 71
     5
 72
     1
  1
\A1;0.8018" [20.36mm]
 73
     1
 44
1.0
  0
POINT
  5
5D37
330
5260
100
AcDbEntity
  8
Defpoints
 62
     0
370
    30
100
AcDbPoint
 10
43.88875067626581
 20
18.72734922578338
 30
0.0
  0
POINT
  5
5D38
330
5260
100
AcDbEntity
  8
Defpoints
 62
     0
370
    30
100
AcDbPoint
 10
43.0870006762658
 20
17.75182762235316
 30
0.0
  0
POINT
  5
5D39
330
5260
100
AcDbEntity
  8
Defpoints
 62
     0
370
    30
100
AcDbPoint
 10
43.0870006762658
 20
17.57596479054902
 30
0.0
  0
ENDBLK
  5
526C
330
5260
100
AcDbEntity
  8
0
370
    30
100
AcDbBlockEnd
  0
BLOCK
  5
5278
330
526D
100
AcDbEntity
  8
0
370
    30
100
AcDbBlockBegin
  2
*D48
 70
     1
 10
0.0
 20
0.0
 30
0.0
  3
*D48
  1

  0
LINE
  5
5D3A
330
526D
100
AcDbEntity
  8
0
 62
     0
370
    -2
100
AcDbLine
 10
43.8262506762658
 20
20.98334922578338
 30
0.0
 11
42.18889073840098
 21
20.98334922578338
 31
0.0
  0
LINE
  5
5D3B
330
526D
100
AcDbEntity
  8
0
 62
     0
370
    -2
100
AcDbLine
 10
43.02450067626581
 20
21.85534922578338
 30
0.0
 11
42.18889073840098
 21
21.85534922578338
 31
0.0
  0
LINE
  5
5D3C
330
526D
100
AcDbEntity
  8
0
 62
     0
370
    -2
100
AcDbLine
 10
42.23889073840098
 20
21.13334922578338
 30
0.0
 11
42.23889073840098
 21
21.27114446731185
 31
0.0
  0
LINE
  5
5D3D
330
526D
100
AcDbEntity
  8
0
 62
     0
370
    -2
100
AcDbLine
 10
42.23889073840098
 20
21.70534922578338
 30
0.0
 11
42.23889073840098
 21
21.5675539842549
 31
0.0
  0
SOLID
  5
5D3E
330
526D
100
AcDbEntity
  8
0
 62
     0
370
    30
100
AcDbTrace
 10
42.21389073840098
 20
21.13334922578338
 30
0.0
 11
42.26389073840098
 21
21.13334922578338
 31
0.0
 12
42.23889073840098
 22
20.98334922578338
 32
0.0
 13
42.23889073840098
 23
20.98334922578338
 33
0.0
  0
SOLID
  5
5D3F
330
526D
100
AcDbEntity
  8
0
 62
     0
370
    30
100
AcDbTrace
 10
42.21389073840098
 20
21.70534922578338
 30
0.0
 11
42.26389073840098
 21
21.70534922578338
 31
0.0
 12
42.23889073840098
 22
21.85534922578338
 32
0.0
 13
42.23889073840098
 23
21.85534922578338
 33
0.0
  0
MTEXT
  5
5D40
330
526D
100
AcDbEntity
  8
0
 62
     0
370
    30
100
AcDbMText
 10
42.23889073840097
 20
21.41934922578339
 30
0.0
 40
0.09
 41
0.0
 71
     5
 72
     1
  1
\A1;0.8720" [22.15mm]
 73
     1
 44
1.0
  0
POINT
  5
5D41
330
526D
100
AcDbEntity
  8
Defpoints
 62
     0
370
    30
100
AcDbPoint
 10
43.88875067626581
 20
20.98334922578338
 30
0.0
  0
POINT
  5
5D42
330
526D
100
AcDbEntity
  8
Defpoints
 62
     0
370
    30
100
AcDbPoint
 10
43.0870006762658
 20
21.85534922578338
 30
0.0
  0
POINT
  5
5D43
330
526D
100
AcDbEntity
  8
Defpoints
 62
     0
370
    30
100
AcDbPoint
 10
42.23889073840098
 20
21.85534922578338
 30
0.0
  0
ENDBLK
  5
5279
330
526D
100
AcDbEntity
  8
0
370
    30
100
AcDbBlockEnd
  0
BLOCK
  5
5285
330
527A
100
AcDbEntity
  8
0
370
    30
100
AcDbBlockBegin
  2
*D49
 70
     1
 10
0.0
 20
0.0
 30
0.0
  3
*D49
  1

  0
LINE
  5
5D44
330
527A
100
AcDbEntity
  8
0
  6
Continuous
 62
     0
370
    -2
100
AcDbLine
 10
47.42505310766677
 20
20.29874554069651
 30
0.0
 11
48.21352761514133
 21
20.29874554069651
 31
0.0
  0
LINE
  5
5D45
330
527A
100
AcDbEntity
  8
0
  6
Continuous
 62
     0
370
    -2
100
AcDbLine
 10
47.42505310766677
 20
19.4119529108703
 30
0.0
 11
48.21352761514133
 21
19.4119529108703
 31
0.0
  0
LINE
  5
5D46
330
527A
100
AcDbEntity
  8
0
  6
Continuous
 62
     0
370
    -2
100
AcDbLine
 10
48.16352761514133
 20
20.14874554069651
 30
0.0
 11
48.16352761514133
 21
20.01318261874031
 31
0.0
  0
LINE
  5
5D47
330
527A
100
AcDbEntity
  8
0
  6
Continuous
 62
     0
370
    -2
100
AcDbLine
 10
48.16352761514133
 20
19.5619529108703
 30
0.0
 11
48.16352761514133
 21
19.71677310179727
 31
0.0
  0
SOLID
  5
5D48
330
527A
100
AcDbEntity
  8
0
  6
Continuous
 62
     0
370
    30
100
AcDbTrace
 10
48.13852761514134
 20
20.14874554069651
 30
0.0
 11
48.18852761514133
 21
20.14874554069651
 31
0.0
 12
48.16352761514133
 22
20.29874554069651
 32
0.0
 13
48.16352761514133
 23
20.29874554069651
 33
0.0
  0
SOLID
  5
5D49
330
527A
100
AcDbEntity
  8
0
  6
Continuous
 62
     0
370
    30
100
AcDbTrace
 10
48.13852761514134
 20
19.5619529108703
 30
0.0
 11
48.18852761514133
 21
19.5619529108703
 31
0.0
 12
48.16352761514133
 22
19.4119529108703
 32
0.0
 13
48.16352761514133
 23
19.4119529108703
 33
0.0
  0
MTEXT
  5
5D4A
330
527A
100
AcDbEntity
  8
0
  6
Continuous
 62
     0
370
    30
100
AcDbMText
 10
48.16352761514132
 20
19.8649778602688
 30
0.0
 40
0.09
 41
0.0
 71
     5
 72
     1
  1
\A1;O.D. 0.840" [21.34mm]
 73
     1
 44
1.0
  0
POINT
  5
5D4B
330
527A
100
AcDbEntity
  8
Defpoints
  6
Continuous
 62
     0
370
    30
100
AcDbPoint
 10
47.36255310766678
 20
20.29874554069651
 30
0.0
  0
POINT
  5
5D4C
330
527A
100
AcDbEntity
  8
Defpoints
  6
Continuous
 62
     0
370
    30
100
AcDbPoint
 10
47.36255310766678
 20
19.4119529108703
 30
0.0
  0
POINT
  5
5D4D
330
527A
100
AcDbEntity
  8
Defpoints
  6
Continuous
 62
     0
370
    30
100
AcDbPoint
 10
48.16352761514133
 20
19.4119529108703
 30
0.0
  0
ENDBLK
  5
5286
330
527A
100
AcDbEntity
  8
0
370
    30
100
AcDbBlockEnd
  0
BLOCK
  5
5292
330
5287
100
AcDbEntity
  8
0
370
    30
100
AcDbBlockBegin
  2
*D50
 70
     1
 10
0.0
 20
0.0
 30
0.0
  3
*D50
  1

  0
LINE
  5
5D4E
330
5287
100
AcDbEntity
  8
0
  6
Continuous
 62
     0
370
    -2
100
AcDbLine
 10
47.36255310766678
 20
19.3494529108703
 30
0.0
 11
47.36255310766678
 21
18.84051919273312
 31
0.0
  0
LINE
  5
5D4F
330
5287
100
AcDbEntity
  8
0
  6
Continuous
 62
     0
370
    -2
100
AcDbLine
 10
45.89852513144266
 20
19.22614150968142
 30
0.0
 11
45.89852513144266
 21
18.84051919273312
 31
0.0
  0
LINE
  5
5D50
330
5287
100
AcDbEntity
  8
0
  6
Continuous
 62
     0
370
    -2
100
AcDbLine
 10
46.04852513144265
 20
18.89051919273312
 30
0.0
 11
47.21255310766678
 21
18.89051919273312
 31
0.0
  0
LINE
  5
5D51
330
5287
100
AcDbEntity
  8
0
  6
Continuous
 62
     0
370
    -2
100
AcDbLine
 10
47.36255310766678
 20
18.89051919273312
 30
0.0
 11
47.86342188920968
 21
18.89051919273312
 31
0.0
  0
SOLID
  5
5D52
330
5287
100
AcDbEntity
  8
0
  6
Continuous
 62
     0
370
    30
100
AcDbTrace
 10
46.04852513144265
 20
18.91551919273312
 30
0.0
 11
46.04852513144265
 21
18.86551919273312
 31
0.0
 12
45.89852513144266
 22
18.89051919273312
 32
0.0
 13
45.89852513144266
 23
18.89051919273312
 33
0.0
  0
SOLID
  5
5D53
330
5287
100
AcDbEntity
  8
0
  6
Continuous
 62
     0
370
    30
100
AcDbTrace
 10
47.21255310766678
 20
18.91551919273312
 30
0.0
 11
47.21255310766678
 21
18.86551919273312
 31
0.0
 12
47.36255310766678
 22
18.89051919273312
 32
0.0
 13
47.36255310766678
 23
18.89051919273312
 33
0.0
  0
MTEXT
  5
5D54
330
5287
100
AcDbEntity
  8
0
  6
Continuous
 62
     0
370
    30
100
AcDbMText
 10
48.40196190362928
 20
18.89051919273312
 30
0.0
 40
0.09
 41
0.0
 71
     5
 72
     1
  1
\A1;5.1" [129.54mm]
 73
     1
 44
1.0
  0
POINT
  5
5D55
330
5287
100
AcDbEntity
  8
Defpoints
  6
Continuous
 62
     0
370
    30
100
AcDbPoint
 10
47.36255310766678
 20
19.4119529108703
 30
0.0
  0
POINT
  5
5D56
330
5287
100
AcDbEntity
  8
Defpoints
  6
Continuous
 62
     0
370
    30
100
AcDbPoint
 10
45.89852513144266
 20
19.28864150968142
 30
0.0
  0
POINT
  5
5D57
330
5287
100
AcDbEntity
  8
Defpoints
  6
Continuous
 62
     0
370
    30
100
AcDbPoint
 10
45.89852513144266
 20
18.89051919273312
 30
0.0
  0
ENDBLK
  5
5293
330
5287
100
AcDbEntity
  8
0
370
    30
100
AcDbBlockEnd
  0
BLOCK
  5
529F
330
5294
100
AcDbEntity
  8
0
370
    30
100
AcDbBlockBegin
  2
*D51
 70
     1
 10
0.0
 20
0.0
 30
0.0
  3
*D51
  1

  0
LINE
  5
6524
330
5294
100
AcDbEntity
  8
0
 62
     0
370
    -2
100
AcDbLine
 10
37.12322400986323
 20
13.04513974828525
 30
0.0
 11
37.12322400986323
 21
13.30283391953995
 31
0.0
  0
LINE
  5
6525
330
5294
100
AcDbEntity
  8
0
 62
     0
370
    -2
100
AcDbLine
 10
36.52735949730871
 20
13.04513974828528
 30
0.0
 11
36.52735949730871
 21
13.30283391953995
 31
0.0
  0
LINE
  5
6526
330
5294
100
AcDbEntity
  8
0
 62
     0
370
    -2
100
AcDbLine
 10
36.97322400986323
 20
13.25283391953995
 30
0.0
 11
36.6773594973087
 21
13.25283391953995
 31
0.0
  0
LINE
  5
6527
330
5294
100
AcDbEntity
  8
0
 62
     0
370
    -2
100
AcDbLine
 10
36.52735949730871
 20
13.25283391953995
 30
0.0
 11
35.02064356363892
 21
13.25283391953995
 31
0.0
  0
SOLID
  5
6528
330
5294
100
AcDbEntity
  8
0
 62
     0
370
    30
100
AcDbTrace
 10
36.97322400986323
 20
13.27783391953995
 30
0.0
 11
36.97322400986323
 21
13.22783391953995
 31
0.0
 12
37.12322400986323
 22
13.25283391953995
 32
0.0
 13
37.12322400986323
 23
13.25283391953995
 33
0.0
  0
SOLID
  5
6529
330
5294
100
AcDbEntity
  8
0
 62
     0
370
    30
100
AcDbTrace
 10
36.6773594973087
 20
13.27783391953995
 30
0.0
 11
36.6773594973087
 21
13.22783391953995
 31
0.0
 12
36.52735949730871
 22
13.25283391953995
 32
0.0
 13
36.52735949730871
 23
13.25283391953995
 33
0.0
  0
MTEXT
  5
652A
330
5294
100
AcDbEntity
  8
0
 62
     0
100
AcDbMText
 10
34.36063274893092
 20
13.25283391953995
 30
0.0
 40
0.09
 41
0.0
 71
     5
 72
     1
  1
\A1;I.D. 0.60" [15.24mm]
 73
     1
 44
1.0
  0
POINT
  5
652B
330
5294
100
AcDbEntity
  8
Defpoints
 62
     0
370
    30
100
AcDbPoint
 10
37.12322400986323
 20
12.98263974828525
 30
0.0
  0
POINT
  5
652C
330
5294
100
AcDbEntity
  8
Defpoints
 62
     0
370
    30
100
AcDbPoint
 10
36.52735949730871
 20
12.98263974828528
 30
0.0
  0
POINT
  5
652D
330
5294
100
AcDbEntity
  8
Defpoints
 62
     0
370
    30
100
AcDbPoint
 10
36.52735949730871
 20
13.25283391953995
 30
0.0
  0
ENDBLK
  5
52A0
330
5294
100
AcDbEntity
  8
0
370
    30
100
AcDbBlockEnd
  0
BLOCK
  5
574E
330
5743
100
AcDbEntity
  8
0
370
    30
100
AcDbBlockBegin
  2
*D52
 70
     1
 10
0.0
 20
0.0
 30
0.0
  3
*D52
  1

  0
LINE
  5
6498
330
5743
100
AcDbEntity
  8
0
 62
     0
370
    -2
100
AcDbLine
 10
38.10029175358599
 20
8.053087316884294
 30
0.0
 11
38.10029175358599
 21
7.574283657962888
 31
0.0
  0
LINE
  5
6499
330
5743
100
AcDbEntity
  8
0
 62
     0
370
    -2
100
AcDbLine
 10
35.55029175358597
 20
8.053087316884294
 30
0.0
 11
35.55029175358597
 21
7.574283657962888
 31
0.0
  0
LINE
  5
649A
330
5743
100
AcDbEntity
  8
0
 62
     0
370
    -2
100
AcDbLine
 10
37.95029175358599
 20
7.624283657962887
 30
0.0
 11
37.36558375070206
 21
7.624283657962887
 31
0.0
  0
LINE
  5
649B
330
5743
100
AcDbEntity
  8
0
 62
     0
370
    -2
100
AcDbLine
 10
35.70029175358597
 20
7.624283657962887
 30
0.0
 11
36.2849997564699
 21
7.624283657962887
 31
0.0
  0
SOLID
  5
649C
330
5743
100
AcDbEntity
  8
0
 62
     0
370
    30
100
AcDbTrace
 10
37.95029175358599
 20
7.649283657962888
 30
0.0
 11
37.95029175358599
 21
7.599283657962887
 31
0.0
 12
38.10029175358599
 22
7.624283657962887
 32
0.0
 13
38.10029175358599
 23
7.624283657962887
 33
0.0
  0
SOLID
  5
649D
330
5743
100
AcDbEntity
  8
0
 62
     0
370
    30
100
AcDbTrace
 10
35.70029175358597
 20
7.649283657962888
 30
0.0
 11
35.70029175358597
 21
7.599283657962887
 31
0.0
 12
35.55029175358597
 22
7.624283657962887
 32
0.0
 13
35.55029175358597
 23
7.624283657962887
 33
0.0
  0
MTEXT
  5
649E
330
5743
100
AcDbEntity
  8
0
 62
     0
370
    30
100
AcDbMText
 10
36.82529175358598
 20
7.624283657962887
 30
0.0
 40
0.09
 41
0.0
 71
     5
 72
     1
  1
\A1;2.55" [64.77mm]
 73
     1
 44
1.0
  0
POINT
  5
649F
330
5743
100
AcDbEntity
  8
Defpoints
 62
     0
370
    30
100
AcDbPoint
 10
38.10029175358599
 20
8.115587316884294
 30
0.0
  0
POINT
  5
64A0
330
5743
100
AcDbEntity
  8
Defpoints
 62
     0
370
    30
100
AcDbPoint
 10
35.55029175358597
 20
8.115587316884294
 30
0.0
  0
POINT
  5
64A1
330
5743
100
AcDbEntity
  8
Defpoints
 62
     0
370
    30
100
AcDbPoint
 10
35.55029175358597
 20
7.624283657962887
 30
0.0
  0
ENDBLK
  5
574F
330
5743
100
AcDbEntity
  8
0
370
    30
100
AcDbBlockEnd
  0
BLOCK
  5
5B61
330
5B56
100
AcDbEntity
  8
0
370
    30
100
AcDbBlockBegin
  2
*D53
 70
     1
 10
0.0
 20
0.0
 30
0.0
  3
*D53
  1

  0
LINE
  5
64A2
330
5B56
100
AcDbEntity
  8
0
 62
     0
370
    -2
100
AcDbLine
 10
35.78279175358597
 20
6.187287974272733
 30
0.0
 11
34.62457131019793
 21
6.187287974272733
 31
0.0
  0
LINE
  5
64A3
330
5B56
100
AcDbEntity
  8
0
 62
     0
370
    -2
100
AcDbLine
 10
35.78279175358597
 20
2.487287974272733
 30
0.0
 11
34.62457131019793
 21
2.487287974272734
 31
0.0
  0
LINE
  5
64A4
330
5B56
100
AcDbEntity
  8
0
 62
     0
370
    -2
100
AcDbLine
 10
34.67457131019793
 20
6.037287974272732
 30
0.0
 11
34.67457131019793
 21
4.485492732744254
 31
0.0
  0
LINE
  5
64A5
330
5B56
100
AcDbEntity
  8
0
 62
     0
370
    -2
100
AcDbLine
 10
34.67457131019793
 20
2.637287974272734
 30
0.0
 11
34.67457131019793
 21
4.189083215801212
 31
0.0
  0
SOLID
  5
64A6
330
5B56
100
AcDbEntity
  8
0
 62
     0
370
    30
100
AcDbTrace
 10
34.64957131019793
 20
6.037287974272732
 30
0.0
 11
34.69957131019793
 21
6.037287974272732
 31
0.0
 12
34.67457131019793
 22
6.187287974272733
 32
0.0
 13
34.67457131019793
 23
6.187287974272733
 33
0.0
  0
SOLID
  5
64A7
330
5B56
100
AcDbEntity
  8
0
 62
     0
370
    30
100
AcDbTrace
 10
34.64957131019793
 20
2.637287974272734
 30
0.0
 11
34.69957131019793
 21
2.637287974272734
 31
0.0
 12
34.67457131019793
 22
2.487287974272734
 32
0.0
 13
34.67457131019793
 23
2.487287974272734
 33
0.0
  0
MTEXT
  5
64A8
330
5B56
100
AcDbEntity
  8
0
 62
     0
370
    30
100
AcDbMText
 10
34.67457131019793
 20
4.337287974272739
 30
0.0
 40
0.09
 41
0.0
 71
     5
 72
     1
  1
\A1;3.70" [93.98mm]
 73
     1
 44
1.0
  0
POINT
  5
64A9
330
5B56
100
AcDbEntity
  8
Defpoints
 62
     0
370
    30
100
AcDbPoint
 10
35.84529175358596
 20
6.187287974272733
 30
0.0
  0
POINT
  5
64AA
330
5B56
100
AcDbEntity
  8
Defpoints
 62
     0
370
    30
100
AcDbPoint
 10
35.84529175358596
 20
2.487287974272733
 30
0.0
  0
POINT
  5
64AB
330
5B56
100
AcDbEntity
  8
Defpoints
 62
     0
370
    30
100
AcDbPoint
 10
34.67457131019793
 20
2.487287974272734
 30
0.0
  0
ENDBLK
  5
5B62
330
5B56
100
AcDbEntity
  8
0
370
    30
100
AcDbBlockEnd
  0
BLOCK
  5
5C3F
330
5C34
100
AcDbEntity
  8
0
370
    30
100
AcDbBlockBegin
  2
*D54
 70
     1
 10
0.0
 20
0.0
 30
0.0
  3
*D54
  1

  0
LINE
  5
64F2
330
5C34
100
AcDbEntity
  8
0
 62
     0
370
    -2
100
AcDbLine
 10
46.25237710957197
 20
4.843184289185863
 30
0.0
 11
46.25237710957197
 21
5.713228650108422
 31
0.0
  0
LINE
  5
64F3
330
5C34
100
AcDbEntity
  8
0
 62
     0
370
    -2
100
AcDbLine
 10
42.82121914455842
 20
6.00478797427241
 30
0.0
 11
42.82121914455842
 21
5.613228650108422
 31
0.0
  0
LINE
  5
64F4
330
5C34
100
AcDbEntity
  8
0
 62
     0
370
    -2
100
AcDbLine
 10
46.10237710957197
 20
5.663228650108422
 30
0.0
 11
44.6749991454067
 21
5.663228650108422
 31
0.0
  0
LINE
  5
64F5
330
5C34
100
AcDbEntity
  8
0
 62
     0
370
    -2
100
AcDbLine
 10
42.97121914455842
 20
5.663228650108422
 30
0.0
 11
43.5964915751111
 21
5.663228650108422
 31
0.0
  0
SOLID
  5
64F6
330
5C34
100
AcDbEntity
  8
0
 62
     0
370
    30
100
AcDbTrace
 10
46.10237710957197
 20
5.688228650108422
 30
0.0
 11
46.10237710957197
 21
5.638228650108422
 31
0.0
 12
46.25237710957197
 22
5.663228650108422
 32
0.0
 13
46.25237710957197
 23
5.663228650108422
 33
0.0
  0
SOLID
  5
64F7
330
5C34
100
AcDbEntity
  8
0
 62
     0
370
    30
100
AcDbTrace
 10
42.97121914455842
 20
5.688228650108422
 30
0.0
 11
42.97121914455842
 21
5.638228650108422
 31
0.0
 12
42.82121914455842
 22
5.663228650108422
 32
0.0
 13
42.82121914455842
 23
5.663228650108422
 33
0.0
  0
MTEXT
  5
64F8
330
5C34
100
AcDbEntity
  8
0
 62
     0
370
    30
100
AcDbMText
 10
44.1357453602589
 20
5.663228650108422
 30
0.0
 40
0.09
 41
0.0
 71
     5
 72
     1
  1
\A1;7.3" [185.42mm]
 73
     1
 44
1.0
  0
POINT
  5
64F9
330
5C34
100
AcDbEntity
  8
Defpoints
 62
     0
370
    30
100
AcDbPoint
 10
46.25237710957197
 20
4.780684289185863
 30
0.0
  0
POINT
  5
64FA
330
5C34
100
AcDbEntity
  8
Defpoints
 62
     0
370
    30
100
AcDbPoint
 10
42.82121914455842
 20
6.06728797427241
 30
0.0
  0
POINT
  5
64FB
330
5C34
100
AcDbEntity
  8
Defpoints
 62
     0
370
    30
100
AcDbPoint
 10
42.82121914455842
 20
5.663228650108422
 30
0.0
  0
ENDBLK
  5
5C40
330
5C34
100
AcDbEntity
  8
0
370
    30
100
AcDbBlockEnd
  0
BLOCK
  5
5C61
330
5C56
100
AcDbEntity
  8
0
370
    30
100
AcDbBlockBegin
  2
*D55
 70
     1
 10
0.0
 20
0.0
 30
0.0
  3
*D55
  1

  0
LINE
  5
64AC
330
5C56
100
AcDbEntity
  8
0
 62
     0
370
    -2
100
AcDbLine
 10
46.31487710957197
 20
4.780684289185863
 30
0.0
 11
47.11023754773793
 21
4.780684289185863
 31
0.0
  0
LINE
  5
64AD
330
5C56
100
AcDbEntity
  8
0
 62
     0
370
    -2
100
AcDbLine
 10
46.31487710957197
 20
3.89389165935966
 30
0.0
 11
47.11023754773793
 21
3.89389165935966
 31
0.0
  0
LINE
  5
64AE
330
5C56
100
AcDbEntity
  8
0
 62
     0
370
    -2
100
AcDbLine
 10
47.06023754773794
 20
4.630684289185863
 30
0.0
 11
47.06023754773794
 21
4.485492732744282
 31
0.0
  0
LINE
  5
64AF
330
5C56
100
AcDbEntity
  8
0
 62
     0
370
    -2
100
AcDbLine
 10
47.06023754773794
 20
4.04389165935966
 30
0.0
 11
47.06023754773794
 21
4.18908321580124
 31
0.0
  0
SOLID
  5
64B0
330
5C56
100
AcDbEntity
  8
0
 62
     0
370
    30
100
AcDbTrace
 10
47.03523754773794
 20
4.630684289185863
 30
0.0
 11
47.08523754773794
 21
4.630684289185863
 31
0.0
 12
47.06023754773794
 22
4.780684289185863
 32
0.0
 13
47.06023754773794
 23
4.780684289185863
 33
0.0
  0
SOLID
  5
64B1
330
5C56
100
AcDbEntity
  8
0
 62
     0
370
    30
100
AcDbTrace
 10
47.03523754773794
 20
4.04389165935966
 30
0.0
 11
47.08523754773794
 21
4.04389165935966
 31
0.0
 12
47.06023754773794
 22
3.89389165935966
 32
0.0
 13
47.06023754773794
 23
3.89389165935966
 33
0.0
  0
MTEXT
  5
64B2
330
5C56
100
AcDbEntity
  8
0
 62
     0
370
    30
100
AcDbMText
 10
47.06023754773794
 20
4.337287974272769
 30
0.0
 40
0.09
 41
0.0
 71
     5
 72
     1
  1
\A1;O.D. 0.84" [21.34mm]
 73
     1
 44
1.0
  0
POINT
  5
64B3
330
5C56
100
AcDbEntity
  8
Defpoints
 62
     0
370
    30
100
AcDbPoint
 10
46.25237710957197
 20
4.780684289185863
 30
0.0
  0
POINT
  5
64B4
330
5C56
100
AcDbEntity
  8
Defpoints
 62
     0
370
    30
100
AcDbPoint
 10
46.25237710957197
 20
3.89389165935966
 30
0.0
  0
POINT
  5
64B5
330
5C56
100
AcDbEntity
  8
Defpoints
 62
     0
370
    30
100
AcDbPoint
 10
47.06023754773794
 20
3.89389165935966
 30
0.0
  0
ENDBLK
  5
5C62
330
5C56
100
AcDbEntity
  8
0
370
    30
100
AcDbBlockEnd
  0
BLOCK
  5
5C79
330
5C6E
100
AcDbEntity
  8
0
370
    30
100
AcDbBlockBegin
  2
*D56
 70
     1
 10
0.0
 20
0.0
 30
0.0
  3
*D56
  1

  0
LINE
  5
64E8
330
5C6E
100
AcDbEntity
  8
0
 62
     0
370
    -2
100
AcDbLine
 10
46.25237710957197
 20
3.831391659359301
 30
0.0
 11
46.25237710957197
 21
3.547426405567108
 31
0.0
  0
LINE
  5
64E9
330
5C6E
100
AcDbEntity
  8
0
 62
     0
370
    -2
100
AcDbLine
 10
44.00371914455842
 20
3.730287974272403
 30
0.0
 11
44.00371914455842
 21
3.547426405567108
 31
0.0
  0
LINE
  5
64EA
330
5C6E
100
AcDbEntity
  8
0
 62
     0
370
    -2
100
AcDbLine
 10
46.10237710957197
 20
3.597426405567107
 30
0.0
 11
45.66658814148481
 21
3.597426405567107
 31
0.0
  0
LINE
  5
64EB
330
5C6E
100
AcDbEntity
  8
0
 62
     0
370
    -2
100
AcDbLine
 10
44.15371914455842
 20
3.597426405567107
 30
0.0
 11
44.58950811264559
 21
3.597426405567107
 31
0.0
  0
SOLID
  5
64EC
330
5C6E
100
AcDbEntity
  8
0
 62
     0
370
    30
100
AcDbTrace
 10
46.10237710957197
 20
3.622426405567107
 30
0.0
 11
46.10237710957197
 21
3.572426405567107
 31
0.0
 12
46.25237710957197
 22
3.597426405567107
 32
0.0
 13
46.25237710957197
 23
3.597426405567107
 33
0.0
  0
SOLID
  5
64ED
330
5C6E
100
AcDbEntity
  8
0
 62
     0
370
    30
100
AcDbTrace
 10
44.15371914455842
 20
3.622426405567107
 30
0.0
 11
44.15371914455842
 21
3.572426405567107
 31
0.0
 12
44.00371914455842
 22
3.597426405567107
 32
0.0
 13
44.00371914455842
 23
3.597426405567107
 33
0.0
  0
MTEXT
  5
64EE
330
5C6E
100
AcDbEntity
  8
0
 62
     0
370
    30
100
AcDbMText
 10
45.12804812706519
 20
3.597426405567107
 30
0.0
 40
0.09
 41
0.0
 71
     5
 72
     1
  1
\A1;5.1" [129.54mm]
 73
     1
 44
1.0
  0
POINT
  5
64EF
330
5C6E
100
AcDbEntity
  8
Defpoints
 62
     0
370
    30
100
AcDbPoint
 10
46.25237710957197
 20
3.893891659359301
 30
0.0
  0
POINT
  5
64F0
330
5C6E
100
AcDbEntity
  8
Defpoints
 62
     0
370
    30
100
AcDbPoint
 10
44.00371914455842
 20
3.792787974272403
 30
0.0
  0
POINT
  5
64F1
330
5C6E
100
AcDbEntity
  8
Defpoints
 62
     0
370
    30
100
AcDbPoint
 10
44.00371914455842
 20
3.597426405567107
 30
0.0
  0
ENDBLK
  5
5C7A
330
5C6E
100
AcDbEntity
  8
0
370
    30
100
AcDbBlockEnd
  0
BLOCK
  5
5DBE
330
5DB3
100
AcDbEntity
  8
0
370
    30
100
AcDbBlockBegin
  2
*D58
 70
     1
 10
0.0
 20
0.0
 30
0.0
  3
*D58
  1

  0
LINE
  5
64B6
330
5DB3
100
AcDbEntity
  8
0
 62
     0
370
    -2
100
AcDbLine
 10
42.7372191445584
 20
2.424787974272412
 30
0.0
 11
42.7372191445584
 21
2.084252101875972
 31
0.0
  0
LINE
  5
64B7
330
5DB3
100
AcDbEntity
  8
0
 62
     0
370
    -2
100
AcDbLine
 10
40.6047191445584
 20
2.424787974272412
 30
0.0
 11
40.6047191445584
 21
2.084252101875972
 31
0.0
  0
LINE
  5
64B8
330
5DB3
100
AcDbEntity
  8
0
 62
     0
370
    -2
100
AcDbLine
 10
42.58721914455841
 20
2.134252101875972
 30
0.0
 11
42.21126114167448
 21
2.134252101875972
 31
0.0
  0
LINE
  5
64B9
330
5DB3
100
AcDbEntity
  8
0
 62
     0
370
    -2
100
AcDbLine
 10
40.7547191445584
 20
2.134252101875972
 30
0.0
 11
41.13067714744232
 21
2.134252101875972
 31
0.0
  0
SOLID
  5
64BA
330
5DB3
100
AcDbEntity
  8
0
 62
     0
370
    30
100
AcDbTrace
 10
42.58721914455841
 20
2.159252101875972
 30
0.0
 11
42.58721914455841
 21
2.109252101875972
 31
0.0
 12
42.7372191445584
 22
2.134252101875972
 32
0.0
 13
42.7372191445584
 23
2.134252101875972
 33
0.0
  0
SOLID
  5
64BB
330
5DB3
100
AcDbEntity
  8
0
 62
     0
370
    30
100
AcDbTrace
 10
40.7547191445584
 20
2.159252101875972
 30
0.0
 11
40.7547191445584
 21
2.109252101875972
 31
0.0
 12
40.6047191445584
 22
2.134252101875972
 32
0.0
 13
40.6047191445584
 23
2.134252101875972
 33
0.0
  0
MTEXT
  5
64BC
330
5DB3
100
AcDbEntity
  8
0
 62
     0
370
    30
100
AcDbMText
 10
41.6709691445584
 20
2.134252101875972
 30
0.0
 40
0.09
 41
0.0
 71
     5
 72
     1
  1
\A1;2.13" [54.17mm]
 73
     1
 44
1.0
  0
POINT
  5
64BD
330
5DB3
100
AcDbEntity
  8
Defpoints
 62
     0
370
    30
100
AcDbPoint
 10
42.7372191445584
 20
2.487287974272412
 30
0.0
  0
POINT
  5
64BE
330
5DB3
100
AcDbEntity
  8
Defpoints
 62
     0
370
    30
100
AcDbPoint
 10
40.6047191445584
 20
2.487287974272412
 30
0.0
  0
POINT
  5
64BF
330
5DB3
100
AcDbEntity
  8
Defpoints
 62
     0
370
    30
100
AcDbPoint
 10
40.6047191445584
 20
2.134252101875972
 30
0.0
  0
ENDBLK
  5
5DBF
330
5DB3
100
AcDbEntity
  8
0
370
    30
100
AcDbBlockEnd
  0
BLOCK
  5
5DDA
330
5DCF
100
AcDbEntity
  8
0
370
    30
100
AcDbBlockBegin
  2
*D60
 70
     1
 10
0.0
 20
0.0
 30
0.0
  3
*D60
  1

  0
LINE
  5
64C0
330
5DCF
100
AcDbEntity
  8
0
 62
     0
370
    -2
100
AcDbLine
 10
37.86779175358596
 20
2.487287974272739
 30
0.0
 11
38.89504098625558
 21
2.487287974272739
 31
0.0
  0
LINE
  5
64C1
330
5DCF
100
AcDbEntity
  8
0
 62
     0
370
    -2
100
AcDbLine
 10
36.88779175358599
 20
4.33728797427274
 30
0.0
 11
38.89504098625558
 21
4.337287974272739
 31
0.0
  0
LINE
  5
64C2
330
5DCF
100
AcDbEntity
  8
0
 62
     0
370
    -2
100
AcDbLine
 10
38.84504098625558
 20
2.637287974272739
 30
0.0
 11
38.84504098625558
 21
3.264083215801218
 31
0.0
  0
LINE
  5
64C3
330
5DCF
100
AcDbEntity
  8
0
 62
     0
370
    -2
100
AcDbLine
 10
38.84504098625558
 20
4.187287974272739
 30
0.0
 11
38.84504098625558
 21
3.56049273274426
 31
0.0
  0
SOLID
  5
64C4
330
5DCF
100
AcDbEntity
  8
0
 62
     0
370
    30
100
AcDbTrace
 10
38.82004098625558
 20
2.637287974272739
 30
0.0
 11
38.87004098625558
 21
2.637287974272739
 31
0.0
 12
38.84504098625558
 22
2.487287974272739
 32
0.0
 13
38.84504098625558
 23
2.487287974272739
 33
0.0
  0
SOLID
  5
64C5
330
5DCF
100
AcDbEntity
  8
0
 62
     0
370
    30
100
AcDbTrace
 10
38.82004098625558
 20
4.187287974272739
 30
0.0
 11
38.87004098625558
 21
4.187287974272739
 31
0.0
 12
38.84504098625558
 22
4.337287974272739
 32
0.0
 13
38.84504098625558
 23
4.337287974272739
 33
0.0
  0
MTEXT
  5
64C6
330
5DCF
100
AcDbEntity
  8
0
 62
     0
370
    30
100
AcDbMText
 10
38.84504098625558
 20
3.412287974272745
 30
0.0
 40
0.09
 41
0.0
 71
     5
 72
     1
  1
\A1;1.85" [46.99mm]
 73
     1
 44
1.0
  0
POINT
  5
64C7
330
5DCF
100
AcDbEntity
  8
Defpoints
 62
     0
370
    30
100
AcDbPoint
 10
37.80529175358596
 20
2.487287974272739
 30
0.0
  0
POINT
  5
64C8
330
5DCF
100
AcDbEntity
  8
Defpoints
 62
     0
370
    30
100
AcDbPoint
 10
36.82529175358598
 20
4.33728797427274
 30
0.0
  0
POINT
  5
64C9
330
5DCF
100
AcDbEntity
  8
Defpoints
 62
     0
370
    30
100
AcDbPoint
 10
38.84504098625558
 20
4.337287974272739
 30
0.0
  0
ENDBLK
  5
5DDB
330
5DCF
100
AcDbEntity
  8
0
370
    30
100
AcDbBlockEnd
  0
BLOCK
  5
5DE8
330
5DDD
100
AcDbEntity
  8
0
370
    30
100
AcDbBlockBegin
  2
*D61
 70
     1
 10
0.0
 20
0.0
 30
0.0
  3
*D61
  1

  0
LINE
  5
64CA
330
5DDD
100
AcDbEntity
  8
0
 62
     0
370
    -2
100
AcDbLine
 10
36.82529175358598
 20
4.27478797427274
 30
0.0
 11
36.82529175358598
 21
2.097893451651811
 31
0.0
  0
LINE
  5
64CB
330
5DDD
100
AcDbEntity
  8
0
 62
     0
370
    -2
100
AcDbLine
 10
38.10029175358597
 20
2.71978797427274
 30
0.0
 11
38.10029175358597
 21
2.097893451651811
 31
0.0
  0
LINE
  5
64CC
330
5DDD
100
AcDbEntity
  8
0
 62
     0
370
    -2
100
AcDbLine
 10
36.67529175358598
 20
2.14789345165181
 30
0.0
 11
36.52529175358599
 21
2.14789345165181
 31
0.0
  0
LINE
  5
64CD
330
5DDD
100
AcDbEntity
  8
0
 62
     0
370
    -2
100
AcDbLine
 10
38.25029175358597
 20
2.14789345165181
 30
0.0
 11
38.40029175358597
 21
2.14789345165181
 31
0.0
  0
SOLID
  5
64CE
330
5DDD
100
AcDbEntity
  8
0
 62
     0
370
    30
100
AcDbTrace
 10
36.67529175358598
 20
2.17289345165181
 30
0.0
 11
36.67529175358598
 21
2.12289345165181
 31
0.0
 12
36.82529175358598
 22
2.14789345165181
 32
0.0
 13
36.82529175358598
 23
2.14789345165181
 33
0.0
  0
SOLID
  5
64CF
330
5DDD
100
AcDbEntity
  8
0
 62
     0
370
    30
100
AcDbTrace
 10
38.25029175358597
 20
2.17289345165181
 30
0.0
 11
38.25029175358597
 21
2.12289345165181
 31
0.0
 12
38.10029175358597
 22
2.14789345165181
 32
0.0
 13
38.10029175358597
 23
2.14789345165181
 33
0.0
  0
MTEXT
  5
64D0
330
5DDD
100
AcDbEntity
  8
0
 62
     0
370
    30
100
AcDbMText
 10
37.46279175358598
 20
2.14789345165181
 30
0.0
 40
0.09
 41
0.0
 71
     5
 72
     1
  1
\A1;1.28" [32.39mm]
 73
     1
 44
1.0
  0
POINT
  5
64D1
330
5DDD
100
AcDbEntity
  8
Defpoints
 62
     0
370
    30
100
AcDbPoint
 10
36.82529175358598
 20
4.33728797427274
 30
0.0
  0
POINT
  5
64D2
330
5DDD
100
AcDbEntity
  8
Defpoints
 62
     0
370
    30
100
AcDbPoint
 10
38.10029175358597
 20
2.78228797427274
 30
0.0
  0
POINT
  5
64D3
330
5DDD
100
AcDbEntity
  8
Defpoints
 62
     0
370
    30
100
AcDbPoint
 10
38.10029175358597
 20
2.14789345165181
 30
0.0
  0
ENDBLK
  5
5DE9
330
5DDD
100
AcDbEntity
  8
0
370
    30
100
AcDbBlockEnd
  0
BLOCK
  5
5E53
330
5DF5
100
AcDbEntity
  8
0
370
    30
100
AcDbBlockBegin
  2
A$C691F69C4
 70
     0
 10
0.0
 20
0.0
 30
0.0
  3
A$C691F69C4
  1

  0
LINE
  5
5DF6
330
5DF5
100
AcDbEntity
  8
0
  6
HIDDEN2
100
AcDbLine
 10
0.6820678069303483
 20
0.973252377529695
 30
0.0
 11
0.6820678069303483
 21
2.672052469920862
 31
0.0
  0
LINE
  5
5DF7
330
5DF5
100
AcDbEntity
  8
0
  6
HIDDEN2
100
AcDbLine
 10
1.277932319484847
 20
1.104367606531331
 30
0.0
 11
1.277932319484847
 21
2.672052469920862
 31
0.0
  0
LINE
  5
5DF8
330
5DF5
100
AcDbEntity
  8
0
370
    30
100
AcDbLine
 10
0.6300000632075751
 20
2.968990366697456
 30
0.0
 11
0.6775743732981141
 21
2.964828153889467
 31
0.0
  0
LINE
  5
5DF9
330
5DF5
100
AcDbEntity
  8
0
370
    30
100
AcDbLine
 10
0.6300000632075822
 20
3.028990366697454
 30
0.0
 11
1.330000063207592
 21
2.967748302229308
 31
0.0
  0
LINE
  5
5DFA
330
5DF5
100
AcDbEntity
  8
0
370
    30
100
AcDbLine
 10
0.6300000632075751
 20
3.088990366697457
 30
0.0
 11
1.330000063207592
 21
3.027748302229307
 31
0.0
  0
LINE
  5
5DFB
330
5DF5
100
AcDbEntity
  8
0
370
    30
100
AcDbLine
 10
0.6300000632075751
 20
3.148990366697459
 30
0.0
 11
1.330000063207585
 21
3.087748302229313
 31
0.0
  0
LWPOLYLINE
  5
5DFC
330
5DF5
100
AcDbEntity
  8
0
100
AcDbPolyline
 90
        2
 70
     0
 43
0.0
 10
1.331862820625481
 20
3.205988682957977
 10
0.6262266132609327
 20
3.206086070093232
  0
LINE
  5
5DFD
330
5DF5
100
AcDbEntity
  8
0
100
AcDbLine
 10
1.113808346872431
 20
2.83982815388946
 30
0.0
 11
0.716070571283268
 21
2.83982815388946
 31
0.0
  0
LINE
  5
5DFE
330
5DF5
100
AcDbEntity
  8
0
100
AcDbLine
 10
1.480000063207583
 20
2.949828153889459
 30
0.0
 11
0.4800000632075836
 21
2.949828153889459
 31
0.0
  0
LINE
  5
5DFF
330
5DF5
100
AcDbEntity
  8
0
100
AcDbLine
 10
1.39000006320758
 20
2.964828153889467
 30
0.0
 11
0.570000063207587
 21
2.964828153889467
 31
0.0
  0
LINE
  5
5E00
330
5DF5
100
AcDbEntity
  8
0
100
AcDbLine
 10
0.4175000632075836
 20
2.787052469920862
 30
0.0
 11
0.4800000632075836
 21
2.83982815388946
 31
0.0
  0
LINE
  5
5E01
330
5DF5
100
AcDbEntity
  8
0
100
AcDbLine
 10
0.570000063207587
 20
2.964828153889467
 30
0.0
 11
0.4175000632075836
 21
2.939411487222795
 31
0.0
  0
LINE
  5
5E02
330
5DF5
100
AcDbEntity
  8
0
100
AcDbLine
 10
0.4175000632075836
 20
2.939411487222788
 30
0.0
 11
0.4175000632075836
 21
2.787052469920862
 31
0.0
  0
LINE
  5
5E03
330
5DF5
100
AcDbEntity
  8
0
370
    30
100
AcDbLine
 10
0.6300000632075751
 20
3.148990366697459
 30
0.0
 11
0.5950000632075785
 21
3.122052469920864
 31
0.0
  0
LINE
  5
5E04
330
5DF5
100
AcDbEntity
  8
0
370
    30
100
AcDbLine
 10
0.5950000632075785
 20
3.122052469920864
 30
0.0
 11
0.6300000632075751
 21
3.088990366697457
 31
0.0
  0
LINE
  5
5E05
330
5DF5
100
AcDbEntity
  8
0
370
    30
100
AcDbLine
 10
0.6300000632075751
 20
2.968990366697456
 30
0.0
 11
0.6245921633448717
 21
2.964828153889467
 31
0.0
  0
LINE
  5
5E06
330
5DF5
100
AcDbEntity
  8
0
370
    30
100
AcDbLine
 10
0.6300000632075751
 20
3.028990366697454
 30
0.0
 11
0.5950000632075785
 21
3.00205246992086
 31
0.0
  0
LINE
  5
5E07
330
5DF5
100
AcDbEntity
  8
0
370
    30
100
AcDbLine
 10
0.5950000632075785
 20
3.00205246992086
 30
0.0
 11
0.6300000632075751
 21
2.968990366697456
 31
0.0
  0
LINE
  5
5E08
330
5DF5
100
AcDbEntity
  8
0
370
    30
100
AcDbLine
 10
0.5950000632075785
 20
3.062052469920862
 30
0.0
 11
0.6300000632075751
 21
3.028990366697454
 31
0.0
  0
LINE
  5
5E09
330
5DF5
100
AcDbEntity
  8
0
370
    30
100
AcDbLine
 10
0.6300000632075751
 20
3.088990366697457
 30
0.0
 11
0.5950000632075785
 21
3.062052469920862
 31
0.0
  0
LINE
  5
5E0A
330
5DF5
100
AcDbEntity
  8
0
100
AcDbLine
 10
0.5904968877345312
 20
2.912052469920869
 30
0.0
 11
0.5904968877345312
 21
2.787052469920862
 31
0.0
  0
LINE
  5
5E0B
330
5DF5
100
AcDbEntity
  8
0
100
AcDbLine
 10
0.807003238680636
 20
2.949828153889459
 30
0.0
 11
0.807003238680636
 21
2.83982815388946
 31
0.0
  0
LINE
  5
5E0C
330
5DF5
100
AcDbEntity
  8
0
100
AcDbLine
 10
0.8461917795426643
 20
2.949828153889459
 30
0.0
 11
0.8461917795426643
 21
2.83982815388946
 31
0.0
  0
LINE
  5
5E0D
330
5DF5
100
AcDbEntity
  8
0
100
AcDbLine
 10
0.4800000632075836
 20
2.949828153889459
 30
0.0
 11
0.4800000632075836
 21
2.83982815388946
 31
0.0
  0
LINE
  5
5E0E
330
5DF5
100
AcDbEntity
  8
0
100
AcDbLine
 10
0.5904968877345312
 20
2.787052469920862
 30
0.0
 11
0.716070571283268
 21
2.83982815388946
 31
0.0
  0
LINE
  5
5E0F
330
5DF5
100
AcDbEntity
  8
0
100
AcDbLine
 10
0.5904968877345312
 20
2.83982815388946
 30
0.0
 11
0.4800000632075836
 21
2.83982815388946
 31
0.0
  0
LINE
  5
5E10
330
5DF5
100
AcDbEntity
  8
0
100
AcDbLine
 10
0.5904968877345312
 20
2.912052469920869
 30
0.0
 11
0.6296854285965594
 21
2.949828153889459
 31
0.0
  0
LINE
  5
5E11
330
5DF5
100
AcDbEntity
  8
0
100
AcDbLine
 10
0.5904968877345312
 20
2.912052469920869
 30
0.0
 11
0.6803797926596787
 21
2.949828153889459
 31
0.0
  0
LINE
  5
5E12
330
5DF5
100
AcDbEntity
  8
HIDDEN
370
    30
100
AcDbLine
 10
1.330000063207592
 20
2.727748302229306
 30
0.0
 11
1.365000063207581
 21
2.754686199005901
 31
0.0
  0
LINE
  5
5E13
330
5DF5
100
AcDbEntity
  8
HIDDEN
370
    30
100
AcDbLine
 10
1.365000063207581
 20
2.754686199005901
 30
0.0
 11
1.330974144973559
 21
2.786828153889464
 31
0.0
  0
LINE
  5
5E14
330
5DF5
100
AcDbEntity
  8
HIDDEN
370
    30
100
AcDbLine
 10
1.365000063207581
 20
2.754686199005901
 30
0.0
 11
1.330974144973559
 21
2.786828153889464
 31
0.0
  0
LINE
  5
5E15
330
5DF5
100
AcDbEntity
  8
0
370
    30
100
AcDbLine
 10
1.333091372650414
 20
2.964828153889467
 30
0.0
 11
1.330000063207585
 21
2.967748302229308
 31
0.0
  0
LINE
  5
5E16
330
5DF5
100
AcDbEntity
  8
0
370
    30
100
AcDbLine
 10
1.365000063207581
 20
2.994686199005903
 30
0.0
 11
1.330000063207585
 21
3.02774830222931
 31
0.0
  0
LINE
  5
5E17
330
5DF5
100
AcDbEntity
  8
0
370
    30
100
AcDbLine
 10
1.330000063207585
 20
2.967748302229308
 30
0.0
 11
1.365000063207581
 21
2.994686199005903
 31
0.0
  0
LINE
  5
5E18
330
5DF5
100
AcDbEntity
  8
0
370
    30
100
AcDbLine
 10
1.330000063207585
 20
3.02774830222931
 30
0.0
 11
1.365000063207581
 21
3.054686199005905
 31
0.0
  0
LINE
  5
5E19
330
5DF5
100
AcDbEntity
  8
0
370
    30
100
AcDbLine
 10
1.365000063207581
 20
3.054686199005905
 30
0.0
 11
1.330000063207585
 21
3.087748302229309
 31
0.0
  0
LINE
  5
5E1A
330
5DF5
100
AcDbEntity
  8
0
370
    30
100
AcDbLine
 10
1.330000063207585
 20
3.087748302229309
 30
0.0
 11
1.365000063207581
 21
3.114686199005904
 31
0.0
  0
LINE
  5
5E1B
330
5DF5
100
AcDbEntity
  8
0
100
AcDbLine
 10
1.542500063207569
 20
2.939411487222795
 30
0.0
 11
1.542500063207583
 21
2.787052469920862
 31
0.0
  0
LINE
  5
5E1C
330
5DF5
100
AcDbEntity
  8
0
100
AcDbLine
 10
1.113808346872431
 20
2.949828153889459
 30
0.0
 11
1.113808346872431
 21
2.83982815388946
 31
0.0
  0
LINE
  5
5E1D
330
5DF5
100
AcDbEntity
  8
0
100
AcDbLine
 10
1.152996887734531
 20
2.912052469920876
 30
0.0
 11
1.152996887734531
 21
2.787052469920862
 31
0.0
  0
LINE
  5
5E1E
330
5DF5
100
AcDbEntity
  8
0
100
AcDbLine
 10
1.369503238680636
 20
2.949828153889459
 30
0.0
 11
1.369503238680636
 21
2.83982815388946
 31
0.0
  0
LINE
  5
5E1F
330
5DF5
100
AcDbEntity
  8
0
100
AcDbLine
 10
1.480000063207583
 20
2.949828153889459
 30
0.0
 11
1.480000063207583
 21
2.83982815388946
 31
0.0
  0
LINE
  5
5E20
330
5DF5
100
AcDbEntity
  8
0
100
AcDbLine
 10
1.278570571283268
 20
2.83982815388946
 30
0.0
 11
1.152996887734531
 21
2.787052469920862
 31
0.0
  0
LINE
  5
5E21
330
5DF5
100
AcDbEntity
  8
0
100
AcDbLine
 10
1.480000063207583
 20
2.83982815388946
 30
0.0
 11
1.542500063207583
 21
2.787052469920862
 31
0.0
  0
LINE
  5
5E22
330
5DF5
100
AcDbEntity
  8
0
100
AcDbLine
 10
1.369503238680636
 20
2.83982815388946
 30
0.0
 11
1.278570571283268
 21
2.83982815388946
 31
0.0
  0
LINE
  5
5E23
330
5DF5
100
AcDbEntity
  8
0
100
AcDbLine
 10
1.480000063207583
 20
2.83982815388946
 30
0.0
 11
1.369503238680636
 21
2.83982815388946
 31
0.0
  0
LINE
  5
5E24
330
5DF5
100
AcDbEntity
  8
HIDDEN
100
AcDbLine
 10
1.152996887734531
 20
2.787052469920862
 30
0.0
 11
1.113808346872431
 21
2.83982815388946
 31
0.0
  0
LINE
  5
5E25
330
5DF5
100
AcDbEntity
  8
0
100
AcDbLine
 10
1.278570571283268
 20
2.949828153889459
 30
0.0
 11
1.152996887734531
 21
2.912052469920869
 31
0.0
  0
LINE
  5
5E26
330
5DF5
100
AcDbEntity
  8
0
100
AcDbLine
 10
1.39000006320758
 20
2.964828153889467
 30
0.0
 11
1.542500063207583
 21
2.939411487222788
 31
0.0
  0
LINE
  5
5E27
330
5DF5
100
AcDbEntity
  8
0
100
AcDbLine
 10
1.152996887734531
 20
2.912052469920869
 30
0.0
 11
1.113808346872431
 21
2.949828153889459
 31
0.0
  0
LINE
  5
5E28
330
5DF5
100
AcDbEntity
  8
0
100
AcDbLine
 10
1.594149674906418
 20
1.059253597255723
 30
0.0
 11
0.9977898948140477
 21
0.7811664647830181
 31
0.0
  0
LINE
  5
5E29
330
5DF5
100
AcDbEntity
  8
0
100
AcDbLine
 10
1.618533457874178
 20
1.263192525738622
 30
0.0
 11
1.022173677781808
 21
0.9851053932659166
 31
0.0
  0
LINE
  5
5E2A
330
5DF5
100
AcDbEntity
  8
0
100
AcDbLine
 10
1.423396378120713
 20
0.0000000385198913
 30
0.0
 11
0.5366037482945103
 21
0.0000000385198913
 31
0.0
  0
LINE
  5
5E2B
330
5DF5
100
AcDbEntity
  8
0
100
AcDbLine
 10
1.022173677781808
 20
0.9851053932659166
 30
0.0
 11
1.022173677781808
 21
1.131846349691192
 31
0.0
  0
LINE
  5
5E2C
330
5DF5
100
AcDbEntity
  8
0
100
AcDbLine
 10
1.022173677781808
 20
1.131846349691192
 30
0.0
 11
0.369538274362128
 21
0.8275174630935051
 31
0.0
  0
LINE
  5
5E2D
330
5DF5
100
AcDbEntity
  8
0
100
AcDbLine
 10
0.9977898948140477
 20
0.9279074212082942
 30
0.0
 11
0.3451544913943678
 21
0.6235785346106067
 31
0.0
  0
LINE
  5
5E2E
330
5DF5
100
AcDbEntity
  8
0
  6
HIDDEN2
100
AcDbLine
 10
0.675000087818475
 20
0.0000000385198903
 30
0.0
 11
0.6750000878185461
 21
0.780683793779457
 31
0.0
  0
LINE
  5
5E2F
330
5DF5
100
AcDbEntity
  8
0
100
AcDbLine
 10
0.9977898948140477
 20
0.7811664647830181
 30
0.0
 11
0.9977898948140477
 21
0.9279074212082942
 31
0.0
  0
LINE
  5
5E30
330
5DF5
100
AcDbEntity
  8
0
100
AcDbLine
 10
0.5366037482945103
 20
0.0000000385198913
 30
0.0
 11
0.5366037482945103
 21
0.7128527892512297
 31
0.0
  0
LINE
  5
5E31
330
5DF5
100
AcDbEntity
  8
0
100
AcDbLine
 10
1.423396378120713
 20
1.464028014744007
 30
0.0
 11
1.423396378120685
 21
1.172198611059519
 31
0.0
  0
LINE
  5
5E32
330
5DF5
100
AcDbEntity
  8
0
100
AcDbLine
 10
1.423396378120685
 20
1.172198611059519
 30
0.0
 11
1.423396378120713
 21
1.489552469920861
 31
0.0
  0
LINE
  5
5E33
330
5DF5
100
AcDbEntity
  8
0
  6
HIDDEN2
100
AcDbLine
 10
1.285000063207611
 20
0.0000000385198913
 30
0.0
 11
1.285000063207611
 21
0.9117990227811301
 31
0.0
  0
LINE
  5
5E34
330
5DF5
100
AcDbEntity
  8
0
100
AcDbLine
 10
1.423396378120685
 20
0.0000000385199197
 30
0.0
 11
1.423396378120685
 21
0.4905640019822553
 31
0.0
  0
LINE
  5
5E35
330
5DF5
100
AcDbEntity
  8
0
100
AcDbLine
 10
1.423396378120692
 20
0.9796300273093248
 30
0.0
 11
1.423396378120685
 21
0.0000000385199197
 31
0.0
  0
LINE
  5
5E36
330
5DF5
100
AcDbEntity
  8
0
  6
Continuous
370
    30
100
AcDbLine
 10
0.0000000632075796
 20
2.67205246992086
 30
0.0
 11
1.960000063207573
 21
2.672052469920863
 31
0.0
  0
LINE
  5
5E37
330
5DF5
100
AcDbEntity
  8
0
370
    30
100
AcDbLine
 10
1.530000063207594
 20
2.67205246992086
 30
0.0
 11
0.4300000632075865
 21
2.67205246992086
 31
0.0
  0
LINE
  5
5E38
330
5DF5
100
AcDbEntity
  8
0
370
    30
100
AcDbLine
 10
1.365000063207574
 20
2.814686199005908
 30
0.0
 11
1.338384441842592
 21
2.83982815388946
 31
0.0
  0
LINE
  5
5E39
330
5DF5
100
AcDbEntity
  8
0
370
    30
100
AcDbLine
 10
1.330000063207577
 20
2.787748302229314
 30
0.0
 11
1.365000063207574
 21
2.814686199005908
 31
0.0
  0
LINE
  5
5E3A
330
5DF5
100
AcDbEntity
  8
0
370
    30
100
AcDbLine
 10
0.6192562160499478
 20
2.799139343375795
 30
0.0
 11
0.6300000632075751
 21
2.788990366697447
 31
0.0
  0
LINE
  5
5E3B
330
5DF5
100
AcDbEntity
  8
HIDDEN
370
    30
100
AcDbLine
 10
0.6300000632075751
 20
2.788990366697449
 30
0.0
 11
0.5950000632075785
 21
2.762052469920854
 31
0.0
  0
LINE
  5
5E3C
330
5DF5
100
AcDbEntity
  8
HIDDEN
370
    30
100
AcDbLine
 10
0.5950000632075785
 20
2.762052469920854
 30
0.0
 11
0.6300000632075751
 21
2.72899036669745
 31
0.0
  0
LINE
  5
5E3D
330
5DF5
100
AcDbEntity
  8
HIDDEN
370
    30
100
AcDbLine
 10
0.6300000632075751
 20
2.728990366697452
 30
0.0
 11
0.5950000632075785
 21
2.702052469920857
 31
0.0
  0
LINE
  5
5E3E
330
5DF5
100
AcDbEntity
  8
HIDDEN
370
    30
100
AcDbLine
 10
0.5950000632075785
 20
2.702052469920857
 30
0.0
 11
0.6267584783605642
 21
2.672052469920862
 31
0.0
  0
LINE
  5
5E3F
330
5DF5
100
AcDbEntity
  8
HIDDEN
370
    30
100
AcDbLine
 10
1.365000063207567
 20
2.694686199005914
 30
0.0
 11
1.33000006320757
 21
2.727748302229322
 31
0.0
  0
LINE
  5
5E40
330
5DF5
100
AcDbEntity
  8
HIDDEN
370
    30
100
AcDbLine
 10
1.335592402893681
 20
2.672052469920862
 30
0.0
 11
1.365000063207567
 21
2.694686199005914
 31
0.0
  0
LINE
  5
5E41
330
5DF5
100
AcDbEntity
  8
0
370
    30
100
AcDbLine
 10
0.7347246348119612
 20
2.83982815388946
 30
0.0
 11
1.140146425688826
 21
2.804358343241356
 31
0.0
  0
LINE
  5
5E42
330
5DF5
100
AcDbEntity
  8
HIDDEN
370
    30
100
AcDbLine
 10
0.6300000632075751
 20
2.728990366697441
 30
0.0
 11
1.280803201373082
 21
2.672052469920863
 31
0.0
  0
LINE
  5
5E43
330
5DF5
100
AcDbEntity
  8
HIDDEN
370
    30
100
AcDbLine
 10
0.6300000632075822
 20
2.78899036669744
 30
0.0
 11
1.330000063207592
 21
2.727748302229294
 31
0.0
  0
LINE
  5
5E44
330
5DF5
100
AcDbEntity
  8
0
370
    30
100
AcDbLine
 10
1.184865162154594
 20
2.800445960753398
 30
0.0
 11
1.330000063207585
 21
2.787748302229305
 31
0.0
  0
LINE
  5
5E45
330
5DF5
100
AcDbEntity
  8
0
370
    30
100
AcDbLine
 10
0.6267584783605642
 20
2.67205246992086
 30
0.0
 11
1.335592402893681
 21
2.672052469920862
 31
0.0
  0
LWPOLYLINE
  5
5E46
330
5DF5
100
AcDbEntity
  8
0
370
    30
100
AcDbPolyline
 90
        4
 70
     1
 43
0.0
 10
0.4366754406271199
 20
1.489552469920861
 10
1.525675440627118
 20
1.489552469920861
 10
1.525675440627118
 20
2.444052469920861
 10
0.4366754406271199
 20
2.444052469920861
  0
LWPOLYLINE
  5
5E47
330
5DF5
100
AcDbEntity
  8
0
370
    30
100
AcDbPolyline
 90
        4
 70
     1
 43
0.0
 10
0.3589254406271252
 20
2.444052469920861
 10
1.603425440627127
 20
2.444052469920861
 10
1.603425440627127
 20
2.672052469920861
 10
0.3589254406271252
 20
2.672052469920861
  0
LWPOLYLINE
  5
5E48
330
5DF5
100
AcDbEntity
  8
0
370
    30
100
AcDbPolyline
 90
        4
 70
     1
 43
0.0
 10
0.6411754406271229
 20
2.444052469920861
 10
1.321175440627122
 20
2.444052469920861
 10
1.321175440627122
 20
2.67205246992086
 10
0.6411754406271229
 20
2.67205246992086
  0
LINE
  5
5E49
330
5DF5
100
AcDbEntity
  8
0
100
AcDbLine
 10
0.5366037482945103
 20
0.9054213730014698
 30
0.0
 11
0.5366037482945103
 21
1.489552469920861
 31
0.0
  0
LINE
  5
5E4A
330
5DF5
100
AcDbEntity
  8
0
370
    30
100
AcDbLine
 10
0.980000063207612
 20
0.0000000385198913
 30
0.0
 11
1.285000063207611
 21
0.0000000385198913
 31
0.0
  0
LINE
  5
5E4B
330
5DF5
100
AcDbEntity
  8
0
370
    30
100
AcDbLine
 10
1.365000063207581
 20
3.114686199005904
 30
0.0
 11
1.330000063207585
 21
3.147748302229308
 31
0.0
  0
LINE
  5
5E4C
330
5DF5
100
AcDbEntity
  8
0
370
    30
100
AcDbLine
 10
1.330000054569893
 20
3.147748310489717
 30
0.0
 11
1.36500005456989
 21
3.174686207266312
 31
0.0
  0
LINE
  5
5E4D
330
5DF5
100
AcDbEntity
  8
0
370
    30
100
AcDbLine
 10
1.36500005456989
 20
3.174686207266312
 30
0.0
 11
1.331862820625481
 21
3.205988682957976
 31
0.0
  0
LINE
  5
5E4E
330
5DF5
100
AcDbEntity
  8
0
370
    30
100
AcDbLine
 10
0.5950000632075785
 20
3.182052469920867
 30
0.0
 11
0.6300000632075751
 21
3.148990366697459
 31
0.0
  0
LINE
  5
5E4F
330
5DF5
100
AcDbEntity
  8
0
370
    30
100
AcDbLine
 10
0.6262266132609327
 20
3.20608607009323
 30
0.0
 11
0.5950001161265988
 21
3.182052465621818
 31
0.0
  0
LINE
  5
5E50
330
5DF5
100
AcDbEntity
  8
0
370
    30
100
AcDbLine
 10
0.6632548230206652
 20
3.206080959710241
 30
0.0
 11
1.330000054569893
 21
3.147748310489717
 31
0.0
  0
LINE
  5
5E51
330
5DF5
100
AcDbEntity
  8
0
370
    30
100
AcDbLine
 10
1.285000063207611
 20
0.0000000385198913
 30
0.0
 11
1.423396378120685
 21
0.0000000385198903
 31
0.0
  0
LINE
  5
5E52
330
5DF5
100
AcDbEntity
  8
0
370
    30
100
AcDbLine
 10
0.5366037729054014
 20
0.0000000385198913
 30
0.0
 11
0.675000087818475
 21
0.0000000385198903
 31
0.0
  0
ENDBLK
  5
5E54
330
5DF5
100
AcDbEntity
  8
0
370
    30
100
AcDbBlockEnd
  0
BLOCK
  5
6078
330
606D
100
AcDbEntity
  8
0
370
    30
100
AcDbBlockBegin
  2
*D68
 70
     1
 10
0.0
 20
0.0
 30
0.0
  3
*D68
  1

  0
LINE
  5
64D4
330
606D
100
AcDbEntity
  8
0
 62
     0
370
    -2
100
AcDbLine
 10
42.75871914455841
 20
6.249787974272408
 30
0.0
 11
42.75871914455841
 21
6.580239675043517
 31
0.0
  0
LINE
  5
64D5
330
606D
100
AcDbEntity
  8
0
 62
     0
370
    -2
100
AcDbLine
 10
41.99621914455841
 20
5.001037974272414
 30
0.0
 11
41.99621914455841
 21
6.580239675043517
 31
0.0
  0
LINE
  5
64D6
330
606D
100
AcDbEntity
  8
0
 62
     0
370
    -2
100
AcDbLine
 10
42.14621914455841
 20
6.530239675043517
 30
0.0
 11
42.60871914455841
 21
6.530239675043517
 31
0.0
  0
LINE
  5
64D7
330
606D
100
AcDbEntity
  8
0
 62
     0
370
    -2
100
AcDbLine
 10
42.75871914455841
 20
6.530239675043517
 30
0.0
 11
42.97516471052813
 21
6.530239675043517
 31
0.0
  0
SOLID
  5
64D8
330
606D
100
AcDbEntity
  8
0
 62
     0
370
    30
100
AcDbTrace
 10
42.14621914455841
 20
6.555239675043518
 30
0.0
 11
42.14621914455841
 21
6.505239675043517
 31
0.0
 12
41.99621914455841
 22
6.530239675043517
 32
0.0
 13
41.99621914455841
 23
6.530239675043517
 33
0.0
  0
SOLID
  5
64D9
330
606D
100
AcDbEntity
  8
0
 62
     0
370
    30
100
AcDbTrace
 10
42.60871914455841
 20
6.555239675043518
 30
0.0
 11
42.60871914455841
 21
6.505239675043517
 31
0.0
 12
42.75871914455841
 22
6.530239675043517
 32
0.0
 13
42.75871914455841
 23
6.530239675043517
 33
0.0
  0
MTEXT
  5
64DA
330
606D
100
AcDbEntity
  8
0
 62
     0
370
    30
100
AcDbMText
 10
43.51448338392395
 20
6.530239675043517
 30
0.0
 40
0.09
 41
0.0
 71
     5
 72
     1
  1
\A1;0.76" [19.37mm]
 73
     1
 44
1.0
  0
POINT
  5
64DB
330
606D
100
AcDbEntity
  8
Defpoints
 62
     0
370
    30
100
AcDbPoint
 10
42.75871914455841
 20
6.187287974272408
 30
0.0
  0
POINT
  5
64DC
330
606D
100
AcDbEntity
  8
Defpoints
 62
     0
370
    30
100
AcDbPoint
 10
41.99621914455841
 20
4.938537974272414
 30
0.0
  0
POINT
  5
64DD
330
606D
100
AcDbEntity
  8
Defpoints
 62
     0
370
    30
100
AcDbPoint
 10
41.99621914455841
 20
6.530239675043517
 30
0.0
  0
ENDBLK
  5
6079
330
606D
100
AcDbEntity
  8
0
370
    30
100
AcDbBlockEnd
  0
BLOCK
  5
6085
330
607A
100
AcDbEntity
  8
0
370
    30
100
AcDbBlockBegin
  2
*D69
 70
     1
 10
0.0
 20
0.0
 30
0.0
  3
*D69
  1

  0
LINE
  5
64DE
330
607A
100
AcDbEntity
  8
0
 62
     0
370
    -2
100
AcDbLine
 10
41.9337191445584
 20
4.938537974272414
 30
0.0
 11
39.94860892125939
 21
4.938537974272414
 31
0.0
  0
LINE
  5
64DF
330
607A
100
AcDbEntity
  8
0
 62
     0
370
    -2
100
AcDbLine
 10
41.9337191445584
 20
3.736037974272413
 30
0.0
 11
39.94860892125939
 21
3.736037974272413
 31
0.0
  0
LINE
  5
64E0
330
607A
100
AcDbEntity
  8
0
 62
     0
370
    -2
100
AcDbLine
 10
39.99860892125939
 20
4.788537974272413
 30
0.0
 11
39.99860892125939
 21
4.485492732743934
 31
0.0
  0
LINE
  5
64E1
330
607A
100
AcDbEntity
  8
0
 62
     0
370
    -2
100
AcDbLine
 10
39.99860892125939
 20
3.886037974272413
 30
0.0
 11
39.99860892125939
 21
4.189083215800892
 31
0.0
  0
SOLID
  5
64E2
330
607A
100
AcDbEntity
  8
0
 62
     0
370
    30
100
AcDbTrace
 10
39.97360892125939
 20
4.788537974272413
 30
0.0
 11
40.02360892125938
 21
4.788537974272413
 31
0.0
 12
39.99860892125939
 22
4.938537974272414
 32
0.0
 13
39.99860892125939
 23
4.938537974272414
 33
0.0
  0
SOLID
  5
64E3
330
607A
100
AcDbEntity
  8
0
 62
     0
370
    30
100
AcDbTrace
 10
39.97360892125939
 20
3.886037974272413
 30
0.0
 11
40.02360892125938
 21
3.886037974272413
 31
0.0
 12
39.99860892125939
 22
3.736037974272413
 32
0.0
 13
39.99860892125939
 23
3.736037974272413
 33
0.0
  0
MTEXT
  5
64E4
330
607A
100
AcDbEntity
  8
0
 62
     0
370
    30
100
AcDbMText
 10
39.99860892125939
 20
4.337287974272419
 30
0.0
 40
0.09
 41
0.0
 71
     5
 72
     1
  1
\A1;1.20" [30.54mm]
 73
     1
 44
1.0
  0
POINT
  5
64E5
330
607A
100
AcDbEntity
  8
Defpoints
 62
     0
370
    30
100
AcDbPoint
 10
41.99621914455841
 20
4.938537974272414
 30
0.0
  0
POINT
  5
64E6
330
607A
100
AcDbEntity
  8
Defpoints
 62
     0
370
    30
100
AcDbPoint
 10
41.99621914455841
 20
3.736037974272413
 30
0.0
  0
POINT
  5
64E7
330
607A
100
AcDbEntity
  8
Defpoints
 62
     0
370
    30
100
AcDbPoint
 10
39.99860892125939
 20
3.736037974272413
 30
0.0
  0
ENDBLK
  5
6086
330
607A
100
AcDbEntity
  8
0
370
    30
100
AcDbBlockEnd
  0
BLOCK
  5
63E0
330
63D5
100
AcDbEntity
  8
0
370
    30
100
AcDbBlockBegin
  2
*D77
 70
     1
 10
0.0
 20
0.0
 30
0.0
  3
*D77
  1

  0
LINE
  5
6457
330
63D5
100
AcDbEntity
  8
0
 62
     0
370
    -2
100
AcDbLine
 10
38.10029175358598
 20
8.053087316884294
 30
0.0
 11
38.10029175358598
 21
7.595783657962887
 31
0.0
  0
LINE
  5
6458
330
63D5
100
AcDbEntity
  8
0
 62
     0
370
    -2
100
AcDbLine
 10
35.55029175358597
 20
8.053087316884294
 30
0.0
 11
35.55029175358597
 21
7.595783657962887
 31
0.0
  0
LINE
  5
6459
330
63D5
100
AcDbEntity
  8
0
 62
     0
370
    -2
100
AcDbLine
 10
37.95029175358598
 20
7.645783657962887
 30
0.0
 11
37.43202931667177
 21
7.645783657962887
 31
0.0
  0
LINE
  5
645A
330
63D5
100
AcDbEntity
  8
0
 62
     0
370
    -2
100
AcDbLine
 10
35.70029175358597
 20
7.645783657962887
 30
0.0
 11
36.21855419050018
 21
7.645783657962887
 31
0.0
  0
SOLID
  5
645B
330
63D5
100
AcDbEntity
  8
0
 62
     0
370
    30
100
AcDbTrace
 10
37.95029175358598
 20
7.670783657962887
 30
0.0
 11
37.95029175358598
 21
7.620783657962887
 31
0.0
 12
38.10029175358598
 22
7.645783657962887
 32
0.0
 13
38.10029175358598
 23
7.645783657962887
 33
0.0
  0
SOLID
  5
645C
330
63D5
100
AcDbEntity
  8
0
 62
     0
370
    30
100
AcDbTrace
 10
35.70029175358597
 20
7.670783657962887
 30
0.0
 11
35.70029175358597
 21
7.620783657962887
 31
0.0
 12
35.55029175358597
 22
7.645783657962887
 32
0.0
 13
35.55029175358597
 23
7.645783657962887
 33
0.0
  0
MTEXT
  5
645D
330
63D5
100
AcDbEntity
  8
0
 62
     0
370
    30
100
AcDbMText
 10
36.82529175358598
 20
7.645783657962887
 30
0.0
 40
0.09
 41
0.0
 71
     5
 72
     1
  1
\A1;2.5500" [64.77mm]
 73
     1
 44
1.0
  0
POINT
  5
645E
330
63D5
100
AcDbEntity
  8
Defpoints
 62
     0
370
    30
100
AcDbPoint
 10
38.10029175358598
 20
8.115587316884294
 30
0.0
  0
POINT
  5
645F
330
63D5
100
AcDbEntity
  8
Defpoints
 62
     0
370
    30
100
AcDbPoint
 10
35.55029175358597
 20
8.115587316884294
 30
0.0
  0
POINT
  5
6460
330
63D5
100
AcDbEntity
  8
Defpoints
 62
     0
370
    30
100
AcDbPoint
 10
35.55029175358597
 20
7.645783657962887
 30
0.0
  0
ENDBLK
  5
63E1
330
63D5
100
AcDbEntity
  8
0
370
    30
100
AcDbBlockEnd
  0
BLOCK
  5
63ED
330
63E2
100
AcDbEntity
  8
0
370
    30
100
AcDbBlockBegin
  2
*D78
 70
     1
 10
0.0
 20
0.0
 30
0.0
  3
*D78
  1

  0
LINE
  5
652E
330
63E2
100
AcDbEntity
  8
0
 62
     0
370
    -2
100
AcDbLine
 10
38.04429857752035
 20
10.32847732531818
 30
0.0
 11
38.78170582342333
 21
10.32847732531818
 31
0.0
  0
LINE
  5
652F
330
63E2
100
AcDbEntity
  8
0
 62
     0
370
    -2
100
AcDbLine
 10
38.16279175358598
 20
8.115587316884294
 30
0.0
 11
38.78170582342333
 21
8.115587316884294
 31
0.0
  0
LINE
  5
6530
330
63E2
100
AcDbEntity
  8
0
 62
     0
370
    -2
100
AcDbLine
 10
38.73170582342333
 20
10.17847732531818
 30
0.0
 11
38.73170582342333
 21
9.372378391757331
 31
0.0
  0
LINE
  5
6531
330
63E2
100
AcDbEntity
  8
0
 62
     0
370
    -2
100
AcDbLine
 10
38.73170582342333
 20
8.265587316884294
 30
0.0
 11
38.73170582342333
 21
9.071686250445148
 31
0.0
  0
SOLID
  5
6532
330
63E2
100
AcDbEntity
  8
0
 62
     0
370
    30
100
AcDbTrace
 10
38.70670582342333
 20
10.17847732531818
 30
0.0
 11
38.75670582342333
 21
10.17847732531818
 31
0.0
 12
38.73170582342333
 22
10.32847732531818
 32
0.0
 13
38.73170582342333
 23
10.32847732531818
 33
0.0
  0
SOLID
  5
6533
330
63E2
100
AcDbEntity
  8
0
 62
     0
370
    30
100
AcDbTrace
 10
38.70670582342333
 20
8.265587316884294
 30
0.0
 11
38.75670582342333
 21
8.265587316884294
 31
0.0
 12
38.73170582342333
 22
8.115587316884294
 32
0.0
 13
38.73170582342333
 23
8.115587316884294
 33
0.0
  0
MTEXT
  5
6534
330
63E2
100
AcDbEntity
  8
0
 62
     0
370
    30
100
AcDbMText
 10
38.73170582342333
 20
9.222032321101247
 30
0.0
 40
0.09
 41
0.0
 71
     5
 72
     1
  1
\A1;2.23" (56.62mm)
 73
     1
 44
1.0
  0
POINT
  5
6535
330
63E2
100
AcDbEntity
  8
Defpoints
 62
     0
370
    30
100
AcDbPoint
 10
37.98179857752035
 20
10.32847732531818
 30
0.0
  0
POINT
  5
6536
330
63E2
100
AcDbEntity
  8
Defpoints
 62
     0
370
    30
100
AcDbPoint
 10
38.10029175358598
 20
8.115587316884294
 30
0.0
  0
POINT
  5
6537
330
63E2
100
AcDbEntity
  8
Defpoints
 62
     0
370
    30
100
AcDbPoint
 10
38.73170582342333
 20
8.115587316884294
 30
0.0
  0
ENDBLK
  5
63EE
330
63E2
100
AcDbEntity
  8
0
370
    30
100
AcDbBlockEnd
  0
BLOCK
  5
63FA
330
63EF
100
AcDbEntity
  8
0
370
    30
100
AcDbBlockBegin
  2
*D79
 70
     1
 10
0.0
 20
0.0
 30
0.0
  3
*D79
  1

  0
LINE
  5
6506
330
63EF
100
AcDbEntity
  8
0
 62
     0
370
    -2
100
AcDbLine
 10
38.10029175358598
 20
8.053087316884294
 30
0.0
 11
38.10029175358598
 21
7.865229086271875
 31
0.0
  0
LINE
  5
6507
330
63EF
100
AcDbEntity
  8
0
 62
     0
370
    -2
100
AcDbLine
 10
36.82529175358596
 20
9.444587316884305
 30
0.0
 11
36.82529175358596
 21
7.865229086271875
 31
0.0
  0
LINE
  5
6508
330
63EF
100
AcDbEntity
  8
0
 62
     0
370
    -2
100
AcDbLine
 10
38.25029175358598
 20
7.915229086271875
 30
0.0
 11
38.40029175358598
 21
7.915229086271875
 31
0.0
  0
LINE
  5
6509
330
63EF
100
AcDbEntity
  8
0
 62
     0
370
    -2
100
AcDbLine
 10
36.67529175358597
 20
7.915229086271875
 30
0.0
 11
36.52529175358596
 21
7.915229086271875
 31
0.0
  0
SOLID
  5
650A
330
63EF
100
AcDbEntity
  8
0
 62
     0
370
    30
100
AcDbTrace
 10
38.25029175358598
 20
7.940229086271875
 30
0.0
 11
38.25029175358598
 21
7.890229086271874
 31
0.0
 12
38.10029175358598
 22
7.915229086271875
 32
0.0
 13
38.10029175358598
 23
7.915229086271875
 33
0.0
  0
SOLID
  5
650B
330
63EF
100
AcDbEntity
  8
0
 62
     0
370
    30
100
AcDbTrace
 10
36.67529175358597
 20
7.940229086271875
 30
0.0
 11
36.67529175358597
 21
7.890229086271874
 31
0.0
 12
36.82529175358596
 22
7.915229086271875
 32
0.0
 13
36.82529175358596
 23
7.915229086271875
 33
0.0
  0
MTEXT
  5
650C
330
63EF
100
AcDbEntity
  8
0
 62
     0
370
    30
100
AcDbMText
 10
37.46279175358597
 20
7.915229086271875
 30
0.0
 40
0.09
 41
0.0
 71
     5
 72
     1
  1
\A1;1.27" (32.35mm)
 73
     1
 44
1.0
  0
POINT
  5
650D
330
63EF
100
AcDbEntity
  8
Defpoints
 62
     0
370
    30
100
AcDbPoint
 10
38.10029175358598
 20
8.115587316884294
 30
0.0
  0
POINT
  5
650E
330
63EF
100
AcDbEntity
  8
Defpoints
 62
     0
370
    30
100
AcDbPoint
 10
36.82529175358596
 20
9.507087316884305
 30
0.0
  0
POINT
  5
650F
330
63EF
100
AcDbEntity
  8
Defpoints
 62
     0
370
    30
100
AcDbPoint
 10
36.82529175358596
 20
7.915229086271875
 30
0.0
  0
ENDBLK
  5
63FB
330
63EF
100
AcDbEntity
  8
0
370
    30
100
AcDbBlockEnd
  0
BLOCK
  5
6407
330
63FC
100
AcDbEntity
  8
0
370
    30
100
AcDbBlockBegin
  2
*D80
 70
     1
 10
0.0
 20
0.0
 30
0.0
  3
*D80
  1

  0
LINE
  5
6510
330
63FC
100
AcDbEntity
  8
0
 62
     0
370
    -2
100
AcDbLine
 10
35.60779175358593
 20
10.3320873168843
 30
0.0
 11
34.94294061924579
 21
10.3320873168843
 31
0.0
  0
LINE
  5
6511
330
63FC
100
AcDbEntity
  8
0
 62
     0
370
    -2
100
AcDbLine
 10
36.76279175358596
 20
9.507087316884305
 30
0.0
 11
34.94294061924579
 21
9.507087316884307
 31
0.0
  0
LINE
  5
6512
330
63FC
100
AcDbEntity
  8
0
 62
     0
370
    -2
100
AcDbLine
 10
34.99294061924579
 20
10.1820873168843
 30
0.0
 11
34.99294061924579
 21
10.06993338754039
 31
0.0
  0
LINE
  5
6513
330
63FC
100
AcDbEntity
  8
0
 62
     0
370
    -2
100
AcDbLine
 10
34.99294061924579
 20
9.657087316884307
 30
0.0
 11
34.99294061924579
 21
9.769241246228215
 31
0.0
  0
SOLID
  5
6514
330
63FC
100
AcDbEntity
  8
0
 62
     0
370
    30
100
AcDbTrace
 10
34.96794061924579
 20
10.1820873168843
 30
0.0
 11
35.01794061924579
 21
10.1820873168843
 31
0.0
 12
34.99294061924579
 22
10.3320873168843
 32
0.0
 13
34.99294061924579
 23
10.3320873168843
 33
0.0
  0
SOLID
  5
6515
330
63FC
100
AcDbEntity
  8
0
 62
     0
370
    30
100
AcDbTrace
 10
34.96794061924579
 20
9.657087316884307
 30
0.0
 11
35.01794061924579
 21
9.657087316884307
 31
0.0
 12
34.99294061924579
 22
9.507087316884307
 32
0.0
 13
34.99294061924579
 23
9.507087316884307
 33
0.0
  0
MTEXT
  5
6516
330
63FC
100
AcDbEntity
  8
0
 62
     0
370
    30
100
AcDbMText
 10
34.99294061924579
 20
9.919587316884312
 30
0.0
 40
0.09
 41
0.0
 71
     5
 72
     1
  1
\A1;0.78" (19.80mm)
 73
     1
 44
1.0
  0
POINT
  5
6517
330
63FC
100
AcDbEntity
  8
Defpoints
 62
     0
370
    30
100
AcDbPoint
 10
35.67029175358593
 20
10.3320873168843
 30
0.0
  0
POINT
  5
6518
330
63FC
100
AcDbEntity
  8
Defpoints
 62
     0
370
    30
100
AcDbPoint
 10
36.82529175358596
 20
9.507087316884305
 30
0.0
  0
POINT
  5
6519
330
63FC
100
AcDbEntity
  8
Defpoints
 62
     0
370
    30
100
AcDbPoint
 10
34.99294061924579
 20
9.507087316884307
 30
0.0
  0
ENDBLK
  5
6408
330
63FC
100
AcDbEntity
  8
0
370
    30
100
AcDbBlockEnd
  0
ENDSEC
  0
SECTION
  2
ENTITIES
  0
LINE
  5
3811
330
1E
100
AcDbEntity
  8
0
  6
Continuous
370
    30
100
AcDbLine
 10
0.0
 20
0.0
 30
0.0
 11
0.0
 21
6.0
 31
0.0
  0
LINE
  5
3812
330
1E
100
AcDbEntity
  8
0
  6
Continuous
370
    30
100
AcDbLine
 10
0.0
 20
6.0
 30
0.0
 11
12.0
 21
6.0
 31
0.0
  0
LINE
  5
3813
330
1E
100
AcDbEntity
  8
0
  6
Continuous
370
    30
100
AcDbLine
 10
12.0
 20
6.0
 30
0.0
 11
12.0
 21
0.0
 31
0.0
  0
LINE
  5
3814
330
1E
100
AcDbEntity
  8
0
  6
Continuous
370
    30
100
AcDbLine
 10
12.0
 20
0.0
 30
0.0
 11
0.0
 21
0.0
 31
0.0
  0
LINE
  5
3915
330
1E
100
AcDbEntity
  8
0
  6
Continuous
370
    30
100
AcDbLine
 10
13.0
 20
0.0
 30
0.0
 11
25.0
 21
0.0
 31
0.0
  0
LINE
  5
3916
330
1E
100
AcDbEntity
  8
0
  6
Continuous
370
    30
100
AcDbLine
 10
25.0
 20
0.0
 30
0.0
 11
25.0
 21
12.0
 31
0.0
  0
LINE
  5
3917
330
1E
100
AcDbEntity
  8
0
  6
Continuous
370
    30
100
AcDbLine
 10
25.0
 20
12.0
 30
0.0
 11
13.0
 21
12.0
 31
0.0
  0
LINE
  5
3918
330
1E
100
AcDbEntity
  8
0
  6
Continuous
370
    30
100
AcDbLine
 10
13.0
 20
12.0
 30
0.0
 11
13.0
 21
0.0
 31
0.0
  0
LINE
  5
3922
330
1E
100
AcDbEntity
  8
Viewport Layer
  6
Continuous
370
    30
100
AcDbLine
 10
26.0
 20
8.5
 30
0.0
 11
26.00000000158828
 21
0.0000000059643366
 31
0.0
  0
LINE
  5
3923
330
1E
100
AcDbEntity
  8
Viewport Layer
  6
Continuous
370
    30
100
AcDbLine
 10
42.0
 20
0.0
 30
0.0
 11
42.0
 21
8.5
 31
0.0
  0
LINE
  5
3924
330
1E
100
AcDbEntity
  8
Viewport Layer
  6
Continuous
370
    30
100
AcDbLine
 10
26.00000000158828
 20
0.0000000059643366
 30
0.0
 11
42.0
 21
0.0
 31
0.0
  0
LINE
  5
3925
330
1E
100
AcDbEntity
  8
Viewport Layer
  6
Continuous
370
    30
100
AcDbLine
 10
42.0
 20
8.5
 30
0.0
 11
26.0
 21
8.5
 31
0.0
  0
MTEXT
  5
3926
330
1E
100
AcDbEntity
  8
0
  6
Continuous
370
    30
100
AcDbMText
 10
0.0
 20
-0.1
 30
0.0
 40
0.2
 41
2.6
 71
     1
 72
     5
  1
{\fCourier New|b0|i0|c0|p49;Page 1 Space}
 73
     1
 44
1.0
  0
MTEXT
  5
392D
330
1E
100
AcDbEntity
  8
0
  6
Continuous
370
    30
100
AcDbMText
 10
13.0
 20
-0.1
 30
0.0
 40
0.2
 41
4.5
 71
     1
 72
     5
  1
{\fCourier New|b0|i0|c0|p49;Page 2 Portrait Space}
 73
     1
 44
1.0
  0
MTEXT
  5
3B5F
330
1E
100
AcDbEntity
  8
Viewport Layer
  6
Continuous
370
    30
100
AcDbMText
 10
26.0
 20
-0.1
 30
0.0
 40
0.2
 41
4.700000000000002
 71
     1
 72
     5
  1
{\fCourier New|b0|i0|c0|p49;Page 2 Landscape Space}
 73
     1
 44
1.0
  0
MTEXT
  5
3DCF
330
1E
100
AcDbEntity
  8
0
  6
Continuous
100
AcDbMText
 10
33.34921979301771
 20
1.849136723317599
 30
0.0
 40
0.18
 41
0.0
 71
     6
 72
     1
  1

 73
     1
 44
1.0
  0
MTEXT
  5
3F15
330
1E
100
AcDbEntity
  8
0
370
    30
100
AcDbMText
 10
40.50932256815213
 20
13.34981862052706
 30
0.0
 40
0.18
 41
0.0
 71
     9
 72
     1
  1

 73
     1
 44
1.0
  0
DIMENSION
  5
503D
330
1E
100
AcDbEntity
  8
0
  6
Continuous
370
    30
100
AcDbDimension
  2
*D35
 10
36.20304175358596
 20
13.54362138523409
 30
0.0
 11
39.67586673250583
 21
13.54362138523409
 31
0.0
 70
   160
  1
1.25" [31.75mm]
 71
     5
 42
1.244500000000002
  3
DIM STYLE 1
100
AcDbAlignedDimension
 13
37.44754175358596
 23
10.56245741292961
 33
0.0
 14
36.20304175358596
 24
10.56008731688431
 34
0.0
 50
180.0
100
AcDbRotatedDimension
  0
DIMENSION
  5
518A
330
1E
100
AcDbEntity
  8
0
100
AcDbDimension
  2
*D51
 10
36.52735949730871
 20
13.25283391953995
 30
0.0
 11
34.36063274893092
 21
13.25283391953995
 31
0.0
 70
   160
  1
I.D. 0.60" [15.24mm]
 71
     5
 42
0.5958645125545275
  3
DIM STYLE 1
100
AcDbAlignedDimension
 13
37.12322400986323
 23
12.98263974828525
 33
0.0
 14
36.52735949730871
 24
12.98263974828528
 34
0.0
 50
180.0
100
AcDbRotatedDimension
  0
LINE
  5
518B
102
{ACAD_REACTORS
330
5194
102
}
330
1E
100
AcDbEntity
  8
0
100
AcDbLine
 10
37.12557476470225
 20
12.43361529310842
 30
0.0
 11
36.52853487472822
 21
12.43361529310842
 31
0.0
  0
LINE
  5
518C
330
1E
100
AcDbEntity
  8
0
100
AcDbLine
 10
37.61485985461345
 20
11.83963216056221
 30
0.0
 11
36.8430815851924
 21
12.19744886684529
 31
0.0
  0
LINE
  5
518D
330
1E
100
AcDbEntity
  8
0
100
AcDbLine
 10
37.60629016273085
 20
11.64695470242077
 30
0.0
 11
36.86746536816016
 21
11.99350993836239
 31
0.0
  0
LINE
  5
5190
102
{ACAD_REACTORS
330
5194
102
}
330
1E
100
AcDbEntity
  8
0
100
AcDbLine
 10
37.12439938728273
 20
12.67861529310841
 30
0.0
 11
36.52853487472824
 21
12.67861529310841
 31
0.0
  0
LINE
  5
5191
102
{ACAD_REACTORS
330
5194
102
}
330
1E
100
AcDbEntity
  8
0
100
AcDbLine
 10
37.12439938728273
 20
12.78361529310842
 30
0.0
 11
36.52853487472823
 21
12.78361529310842
 31
0.0
  0
LINE
  5
5192
102
{ACAD_REACTORS
330
5194
102
}
330
1E
100
AcDbEntity
  8
0
100
AcDbLine
 10
37.12557476470225
 20
12.53861529310841
 30
0.0
 11
36.52853487472822
 21
12.53861529310841
 31
0.0
  0
LINE
  5
5193
330
1E
100
AcDbEntity
  8
0
100
AcDbLine
 10
37.26868806849906
 20
12.97861529310842
 30
0.0
 11
36.38189543867286
 21
12.97861529310842
 31
0.0
  0
HATCH
  5
5194
330
1E
100
AcDbEntity
  8
0
  6
Continuous
370
    30
100
AcDbHatch
 10
0.0
 20
0.0
 30
0.0
210
0.0
220
0.0
230
1.0
  2
SOLID
 70
     1
 71
     1
 91
        2
 92
        7
 72
     0
 73
     1
 93
        4
 10
36.60029175358594
 20
12.53861529310841
 10
36.60029175358593
 20
12.43361529310842
 10
37.05029175358594
 20
12.43361529310841
 10
37.05029175358594
 20
12.53861529310841
 97
        4
330
518B
330
51AB
330
5192
330
51A0
 92
        7
 72
     0
 73
     1
 93
        4
 10
36.60029175358594
 20
12.78361529310842
 10
36.60029175358594
 20
12.67861529310841
 10
37.05029175358595
 20
12.67861529310841
 10
37.05029175358594
 20
12.78361529310842
 97
        4
330
5190
330
51A6
330
5191
330
519E
 75
     0
 76
     1
 47
0.0042552825050623
 98
        2
 10
36.93236525365803
 20
12.49889143268327
 10
36.92810687541959
 20
12.75846364742364
  0
LINE
  5
5195
330
1E
100
AcDbEntity
  8
0
100
AcDbLine
 10
36.38189543867286
 20
12.0731939586268
 30
0.0
 11
36.38189543867286
 21
11.5145873168843
 31
0.0
  0
LINE
  5
5196
330
1E
100
AcDbEntity
  8
0
100
AcDbLine
 10
36.86746536816016
 20
11.99350993836239
 30
0.0
 11
36.86746536816016
 21
11.84676898193712
 31
0.0
  0
LINE
  5
5197
330
1E
100
AcDbEntity
  8
0
100
AcDbLine
 10
36.86746536816016
 20
11.84676898193712
 30
0.0
 11
36.09374253766665
 21
12.20786021622396
 31
0.0
  0
LINE
  5
5198
330
1E
100
AcDbEntity
  8
0
100
AcDbLine
 10
36.8430815851924
 20
12.05070791042001
 30
0.0
 11
36.09374253766665
 21
12.40053767436541
 31
0.0
  0
LINE
  5
519A
330
1E
100
AcDbEntity
  8
0
100
AcDbLine
 10
36.8430815851924
 20
12.19744886684529
 30
0.0
 11
36.8430815851924
 21
12.05070791042001
 31
0.0
  0
LINE
  5
519C
330
1E
100
AcDbEntity
  8
0
  6
Continuous
370
    30
100
AcDbLine
 10
36.52853487472823
 20
12.78361529310842
 30
0.0
 11
36.52853487472824
 21
12.67861529310841
 31
0.0
  0
LINE
  5
519E
102
{ACAD_REACTORS
330
5194
102
}
330
1E
100
AcDbEntity
  8
0
  6
Continuous
370
    30
100
AcDbLine
 10
36.60029175358594
 20
12.78361529310842
 30
0.0
 11
36.60029175358594
 21
12.67861529310841
 31
0.0
  0
LINE
  5
519F
330
1E
100
AcDbEntity
  8
0
100
AcDbLine
 10
36.38189543867286
 20
12.97861529310842
 30
0.0
 11
36.38189543867286
 21
12.26576254237707
 31
0.0
  0
LINE
  5
51A0
102
{ACAD_REACTORS
330
5194
102
}
330
1E
100
AcDbEntity
  8
0
  6
Continuous
370
    30
100
AcDbLine
 10
36.60029175358594
 20
12.53861529310841
 30
0.0
 11
36.60029175358594
 21
12.43361529310842
 31
0.0
  0
LINE
  5
51A1
330
1E
100
AcDbEntity
  8
0
  6
Continuous
370
    30
100
AcDbLine
 10
36.52853487472823
 20
12.53861529310841
 30
0.0
 11
36.52853487472826
 21
12.43361529310842
 31
0.0
  0
LINE
  5
51A2
330
1E
100
AcDbEntity
  8
0
100
AcDbLine
 10
37.26868806849906
 20
11.5145873168843
 30
0.0
 11
37.26868806849903
 21
11.80641672056879
 31
0.0
  0
LINE
  5
51A3
330
1E
100
AcDbEntity
  8
0
100
AcDbLine
 10
37.26868806849903
 20
11.80641672056879
 30
0.0
 11
37.26868806849906
 21
11.5145873168843
 31
0.0
  0
LINE
  5
51A6
102
{ACAD_REACTORS
330
5194
102
}
330
1E
100
AcDbEntity
  8
0
  6
Continuous
370
    30
100
AcDbLine
 10
37.05029175358594
 20
12.78361529310842
 30
0.0
 11
37.05029175358594
 21
12.67861529310841
 31
0.0
  0
LINE
  5
51A7
330
1E
100
AcDbEntity
  8
0
  6
Continuous
370
    30
100
AcDbLine
 10
37.12439938728273
 20
12.78361529310842
 30
0.0
 11
37.12439938728273
 21
12.67861529310841
 31
0.0
  0
LINE
  5
51A9
330
1E
100
AcDbEntity
  8
0
100
AcDbLine
 10
37.26868806849903
 20
12.97861529310839
 30
0.0
 11
37.26868806849903
 21
12.48805132964605
 31
0.0
  0
LINE
  5
51AA
330
1E
100
AcDbEntity
  8
0
100
AcDbLine
 10
37.26868806849904
 20
11.99898530431898
 30
0.0
 11
37.26868806849903
 21
12.97861529310839
 31
0.0
  0
LINE
  5
51AB
102
{ACAD_REACTORS
330
5194
102
}
330
1E
100
AcDbEntity
  8
0
  6
Continuous
370
    30
100
AcDbLine
 10
37.05029175358594
 20
12.53861529310841
 30
0.0
 11
37.05029175358594
 21
12.43361529310842
 31
0.0
  0
LINE
  5
51AC
330
1E
100
AcDbEntity
  8
0
  6
Continuous
370
    30
100
AcDbLine
 10
37.12439938728273
 20
12.53861529310841
 30
0.0
 11
37.12439938728273
 21
12.43361529310842
 31
0.0
  0
LINE
  5
558C
330
1E
100
AcDbEntity
  8
0
  6
Continuous
370
    30
100
AcDbLine
 10
35.55029175358596
 20
5.892287974272733
 30
0.0
 11
35.55029175358596
 21
2.782287974272733
 31
0.0
  0
LINE
  5
558D
330
1E
100
AcDbEntity
  8
0
  6
Continuous
370
    30
100
AcDbLine
 10
35.84529175358596
 20
2.487287974272735
 30
0.0
 11
37.80529175358596
 21
2.487287974272739
 31
0.0
  0
LINE
  5
558E
330
1E
100
AcDbEntity
  8
0
  6
Continuous
370
    30
100
AcDbLine
 10
38.10029175358597
 20
2.78228797427274
 30
0.0
 11
38.10029175358597
 21
5.892287974272733
 31
0.0
  0
LINE
  5
558F
330
1E
100
AcDbEntity
  8
0
  6
Continuous
370
    30
100
AcDbLine
 10
37.80529175358599
 20
6.187287974272734
 30
0.0
 11
35.84529175358596
 21
6.187287974272731
 31
0.0
  0
ARC
  5
5590
330
1E
100
AcDbEntity
  8
0
  6
Continuous
370
    30
100
AcDbCircle
 10
37.80529175358599
 20
5.892287974272736
 30
0.0
 40
0.295
100
AcDbArc
 50
359.9999999999997
 51
90.0
  0
ARC
  5
5591
330
1E
100
AcDbEntity
  8
0
  6
Continuous
370
    30
100
AcDbCircle
 10
35.84529175358596
 20
5.892287974272733
 30
0.0
 40
0.295
100
AcDbArc
 50
90.0
 51
180.0
  0
ARC
  5
5592
330
1E
100
AcDbEntity
  8
0
  6
Continuous
370
    30
100
AcDbCircle
 10
35.84529175358596
 20
2.782287974272733
 30
0.0
 40
0.295
100
AcDbArc
 50
180.0
 51
270.0
  0
ARC
  5
5593
330
1E
100
AcDbEntity
  8
0
  6
Continuous
370
    30
100
AcDbCircle
 10
37.80529175358596
 20
2.78228797427274
 30
0.0
 40
0.295
100
AcDbArc
 50
270.0
 51
359.9999999999996
  0
LINE
  5
55D6
330
1E
100
AcDbEntity
  8
0
370
    30
100
AcDbLine
 10
37.37529175358598
 20
2.487287974272735
 30
0.0
 11
36.27529175358597
 21
2.487287974272735
 31
0.0
  0
DIMENSION
  5
55D7
330
1E
100
AcDbEntity
  8
0
370
    30
100
AcDbDimension
  2
*D52
 10
35.55029175358597
 20
7.624283657962887
 30
0.0
 11
36.82529175358598
 21
7.624283657962887
 31
0.0
 70
    32
 71
     5
 42
2.550000000000018
  3
DIM STYLE 1
100
AcDbAlignedDimension
 13
38.10029175358599
 23
8.115587316884294
 33
0.0
 14
35.55029175358597
 24
8.115587316884294
 34
0.0
100
AcDbRotatedDimension
  0
CIRCLE
  5
55D8
330
1E
100
AcDbEntity
  8
0
370
    30
100
AcDbCircle
 10
37.80529175358596
 20
2.78228797427274
 30
0.0
 40
0.2
  0
CIRCLE
  5
55D9
330
1E
100
AcDbEntity
  8
0
370
    30
100
AcDbCircle
 10
37.80529175358599
 20
5.892287974272736
 30
0.0
 40
0.2
  0
CIRCLE
  5
55DA
330
1E
100
AcDbEntity
  8
0
370
    30
100
AcDbCircle
 10
35.84529175358596
 20
5.892287974272733
 30
0.0
 40
0.2
  0
CIRCLE
  5
55DB
330
1E
100
AcDbEntity
  8
0
370
    30
100
AcDbCircle
 10
35.84529175358596
 20
2.782287974272733
 30
0.0
 40
0.2
  0
ARC
  5
55DC
330
1E
100
AcDbEntity
  8
0
370
    30
100
AcDbCircle
 10
37.80529175358596
 20
2.78228797427274
 30
0.0
 40
0.275
100
AcDbArc
 50
90.0
 51
180.0
  0
ARC
  5
55DD
330
1E
100
AcDbEntity
  8
0
370
    30
100
AcDbCircle
 10
37.80529175358599
 20
5.892287974272736
 30
0.0
 40
0.275
100
AcDbArc
 50
180.0
 51
270.0
  0
ARC
  5
55DE
330
1E
100
AcDbEntity
  8
0
370
    30
100
AcDbCircle
 10
35.84529175358596
 20
5.892287974272733
 30
0.0
 40
0.275
100
AcDbArc
 50
270.0
 51
0.0
  0
ARC
  5
55DF
330
1E
100
AcDbEntity
  8
0
370
    30
100
AcDbCircle
 10
35.84529175358596
 20
2.782287974272733
 30
0.0
 40
0.275
100
AcDbArc
 50
0.0000000000022391
 51
90.0
  0
LINE
  5
55E0
330
1E
100
AcDbEntity
  8
0
  6
Continuous
370
    30
100
AcDbLine
 10
37.98529175358597
 20
3.119787974272739
 30
0.0
 11
37.98529175358599
 21
5.554787974272734
 31
0.0
  0
LINE
  5
55E1
330
1E
100
AcDbEntity
  8
0
  6
Continuous
370
    30
100
AcDbLine
 10
36.18279175358597
 20
2.602287974272737
 30
0.0
 11
37.46779175358597
 21
2.602287974272737
 31
0.0
  0
LINE
  5
55E2
330
1E
100
AcDbEntity
  8
0
  6
Continuous
370
    30
100
AcDbLine
 10
35.66529175358597
 20
5.554787974272731
 30
0.0
 11
35.66529175358597
 21
3.119787974272735
 31
0.0
  0
LINE
  5
55E3
330
1E
100
AcDbEntity
  8
0
  6
Continuous
370
    30
100
AcDbLine
 10
37.46779175358598
 20
6.07228797427274
 30
0.0
 11
36.18279175358596
 21
6.072287974272732
 31
0.0
  0
LINE
  5
55E4
330
1E
100
AcDbEntity
  8
0
370
    30
100
AcDbLine
 10
37.53029175358598
 20
6.00978797427274
 30
0.0
 11
37.53029175358598
 21
5.892287974272736
 31
0.0
  0
LINE
  5
55E5
330
1E
100
AcDbEntity
  8
0
370
    30
100
AcDbLine
 10
37.92279175358599
 20
5.617287974272734
 30
0.0
 11
37.80529175358599
 21
5.617287974272738
 31
0.0
  0
LINE
  5
55E6
330
1E
100
AcDbEntity
  8
0
370
    30
100
AcDbLine
 10
36.12029175358596
 20
6.009787974272732
 30
0.0
 11
36.12029175358596
 21
5.892287974272729
 31
0.0
  0
LINE
  5
55E7
330
1E
100
AcDbEntity
  8
0
370
    30
100
AcDbLine
 10
35.72779175358597
 20
5.617287974272731
 30
0.0
 11
35.84529175358596
 21
5.617287974272734
 31
0.0
  0
LINE
  5
55E8
330
1E
100
AcDbEntity
  8
0
370
    30
100
AcDbLine
 10
37.92279175358597
 20
3.057287974272739
 30
0.0
 11
37.80529175358596
 21
3.057287974272739
 31
0.0
  0
LINE
  5
55E9
330
1E
100
AcDbEntity
  8
0
370
    30
100
AcDbLine
 10
37.53029175358597
 20
2.664787974272737
 30
0.0
 11
37.53029175358597
 21
2.78228797427274
 31
0.0
  0
LINE
  5
55EA
330
1E
100
AcDbEntity
  8
0
370
    30
100
AcDbLine
 10
35.72779175358597
 20
3.057287974272735
 30
0.0
 11
35.84529175358596
 21
3.057287974272735
 31
0.0
  0
LINE
  5
55EB
330
1E
100
AcDbEntity
  8
0
370
    30
100
AcDbLine
 10
36.12029175358597
 20
2.664787974272734
 30
0.0
 11
36.12029175358596
 21
2.782287974272737
 31
0.0
  0
ARC
  5
55EC
330
1E
100
AcDbEntity
  8
0
370
    30
100
AcDbCircle
 10
36.18279175358596
 20
6.009787974272732
 30
0.0
 40
0.0625
100
AcDbArc
 50
90.0
 51
180.0
  0
ARC
  5
55ED
330
1E
100
AcDbEntity
  8
0
370
    30
100
AcDbCircle
 10
37.46779175358598
 20
6.00978797427274
 30
0.0
 40
0.0625
100
AcDbArc
 50
0.0
 51
90.0
  0
ARC
  5
55EE
330
1E
100
AcDbEntity
  8
0
370
    30
100
AcDbCircle
 10
37.92279175358599
 20
5.554787974272734
 30
0.0
 40
0.0625
100
AcDbArc
 50
359.9999999999996
 51
90.0
  0
ARC
  5
55EF
330
1E
100
AcDbEntity
  8
0
370
    30
100
AcDbCircle
 10
37.92279175358597
 20
3.119787974272739
 30
0.0
 40
0.0625
100
AcDbArc
 50
270.0
 51
359.9999999999993
  0
ARC
  5
55F0
330
1E
100
AcDbEntity
  8
0
370
    30
100
AcDbCircle
 10
37.46779175358597
 20
2.664787974272737
 30
0.0
 40
0.0625
100
AcDbArc
 50
270.0
 51
0.0
  0
ARC
  5
55F1
330
1E
100
AcDbEntity
  8
0
370
    30
100
AcDbCircle
 10
36.18279175358597
 20
2.664787974272737
 30
0.0
 40
0.0625
100
AcDbArc
 50
180.0000000000022
 51
270.0
  0
ARC
  5
55F2
330
1E
100
AcDbEntity
  8
0
370
    30
100
AcDbCircle
 10
35.72779175358597
 20
3.119787974272735
 30
0.0
 40
0.0625
100
AcDbArc
 50
180.0
 51
269.9999999999996
  0
ARC
  5
55F3
330
1E
100
AcDbEntity
  8
0
370
    30
100
AcDbCircle
 10
35.72779175358597
 20
5.554787974272731
 30
0.0
 40
0.0625
100
AcDbArc
 50
90.00000000000081
 51
180.0
  0
LINE
  5
55F4
330
1E
100
AcDbEntity
  8
0
370
    30
100
AcDbLine
 10
36.10426810385757
 20
5.799787974272735
 30
0.0
 11
37.54631540331438
 21
5.799787974272746
 31
0.0
  0
LINE
  5
55F5
330
1E
100
AcDbEntity
  8
0
370
    30
100
AcDbLine
 10
36.10426810385757
 20
2.874787974272738
 30
0.0
 11
37.54631540331436
 21
2.874787974272738
 31
0.0
  0
LINE
  5
55F6
330
1E
100
AcDbEntity
  8
0
370
    30
100
AcDbLine
 10
37.71279175358599
 20
5.633311624001134
 30
0.0
 11
37.71279175358599
 21
3.041264324544346
 31
0.0
  0
LINE
  5
55F7
330
1E
100
AcDbEntity
  8
0
370
    30
100
AcDbLine
 10
35.93779175358597
 20
3.041264324544336
 30
0.0
 11
35.93779175358597
 21
5.633311624001134
 31
0.0
  0
MTEXT
  5
560D
330
1E
100
AcDbEntity
  8
0
370
    30
100
AcDbMText
 10
35.12011555171034
 20
7.00367177084967
 30
0.0
 40
0.2
 41
3.3744
 71
     1
 72
     5
  1
{\fTimes New Roman|b1|i0|c0|p18;Front View, No Cover:}
 73
     1
 44
1.0
  0
MTEXT
  5
560F
330
1E
100
AcDbEntity
  8
0
370
    30
100
AcDbMText
 10
40.77335567954008
 20
7.038591820444782
 30
0.0
 40
0.2
 41
3.3744
 71
     1
 72
     5
  1
{\fTimes New Roman|b1|i0|c0|p18;Side View:}
 73
     1
 44
1.0
  0
LINE
  5
5610
330
1E
100
AcDbEntity
  8
0
  6
Continuous
370
    30
100
AcDbLine
 10
36.33529175358596
 20
6.072287974272736
 30
0.0
 11
37.31529175358597
 21
6.072287974272736
 31
0.0
  0
ARC
  5
5A79
330
1E
100
AcDbEntity
  8
0
100
AcDbCircle
 10
37.21417558131164
 20
4.698854522135443
 30
0.0
 40
0.031
100
AcDbArc
 50
150.0000000000045
 51
222.9152864216192
  0
ARC
  5
5A7A
330
1E
100
AcDbEntity
  8
0
100
AcDbCircle
 10
36.43640792586033
 20
4.698854522135444
 30
0.0
 40
0.031
100
AcDbArc
 50
317.0847135783798
 51
30.00000000000131
  0
ARC
  5
5A7B
330
1E
100
AcDbEntity
  8
0
100
AcDbCircle
 10
36.82529175358598
 20
4.33728797427274
 30
0.0
 40
0.5
100
AcDbArc
 50
137.0847135783797
 51
162.9152864216199
  0
ARC
  5
5A7C
330
1E
100
AcDbEntity
  8
0
100
AcDbCircle
 10
36.82529175358598
 20
4.33728797427274
 30
0.0
 40
0.5
100
AcDbArc
 50
17.08471357838005
 51
42.9152864216202
  0
CIRCLE
  5
5A7D
330
1E
100
AcDbEntity
  8
0
100
AcDbCircle
 10
36.82529175358598
 20
4.33728797427274
 30
0.0
 40
0.385
  0
CIRCLE
  5
5A7E
330
1E
100
AcDbEntity
  8
0
100
AcDbCircle
 10
36.82529175358598
 20
4.33728797427274
 30
0.0
 40
0.41
  0
LINE
  5
5A80
330
1E
100
AcDbEntity
  8
0
100
AcDbLine
 10
36.70076592935461
 20
3.850165998038855
 30
0.0
 11
36.56590978637234
 21
3.928025228491545
 31
0.0
  0
LINE
  5
5A81
330
1E
100
AcDbEntity
  8
0
100
AcDbLine
 10
36.44964498457349
 20
3.904648684643994
 30
0.0
 11
36.63843852259848
 21
3.795648684643991
 31
0.0
  0
ARC
  5
5A82
330
1E
100
AcDbEntity
  8
0
100
AcDbCircle
 10
36.27879175358598
 20
4.44628797427274
 30
0.0
 40
0.016
100
AcDbArc
 50
90.0
 51
180.0
  0
ARC
  5
5A83
330
1E
100
AcDbEntity
  8
0
100
AcDbCircle
 10
36.27879175358598
 20
4.22828797427274
 30
0.0
 40
0.016
100
AcDbArc
 50
180.0
 51
270.0
  0
ARC
  5
5A84
330
1E
100
AcDbEntity
  8
0
100
AcDbCircle
 10
36.45764498457349
 20
3.918505091104545
 30
0.0
 40
0.016
100
AcDbArc
 50
150.0000000000033
 51
239.9999999999985
  0
ARC
  5
5A85
330
1E
100
AcDbEntity
  8
0
100
AcDbCircle
 10
36.31772402411541
 20
4.493287974272741
 30
0.0
 40
0.031
100
AcDbArc
 50
270.0
 51
342.9152864216205
  0
ARC
  5
5A86
330
1E
100
AcDbEntity
  8
0
100
AcDbCircle
 10
36.31772402411541
 20
4.18128797427274
 30
0.0
 40
0.031
100
AcDbArc
 50
17.08471357837945
 51
90.0
  0
ARC
  5
5A87
330
1E
100
AcDbEntity
  8
0
100
AcDbCircle
 10
36.43640792586033
 20
3.975721426410032
 30
0.0
 40
0.031
100
AcDbArc
 50
329.9999999999985
 51
42.91528642161832
  0
ARC
  5
5A88
330
1E
100
AcDbEntity
  8
0
100
AcDbCircle
 10
36.82529175358598
 20
4.33728797427274
 30
0.0
 40
0.5
100
AcDbArc
 50
197.08471357838
 51
222.9152864216213
  0
LINE
  5
5A89
330
1E
100
AcDbEntity
  8
0
100
AcDbLine
 10
36.5267212455103
 20
3.860148684643995
 30
0.0
 11
36.56590978637234
 21
3.928025228491543
 31
0.0
  0
LINE
  5
5A8A
330
1E
100
AcDbEntity
  8
0
100
AcDbLine
 10
36.44378857811293
 20
3.926505091104544
 30
0.0
 11
36.46325471337764
 21
3.960221426410036
 31
0.0
  0
LINE
  5
5A8B
330
1E
100
AcDbEntity
  8
0
100
AcDbLine
 10
36.34116883531005
 20
4.201569513367381
 30
0.0
 11
36.34116883531005
 21
4.35728797427274
 31
0.0
  0
LINE
  5
5A8C
330
1E
100
AcDbEntity
  8
0
100
AcDbLine
 10
36.26279175358599
 20
4.35728797427274
 30
0.0
 11
36.34116883531005
 21
4.35728797427274
 31
0.0
  0
LINE
  5
5A8D
330
1E
100
AcDbEntity
  8
0
100
AcDbLine
 10
36.27879175358598
 20
4.46228797427274
 30
0.0
 11
36.31772402411541
 21
4.46228797427274
 31
0.0
  0
LINE
  5
5A8E
330
1E
100
AcDbEntity
  8
0
100
AcDbLine
 10
36.27879175358598
 20
4.21228797427274
 30
0.0
 11
36.31772402411541
 21
4.21228797427274
 31
0.0
  0
LINE
  5
5A8F
330
1E
100
AcDbEntity
  8
0
100
AcDbLine
 10
36.26279175358599
 20
4.44628797427274
 30
0.0
 11
36.26279175358599
 21
4.22828797427274
 31
0.0
  0
ARC
  5
5A90
330
1E
100
AcDbEntity
  8
0
100
AcDbCircle
 10
37.19293852259848
 20
3.918505091104544
 30
0.0
 40
0.016
100
AcDbArc
 50
300.0000000000004
 51
29.99999999999665
  0
ARC
  5
5A91
330
1E
100
AcDbEntity
  8
0
100
AcDbCircle
 10
36.82529175358598
 20
4.33728797427274
 30
0.0
 40
0.5
100
AcDbArc
 50
317.0847135783797
 51
342.9152864216199
  0
ARC
  5
5A92
330
1E
100
AcDbEntity
  8
0
100
AcDbCircle
 10
36.64643852259848
 20
3.809505091104542
 30
0.0
 40
0.016
100
AcDbArc
 50
239.9999999999995
 51
330.0000000000042
  0
ARC
  5
5A93
330
1E
100
AcDbEntity
  8
0
100
AcDbCircle
 10
37.00414498457348
 20
3.809505091104544
 30
0.0
 40
0.016
100
AcDbArc
 50
209.999999999997
 51
299.9999999999999
  0
ARC
  5
5A94
330
1E
100
AcDbEntity
  8
0
100
AcDbCircle
 10
36.70660785184107
 20
3.819721426410039
 30
0.0
 40
0.031
100
AcDbArc
 50
77.08471357837615
 51
150.0000000000045
  0
ARC
  5
5A95
330
1E
100
AcDbEntity
  8
0
100
AcDbCircle
 10
36.9439756553309
 20
3.81972142641004
 30
0.0
 40
0.031
100
AcDbArc
 50
29.99999999999639
 51
102.9152864216238
  0
ARC
  5
5A96
330
1E
100
AcDbEntity
  8
0
100
AcDbCircle
 10
37.21417558131164
 20
3.975721426410036
 30
0.0
 40
0.031
100
AcDbArc
 50
137.0847135783804
 51
210.000000000002
  0
ARC
  5
5A97
330
1E
100
AcDbEntity
  8
0
100
AcDbCircle
 10
36.82529175358598
 20
4.33728797427274
 30
0.0
 40
0.5
100
AcDbArc
 50
257.0847135783799
 51
282.9152864216208
  0
LINE
  5
5A98
330
1E
100
AcDbEntity
  8
0
100
AcDbLine
 10
37.18488884763051
 20
3.985884458944209
 30
0.0
 11
37.05003270464827
 21
3.908025228491531
 31
0.0
  0
LINE
  5
5A99
330
1E
100
AcDbEntity
  8
0
100
AcDbLine
 10
37.20679492905904
 20
3.926505091104543
 30
0.0
 11
37.18732879379432
 21
3.960221426410036
 31
0.0
  0
LINE
  5
5A9A
330
1E
100
AcDbEntity
  8
0
100
AcDbLine
 10
37.01214498457348
 20
3.795648684643992
 30
0.0
 11
37.20093852259849
 21
3.904648684643992
 31
0.0
  0
LINE
  5
5A9B
330
1E
100
AcDbEntity
  8
0
100
AcDbLine
 10
37.0892212455103
 20
3.840148684643995
 30
0.0
 11
37.05003270464827
 21
3.90802522849153
 31
0.0
  0
LINE
  5
5A9C
330
1E
100
AcDbEntity
  8
0
100
AcDbLine
 10
36.99028857811293
 20
3.801505091104544
 30
0.0
 11
36.97082244284822
 21
3.835221426410036
 31
0.0
  0
LINE
  5
5A9D
330
1E
100
AcDbEntity
  8
0
100
AcDbLine
 10
36.66029492905904
 20
3.801505091104543
 30
0.0
 11
36.67976106432375
 21
3.835221426410038
 31
0.0
  0
ARC
  5
5A9E
330
1E
100
AcDbEntity
  8
0
100
AcDbCircle
 10
37.37179175358599
 20
4.22828797427274
 30
0.0
 40
0.016
100
AcDbArc
 50
269.9999999999996
 51
0.0
  0
ARC
  5
5A9F
330
1E
100
AcDbEntity
  8
0
100
AcDbCircle
 10
37.37179175358599
 20
4.44628797427274
 30
0.0
 40
0.016
100
AcDbArc
 50
0.0
 51
90.0
  0
ARC
  5
5AA0
330
1E
100
AcDbEntity
  8
0
100
AcDbCircle
 10
37.33285948305656
 20
4.493287974272741
 30
0.0
 40
0.031
100
AcDbArc
 50
197.0847135783794
 51
270.0
  0
ARC
  5
5AA1
330
1E
100
AcDbEntity
  8
0
100
AcDbCircle
 10
37.33285948305656
 20
4.18128797427274
 30
0.0
 40
0.031
100
AcDbArc
 50
90.0
 51
162.9152864216212
  0
LINE
  5
5AA2
330
1E
100
AcDbEntity
  8
0
100
AcDbLine
 10
37.30941467186191
 20
4.473006435178099
 30
0.0
 11
37.30941467186191
 21
4.317287974272741
 31
0.0
  0
LINE
  5
5AA3
330
1E
100
AcDbEntity
  8
0
100
AcDbLine
 10
37.37179175358599
 20
4.46228797427274
 30
0.0
 11
37.33285948305656
 21
4.46228797427274
 31
0.0
  0
LINE
  5
5AA4
330
1E
100
AcDbEntity
  8
0
100
AcDbLine
 10
37.38779175358598
 20
4.22828797427274
 30
0.0
 11
37.38779175358598
 21
4.44628797427274
 31
0.0
  0
LINE
  5
5AA5
330
1E
100
AcDbEntity
  8
0
100
AcDbLine
 10
37.38779175358598
 20
4.317287974272741
 30
0.0
 11
37.30941467186191
 21
4.317287974272741
 31
0.0
  0
LINE
  5
5AA6
330
1E
100
AcDbEntity
  8
0
100
AcDbLine
 10
37.37179175358599
 20
4.21228797427274
 30
0.0
 11
37.33285948305656
 21
4.21228797427274
 31
0.0
  0
LINE
  5
5AA7
330
1E
100
AcDbEntity
  8
0
100
AcDbLine
 10
36.63843852259849
 20
4.87892726390149
 30
0.0
 11
36.44964498457349
 21
4.769927263901488
 31
0.0
  0
ARC
  5
5AA8
330
1E
100
AcDbEntity
  8
0
100
AcDbCircle
 10
36.45764498457349
 20
4.756070857440937
 30
0.0
 40
0.016
100
AcDbArc
 50
120.0000000000004
 51
209.9999999999965
  0
LINE
  5
5AA9
330
1E
100
AcDbEntity
  8
0
100
AcDbLine
 10
36.46569465954145
 20
4.688691489601268
 30
0.0
 11
36.6005508025237
 21
4.766550720053952
 31
0.0
  0
LINE
  5
5AAA
330
1E
100
AcDbEntity
  8
0
100
AcDbLine
 10
36.44378857811293
 20
4.748070857440938
 30
0.0
 11
36.46325471337764
 21
4.714354522135444
 31
0.0
  0
LINE
  5
5AAB
330
1E
100
AcDbEntity
  8
0
100
AcDbLine
 10
36.56136226166167
 20
4.834427263901488
 30
0.0
 11
36.60055080252371
 21
4.766550720053952
 31
0.0
  0
ARC
  5
5AAC
330
1E
100
AcDbEntity
  8
0
100
AcDbCircle
 10
37.19293852259849
 20
4.756070857440938
 30
0.0
 40
0.016
100
AcDbArc
 50
329.9999999999972
 51
59.999999999999
  0
ARC
  5
5AAD
330
1E
100
AcDbEntity
  8
0
100
AcDbCircle
 10
37.00414498457348
 20
4.865070857440937
 30
0.0
 40
0.016
100
AcDbArc
 50
59.99999999999951
 51
149.9999999999979
  0
ARC
  5
5AAE
330
1E
100
AcDbEntity
  8
0
100
AcDbCircle
 10
36.64643852259849
 20
4.865070857440938
 30
0.0
 40
0.016
100
AcDbArc
 50
29.99999999999574
 51
120.0000000000009
  0
ARC
  5
5AAF
330
1E
100
AcDbEntity
  8
0
100
AcDbCircle
 10
36.9439756553309
 20
4.85485452213544
 30
0.0
 40
0.031
100
AcDbArc
 50
257.0847135783757
 51
329.9999999999986
  0
ARC
  5
5AB0
330
1E
100
AcDbEntity
  8
0
100
AcDbCircle
 10
36.70660785184107
 20
4.854854522135441
 30
0.0
 40
0.031
100
AcDbArc
 50
209.9999999999954
 51
282.9152864216238
  0
ARC
  5
5AB1
330
1E
100
AcDbEntity
  8
0
100
AcDbCircle
 10
36.82529175358598
 20
4.33728797427274
 30
0.0
 40
0.5
100
AcDbArc
 50
77.08471357837993
 51
102.91528642162
  0
LINE
  5
5AB2
330
1E
100
AcDbEntity
  8
0
100
AcDbLine
 10
36.66029492905904
 20
4.873070857440938
 30
0.0
 11
36.67976106432375
 21
4.839354522135442
 31
0.0
  0
LINE
  5
5AB3
330
1E
100
AcDbEntity
  8
0
100
AcDbLine
 10
36.94981757781738
 20
4.824409950506627
 30
0.0
 11
37.08467372079963
 21
4.746550720053949
 31
0.0
  0
LINE
  5
5AB4
330
1E
100
AcDbEntity
  8
0
100
AcDbLine
 10
36.99028857811294
 20
4.873070857440936
 30
0.0
 11
36.97082244284821
 21
4.83935452213544
 31
0.0
  0
LINE
  5
5AB5
330
1E
100
AcDbEntity
  8
0
100
AcDbLine
 10
37.2009385225985
 20
4.76992726390149
 30
0.0
 11
37.01214498457348
 21
4.878927263901488
 31
0.0
  0
LINE
  5
5AB6
330
1E
100
AcDbEntity
  8
0
100
AcDbLine
 10
37.12386226166167
 20
4.814427263901485
 30
0.0
 11
37.08467372079963
 21
4.746550720053948
 31
0.0
  0
LINE
  5
5AB7
330
1E
100
AcDbEntity
  8
0
100
AcDbLine
 10
37.20679492905904
 20
4.748070857440938
 30
0.0
 11
37.18732879379432
 21
4.714354522135442
 31
0.0
  0
CIRCLE
  5
5B54
330
1E
100
AcDbEntity
  8
0
370
    30
100
AcDbCircle
 10
36.82529175358598
 20
4.33728797427274
 30
0.0
 40
0.2979322562772415
  0
DIMENSION
  5
5B55
330
1E
100
AcDbEntity
  8
0
370
    30
100
AcDbDimension
  2
*D53
 10
34.67457131019793
 20
2.487287974272734
 30
0.0
 11
34.67457131019793
 21
4.337287974272739
 31
0.0
 70
    32
 71
     5
 42
3.699999999999999
  3
DIM STYLE 1
100
AcDbAlignedDimension
 13
35.84529175358596
 23
6.187287974272733
 33
0.0
 14
35.84529175358596
 24
2.487287974272733
 34
0.0
 50
90.0
100
AcDbRotatedDimension
  0
DIMENSION
  5
5C33
330
1E
100
AcDbEntity
  8
0
370
    30
100
AcDbDimension
  2
*D54
 10
42.82121914455842
 20
5.663228650108422
 30
0.0
 11
44.1357453602589
 21
5.663228650108422
 31
0.0
 70
   160
  1
7.3" [185.42mm]
 71
     5
 42
3.431157965013547
  3
DIM STYLE 1
100
AcDbAlignedDimension
 13
46.25237710957197
 23
4.780684289185863
 33
0.0
 14
42.82121914455842
 24
6.06728797427241
 34
0.0
100
AcDbRotatedDimension
  0
DIMENSION
  5
5C55
330
1E
100
AcDbEntity
  8
0
370
    30
100
AcDbDimension
  2
*D55
 10
47.06023754773794
 20
3.89389165935966
 30
0.0
 11
47.06023754773794
 21
4.337287974272769
 31
0.0
 70
    32
  1
O.D. 0.84" [21.34mm]
 71
     5
 42
0.8867926298262034
  3
DIM STYLE 1
100
AcDbAlignedDimension
 13
46.25237710957197
 23
4.780684289185863
 33
0.0
 14
46.25237710957197
 24
3.89389165935966
 34
0.0
 50
90.0
100
AcDbRotatedDimension
  0
DIMENSION
  5
5C6D
330
1E
100
AcDbEntity
  8
0
370
    30
100
AcDbDimension
  2
*D56
 10
44.00371914455842
 20
3.597426405567107
 30
0.0
 11
45.12804812706519
 21
3.597426405567107
 31
0.0
 70
    32
  1
5.1" [129.54mm]
 71
     5
 42
2.248657965013549
  3
DIM STYLE 1
100
AcDbAlignedDimension
 13
46.25237710957197
 23
3.893891659359301
 33
0.0
 14
44.00371914455842
 24
3.792787974272403
 34
0.0
100
AcDbRotatedDimension
  0
DIMENSION
  5
5DCE
330
1E
100
AcDbEntity
  8
0
370
    30
100
AcDbDimension
  2
*D60
 10
38.84504098625558
 20
4.337287974272739
 30
0.0
 11
38.84504098625558
 21
3.412287974272745
 31
0.0
 70
    32
 71
     5
 42
1.850000000000001
  3
DIM STYLE 1
100
AcDbAlignedDimension
 13
37.80529175358596
 23
2.487287974272739
 33
0.0
 14
36.82529175358598
 24
4.33728797427274
 34
0.0
 50
90.0
100
AcDbRotatedDimension
  0
DIMENSION
  5
5DDC
330
1E
100
AcDbEntity
  8
0
370
    30
100
AcDbDimension
  2
*D61
 10
38.10029175358597
 20
2.14789345165181
 30
0.0
 11
37.46279175358598
 21
2.14789345165181
 31
0.0
 70
    32
 71
     5
 42
1.274999999999991
  3
DIM STYLE 1
100
AcDbAlignedDimension
 13
36.82529175358598
 23
4.33728797427274
 33
0.0
 14
38.10029175358597
 24
2.78228797427274
 34
0.0
100
AcDbRotatedDimension
  0
LINE
  5
5E56
330
1E
100
AcDbEntity
  8
0
  6
HIDDEN2
100
AcDbLine
 10
37.12439938728273
 20
12.97925830789998
 30
0.0
 11
37.12439938728273
 21
12.0670225341134
 31
0.0
  0
LINE
  5
5E57
330
1E
100
AcDbEntity
  8
0
  6
HIDDEN2
100
AcDbLine
 10
36.52853487472823
 20
12.97925830789998
 30
0.0
 11
36.52853487472823
 21
12.19755439044106
 31
0.0
  0
LINE
  5
5E59
330
1E
100
AcDbEntity
  8
HIDDEN
370
    30
100
AcDbLine
 10
37.1764671310055
 20
9.975149420107715
 30
0.0
 11
36.47646713100548
 21
10.03639148457586
 31
0.0
  0
LINE
  5
5E5A
330
1E
100
AcDbEntity
  8
HIDDEN
370
    30
100
AcDbLine
 10
37.1764671310055
 20
9.915149420107713
 30
0.0
 11
36.47646713100548
 21
9.976391484575859
 31
0.0
  0
LINE
  5
5E5B
330
1E
100
AcDbEntity
  8
HIDDEN
370
    30
100
AcDbLine
 10
37.1764671310055
 20
9.855149420107711
 30
0.0
 11
36.4764671310055
 21
9.916391484575857
 31
0.0
  0
LWPOLYLINE
  5
5E5C
330
1E
100
AcDbEntity
  8
HIDDEN
370
    30
100
AcDbPolyline
 90
        2
 70
     0
 43
0.0
 10
36.4746043735876
 20
9.798151103847192
 10
37.18024058095215
 20
9.798053716711937
  0
LINE
  5
5E63
330
1E
100
AcDbEntity
  8
0
370
    30
100
AcDbLine
 10
37.1764671310055
 20
9.855149420107711
 30
0.0
 11
37.2114671310055
 21
9.882087316884305
 31
0.0
  0
LINE
  5
5E64
330
1E
100
AcDbEntity
  8
0
370
    30
100
AcDbLine
 10
37.2114671310055
 20
9.882087316884305
 30
0.0
 11
37.1764671310055
 21
9.915149420107713
 31
0.0
  0
LINE
  5
5E66
330
1E
100
AcDbEntity
  8
0
370
    30
100
AcDbLine
 10
37.1764671310055
 20
9.975149420107715
 30
0.0
 11
37.2114671310055
 21
10.00208731688431
 31
0.0
  0
LINE
  5
5E68
330
1E
100
AcDbEntity
  8
0
370
    30
100
AcDbLine
 10
37.2114671310055
 20
9.942087316884308
 30
0.0
 11
37.1764671310055
 21
9.975149420107715
 31
0.0
  0
LINE
  5
5E69
330
1E
100
AcDbEntity
  8
0
370
    30
100
AcDbLine
 10
37.1764671310055
 20
9.915149420107713
 30
0.0
 11
37.2114671310055
 21
9.942087316884308
 31
0.0
  0
LINE
  5
5E72
330
1E
100
AcDbEntity
  8
HIDDEN
370
    30
100
AcDbLine
 10
36.47646713100548
 20
10.27639148457586
 30
0.0
 11
36.4414671310055
 21
10.24945358779927
 31
0.0
  0
LINE
  5
5E73
330
1E
100
AcDbEntity
  8
HIDDEN
370
    30
100
AcDbLine
 10
36.4414671310055
 20
10.24945358779927
 30
0.0
 11
36.47549304923952
 21
10.2173116329157
 31
0.0
  0
LINE
  5
5E74
330
1E
100
AcDbEntity
  8
HIDDEN
370
    30
100
AcDbLine
 10
36.4414671310055
 20
10.24945358779927
 30
0.0
 11
36.47549304923952
 21
10.2173116329157
 31
0.0
  0
LINE
  5
5E78
330
1E
100
AcDbEntity
  8
0
370
    30
100
AcDbLine
 10
36.4764671310055
 20
9.976391484575859
 30
0.0
 11
36.4414671310055
 21
9.949453587799265
 31
0.0
  0
LINE
  5
5E79
330
1E
100
AcDbEntity
  8
0
370
    30
100
AcDbLine
 10
36.4414671310055
 20
9.949453587799265
 30
0.0
 11
36.4764671310055
 21
9.916391484575857
 31
0.0
  0
LINE
  5
5E7A
330
1E
100
AcDbEntity
  8
0
370
    30
100
AcDbLine
 10
36.4764671310055
 20
9.916391484575857
 30
0.0
 11
36.4414671310055
 21
9.889453587799263
 31
0.0
  0
LINE
  5
5E97
330
1E
100
AcDbEntity
  8
0
370
    30
100
AcDbLine
 10
36.27646713100548
 20
10.3320873168843
 30
0.0
 11
37.37646713100549
 21
10.3320873168843
 31
0.0
  0
LINE
  5
5E98
330
1E
100
AcDbEntity
  8
0
370
    30
100
AcDbLine
 10
36.4414671310055
 20
10.18945358779925
 30
0.0
 11
36.47502989799274
 21
10.15528531216039
 31
0.0
  0
LINE
  5
5E99
330
1E
100
AcDbEntity
  8
0
370
    30
100
AcDbLine
 10
36.4764671310055
 20
10.21639148457585
 30
0.0
 11
36.4414671310055
 21
10.18945358779925
 31
0.0
  0
LINE
  5
5E9B
330
1E
100
AcDbEntity
  8
HIDDEN
370
    30
100
AcDbLine
 10
37.1764671310055
 20
10.21514942010771
 30
0.0
 11
37.2114671310055
 21
10.24208731688431
 31
0.0
  0
LINE
  5
5E9C
330
1E
100
AcDbEntity
  8
HIDDEN
370
    30
100
AcDbLine
 10
37.2114671310055
 20
10.24208731688431
 30
0.0
 11
37.1764671310055
 21
10.27514942010772
 31
0.0
  0
LINE
  5
5E9D
330
1E
100
AcDbEntity
  8
HIDDEN
370
    30
100
AcDbLine
 10
37.1764671310055
 20
10.27514942010771
 30
0.0
 11
37.2114671310055
 21
10.30208731688431
 31
0.0
  0
LINE
  5
5E9E
330
1E
100
AcDbEntity
  8
HIDDEN
370
    30
100
AcDbLine
 10
37.2114671310055
 20
10.30208731688431
 30
0.0
 11
37.17970871585252
 21
10.3320873168843
 31
0.0
  0
LINE
  5
5E9F
330
1E
100
AcDbEntity
  8
HIDDEN
370
    30
100
AcDbLine
 10
36.44146713100552
 20
10.30945358779925
 30
0.0
 11
36.47646713100551
 21
10.27639148457584
 31
0.0
  0
LINE
  5
5EA0
330
1E
100
AcDbEntity
  8
HIDDEN
370
    30
100
AcDbLine
 10
36.47087479131939
 20
10.3320873168843
 30
0.0
 11
36.44146713100552
 21
10.30945358779925
 31
0.0
  0
LINE
  5
5EA2
330
1E
100
AcDbEntity
  8
HIDDEN
370
    30
100
AcDbLine
 10
37.1764671310055
 20
10.27514942010772
 30
0.0
 11
36.52566399284
 21
10.3320873168843
 31
0.0
  0
LINE
  5
5EA4
330
1E
100
AcDbEntity
  8
HIDDEN
370
    30
100
AcDbLine
 10
37.1764671310055
 20
10.15514942010772
 30
0.0
 11
36.4764671310055
 21
10.21639148457586
 31
0.0
  0
LINE
  5
5EA5
330
1E
100
AcDbEntity
  8
0
370
    30
100
AcDbLine
 10
37.17970871585252
 20
10.3320873168843
 30
0.0
 11
36.47087479131939
 21
10.3320873168843
 31
0.0
  0
LWPOLYLINE
  5
5EA6
330
1E
100
AcDbEntity
  8
0
370
    30
100
AcDbPolyline
 90
        4
 70
     1
 43
0.0
 10
37.36979175358596
 20
11.5145873168843
 10
36.28079175358596
 20
11.5145873168843
 10
36.28079175358596
 20
10.56008731688431
 10
37.36979175358596
 20
10.56008731688431
  0
LWPOLYLINE
  5
5EA7
330
1E
100
AcDbEntity
  8
0
370
    30
100
AcDbPolyline
 90
        4
 70
     1
 43
0.0
 10
37.44754175358596
 20
10.56008731688431
 10
36.20304175358596
 20
10.56008731688431
 10
36.20304175358596
 20
10.3320873168843
 10
37.44754175358596
 20
10.3320873168843
  0
LINE
  5
5EAB
330
1E
100
AcDbEntity
  8
0
370
    30
100
AcDbLine
 10
36.4414671310055
 20
9.889453587799263
 30
0.0
 11
36.4764671310055
 21
9.856391484575862
 31
0.0
  0
LINE
  5
5EAC
330
1E
100
AcDbEntity
  8
0
370
    30
100
AcDbLine
 10
36.47646713964318
 20
9.856391476315454
 30
0.0
 11
36.44146713964318
 21
9.829453579538853
 31
0.0
  0
LINE
  5
5EAD
330
1E
100
AcDbEntity
  8
0
370
    30
100
AcDbLine
 10
36.44146713964318
 20
9.829453579538853
 30
0.0
 11
36.4746043735876
 21
9.798151103847192
 31
0.0
  0
LINE
  5
5EAE
330
1E
100
AcDbEntity
  8
0
370
    30
100
AcDbLine
 10
37.2114671310055
 20
9.822087316884303
 30
0.0
 11
37.1764671310055
 21
9.855149420107711
 31
0.0
  0
LINE
  5
5EAF
330
1E
100
AcDbEntity
  8
0
370
    30
100
AcDbLine
 10
37.18024058095215
 20
9.798053716711937
 30
0.0
 11
37.21146707808648
 21
9.822087321183349
 31
0.0
  0
LINE
  5
5EB0
330
1E
100
AcDbEntity
  8
HIDDEN
370
    30
100
AcDbLine
 10
37.14321237119241
 20
9.798058827094923
 30
0.0
 11
36.47646713964318
 21
9.856391476315454
 31
0.0
  0
MTEXT
  5
5ED5
330
1E
100
AcDbEntity
  8
0
370
    30
100
AcDbMText
 10
31.66764414262361
 20
6.590381732866195
 30
0.0
 40
0.2
 41
3.3744
 71
     1
 72
     5
  1
{\fTimes New Roman|b1|i0|c0|p18;Cover:}
 73
     1
 44
1.0
  0
LINE
  5
5ED6
330
1E
100
AcDbEntity
  8
0
  6
Continuous
370
    30
100
AcDbLine
 10
30.79681875634616
 20
5.892287974272733
 30
0.0
 11
30.79681875634616
 21
2.782287974272733
 31
0.0
  0
LINE
  5
5ED7
330
1E
100
AcDbEntity
  8
0
  6
Continuous
370
    30
100
AcDbLine
 10
31.09181875634616
 20
2.487287974272735
 30
0.0
 11
33.05181875634616
 21
2.487287974272739
 31
0.0
  0
LINE
  5
5ED8
330
1E
100
AcDbEntity
  8
0
  6
Continuous
370
    30
100
AcDbLine
 10
33.34681875634617
 20
2.78228797427274
 30
0.0
 11
33.34681875634618
 21
5.892287974272733
 31
0.0
  0
LINE
  5
5ED9
330
1E
100
AcDbEntity
  8
0
  6
Continuous
370
    30
100
AcDbLine
 10
33.05181875634618
 20
6.187287974272734
 30
0.0
 11
31.09181875634616
 21
6.187287974272731
 31
0.0
  0
ARC
  5
5EDA
330
1E
100
AcDbEntity
  8
0
  6
Continuous
370
    30
100
AcDbCircle
 10
33.05181875634618
 20
5.892287974272736
 30
0.0
 40
0.295
100
AcDbArc
 50
359.9999999999997
 51
90.0
  0
ARC
  5
5EDB
330
1E
100
AcDbEntity
  8
0
  6
Continuous
370
    30
100
AcDbCircle
 10
31.09181875634616
 20
5.892287974272733
 30
0.0
 40
0.295
100
AcDbArc
 50
90.0
 51
180.0
  0
ARC
  5
5EDC
330
1E
100
AcDbEntity
  8
0
  6
Continuous
370
    30
100
AcDbCircle
 10
31.09181875634616
 20
2.782287974272733
 30
0.0
 40
0.295
100
AcDbArc
 50
180.0
 51
270.0
  0
ARC
  5
5EDD
330
1E
100
AcDbEntity
  8
0
  6
Continuous
370
    30
100
AcDbCircle
 10
33.05181875634616
 20
2.78228797427274
 30
0.0
 40
0.295
100
AcDbArc
 50
270.0
 51
359.9999999999996
  0
CIRCLE
  5
5EDE
330
1E
100
AcDbEntity
  8
0
370
    30
100
AcDbCircle
 10
31.09181875634616
 20
5.892287974272733
 30
0.0
 40
0.215
  0
CIRCLE
  5
5EDF
330
1E
100
AcDbEntity
  8
0
370
    30
100
AcDbCircle
 10
33.05181875634618
 20
5.892287974272736
 30
0.0
 40
0.215
  0
CIRCLE
  5
5EE0
330
1E
100
AcDbEntity
  8
0
370
    30
100
AcDbCircle
 10
33.05181875634616
 20
2.78228797427274
 30
0.0
 40
0.215
  0
CIRCLE
  5
5EE1
330
1E
100
AcDbEntity
  8
0
370
    30
100
AcDbCircle
 10
31.09181875634616
 20
2.782287974272733
 30
0.0
 40
0.215
  0
CIRCLE
  5
5EE2
330
1E
100
AcDbEntity
  8
0
370
    30
100
AcDbCircle
 10
31.09181875634616
 20
5.892287974272733
 30
0.0
 40
0.203
  0
CIRCLE
  5
5EE3
330
1E
100
AcDbEntity
  8
0
370
    30
100
AcDbCircle
 10
31.09181875634616
 20
5.892287974272733
 30
0.0
 40
0.1375
  0
LWPOLYLINE
  5
5EE4
330
1E
100
AcDbEntity
  8
0
370
    30
100
AcDbPolyline
 90
        2
 70
     0
 43
0.0
 10
30.99450398390526
 20
5.98942748767884
 10
31.12063410601785
 20
5.757841235289228
  0
LWPOLYLINE
  5
5EE5
330
1E
100
AcDbEntity
  8
0
370
    30
100
AcDbPolyline
 90
        2
 70
     0
 43
0.0
 10
31.18913352878707
 20
5.795148460866627
 10
31.06300340667448
 20
6.026734713256239
  0
CIRCLE
  5
5EE6
330
1E
100
AcDbEntity
  8
0
370
    30
100
AcDbCircle
 10
33.05181875634618
 20
5.892287974272736
 30
0.0
 40
0.203
  0
CIRCLE
  5
5EE7
330
1E
100
AcDbEntity
  8
0
370
    30
100
AcDbCircle
 10
33.05181875634618
 20
5.892287974272736
 30
0.0
 40
0.1375
  0
LWPOLYLINE
  5
5EE8
330
1E
100
AcDbEntity
  8
0
370
    30
100
AcDbPolyline
 90
        2
 70
     0
 43
0.0
 10
32.91989553226617
 20
5.931050236182166
 10
33.14142990556166
 20
5.787999470897329
  0
LWPOLYLINE
  5
5EE9
330
1E
100
AcDbEntity
  8
0
370
    30
100
AcDbPolyline
 90
        2
 70
     0
 43
0.0
 10
33.1837419804262
 20
5.853525712363303
 10
32.96220760713071
 20
5.996576477648144
  0
CIRCLE
  5
5EEA
330
1E
100
AcDbEntity
  8
0
370
    30
100
AcDbCircle
 10
31.09181875634616
 20
2.782287974272733
 30
0.0
 40
0.203
  0
CIRCLE
  5
5EEB
330
1E
100
AcDbEntity
  8
0
370
    30
100
AcDbCircle
 10
31.09181875634616
 20
2.782287974272733
 30
0.0
 40
0.1375
  0
LWPOLYLINE
  5
5EEC
330
1E
100
AcDbEntity
  8
0
370
    30
100
AcDbPolyline
 90
        2
 70
     0
 43
0.0
 10
30.98964666305765
 20
2.690271055431452
 10
31.22760643247488
 20
2.803920288332069
  0
LWPOLYLINE
  5
5EED
330
1E
100
AcDbEntity
  8
0
370
    30
100
AcDbPolyline
 90
        2
 70
     0
 43
0.0
 10
31.19399084963467
 20
2.874304893114029
 10
30.95603108021744
 20
2.760655660213409
  0
CIRCLE
  5
5EEE
330
1E
100
AcDbEntity
  8
0
370
    30
100
AcDbCircle
 10
33.05181875634618
 20
2.78228797427274
 30
0.0
 40
0.203
  0
CIRCLE
  5
5EEF
330
1E
100
AcDbEntity
  8
0
370
    30
100
AcDbCircle
 10
33.05181875634618
 20
2.78228797427274
 30
0.0
 40
0.1375
  0
LWPOLYLINE
  5
5EF0
330
1E
100
AcDbEntity
  8
0
370
    30
100
AcDbPolyline
 90
        2
 70
     0
 43
0.0
 10
32.96690654115313
 20
2.674139161468282
 10
33.18189901638307
 20
2.826845531978854
  0
LWPOLYLINE
  5
5EF1
330
1E
100
AcDbEntity
  8
0
370
    30
100
AcDbPolyline
 90
        2
 70
     0
 43
0.0
 10
33.13673097153919
 20
2.890436787077195
 10
32.92173849630927
 20
2.737730416566623
  0
CIRCLE
  5
5EFA
330
1E
100
AcDbEntity
  8
0
370
    30
100
AcDbCircle
 10
35.84529175358596
 20
5.892287974272733
 30
0.0
 40
0.0975
  0
CIRCLE
  5
5EFB
330
1E
100
AcDbEntity
  8
0
370
    30
100
AcDbCircle
 10
37.80529175358597
 20
5.892287974272736
 30
0.0
 40
0.0975
  0
CIRCLE
  5
5EFC
330
1E
100
AcDbEntity
  8
0
370
    30
100
AcDbCircle
 10
35.84529175358596
 20
2.782287974272733
 30
0.0
 40
0.0975
  0
CIRCLE
  5
5EFD
330
1E
100
AcDbEntity
  8
0
370
    30
100
AcDbCircle
 10
37.80529175358596
 20
2.78228797427274
 30
0.0
 40
0.0975
  0
LINE
  5
5FD8
330
1E
100
AcDbEntity
  8
0
  6
Continuous
370
    30
100
AcDbLine
 10
42.75871914455841
 20
2.487287974272412
 30
0.0
 11
42.75871914455841
 21
6.187287974272408
 31
0.0
  0
LINE
  5
5FD9
330
1E
100
AcDbEntity
  8
0
  6
Continuous
370
    30
100
AcDbLine
 10
42.75871914455841
 20
6.187287974272408
 30
0.0
 11
41.22621914455841
 21
6.187287974272411
 31
0.0
  0
LINE
  5
5FDA
330
1E
100
AcDbEntity
  8
0
  6
Continuous
370
    30
100
AcDbLine
 10
41.22621914455841
 20
6.187287974272411
 30
0.0
 11
41.22621914455841
 21
2.487287974272412
 31
0.0
  0
LINE
  5
5FDB
330
1E
100
AcDbEntity
  8
0
  6
Continuous
370
    30
100
AcDbLine
 10
41.22621914455841
 20
2.487287974272412
 30
0.0
 11
42.75871914455841
 21
2.487287974272412
 31
0.0
  0
CIRCLE
  5
5FDC
330
1E
100
AcDbEntity
  8
0
  6
Continuous
370
    30
100
AcDbCircle
 10
41.99621914455841
 20
4.938537974272414
 30
0.0
 40
0.4600000000000001
  0
CIRCLE
  5
5FDD
330
1E
100
AcDbEntity
  8
0
  6
Continuous
370
    30
100
AcDbCircle
 10
41.99621914455841
 20
3.736037974272413
 30
0.0
 40
0.4600000000000001
  0
CIRCLE
  5
5FDE
330
1E
100
AcDbEntity
  8
0
  6
Continuous
370
    30
100
AcDbCircle
 10
41.99621914455841
 20
4.938537974272414
 30
0.0
 40
0.4185000000000001
  0
CIRCLE
  5
5FDF
330
1E
100
AcDbEntity
  8
0
  6
Continuous
370
    30
100
AcDbCircle
 10
41.99621914455841
 20
3.736037974272413
 30
0.0
 40
0.4185000000000001
  0
CIRCLE
  5
5FE0
330
1E
100
AcDbEntity
  8
0
  6
Continuous
370
    30
100
AcDbCircle
 10
41.99621914455841
 20
4.938537974272414
 30
0.0
 40
0.375
  0
CIRCLE
  5
5FE1
330
1E
100
AcDbEntity
  8
0
  6
Continuous
370
    30
100
AcDbCircle
 10
41.99621914455841
 20
3.736037974272413
 30
0.0
 40
0.375
  0
CIRCLE
  5
5FE2
330
1E
100
AcDbEntity
  8
0
  6
Continuous
370
    30
100
AcDbCircle
 10
41.99621914455841
 20
4.938537974272414
 30
0.0
 40
0.335
  0
CIRCLE
  5
5FE3
330
1E
100
AcDbEntity
  8
0
  6
Continuous
370
    30
100
AcDbCircle
 10
41.99621914455841
 20
3.736037974272413
 30
0.0
 40
0.335
  0
LINE
  5
5FE4
330
1E
100
AcDbEntity
  8
HIDDEN
370
    30
100
AcDbLine
 10
41.1412191445584
 20
6.107287974272406
 30
0.0
 11
41.14121914455842
 21
2.567287974272414
 31
0.0
  0
LINE
  5
5FE5
330
1E
100
AcDbEntity
  8
0
  6
Continuous
370
    30
100
AcDbLine
 10
41.22621914455843
 20
6.107287974272406
 30
0.0
 11
41.14121914455842
 21
6.107287974272406
 31
0.0
  0
LINE
  5
5FE6
330
1E
100
AcDbEntity
  8
HIDDEN
370
    30
100
AcDbLine
 10
41.22621914455843
 20
2.56728797427241
 30
0.0
 11
41.14121914455842
 21
2.56728797427241
 31
0.0
  0
LINE
  5
5FE7
330
1E
100
AcDbEntity
  8
0
  6
Continuous
370
    30
100
AcDbLine
 10
41.20471914455841
 20
6.187287974272411
 30
0.0
 11
41.20471914455841
 21
2.487287974272412
 31
0.0
  0
LINE
  5
5FE8
330
1E
100
AcDbEntity
  8
0
  6
Continuous
370
    30
100
AcDbLine
 10
41.20471914455841
 20
2.487287974272412
 30
0.0
 11
40.6047191445584
 21
2.487287974272412
 31
0.0
  0
LINE
  5
5FE9
330
1E
100
AcDbEntity
  8
0
  6
Continuous
370
    30
100
AcDbLine
 10
40.6047191445584
 20
2.487287974272412
 30
0.0
 11
40.6047191445584
 21
6.187287974272411
 31
0.0
  0
LINE
  5
5FEA
330
1E
100
AcDbEntity
  8
0
  6
Continuous
370
    30
100
AcDbLine
 10
40.6047191445584
 20
6.187287974272411
 30
0.0
 11
41.20471914455841
 21
6.187287974272411
 31
0.0
  0
LINE
  5
5FEB
330
1E
100
AcDbEntity
  8
HIDDEN
370
    30
100
AcDbLine
 10
41.22621914455841
 20
6.107287974272406
 30
0.0
 11
41.1412191445584
 21
6.107287974272406
 31
0.0
  0
LINE
  5
5FEC
330
1E
100
AcDbEntity
  8
HIDDEN
100
AcDbLine
 10
40.96471914455841
 20
2.567287974272414
 30
0.0
 11
40.96471914455841
 21
2.997287974272413
 31
0.0
  0
LINE
  5
5FED
330
1E
100
AcDbEntity
  8
HIDDEN
100
AcDbLine
 10
40.96471914455841
 20
5.677287974272406
 30
0.0
 11
40.6047191445584
 21
5.677287974272406
 31
0.0
  0
LINE
  5
5FEE
330
1E
100
AcDbEntity
  8
HIDDEN
100
AcDbLine
 10
40.96471914455841
 20
6.107287974272406
 30
0.0
 11
40.6047191445584
 21
6.107287974272406
 31
0.0
  0
LINE
  5
5FEF
330
1E
100
AcDbEntity
  8
HIDDEN
100
AcDbLine
 10
40.96471914455841
 20
2.997287974272413
 30
0.0
 11
40.6047191445584
 21
2.997287974272413
 31
0.0
  0
LINE
  5
5FF0
330
1E
100
AcDbEntity
  8
HIDDEN
100
AcDbLine
 10
40.96471914455841
 20
2.567287974272414
 30
0.0
 11
40.6047191445584
 21
2.567287974272414
 31
0.0
  0
LINE
  5
5FF1
330
1E
100
AcDbEntity
  8
HIDDEN
100
AcDbLine
 10
40.96471914455841
 20
5.677287974272406
 30
0.0
 11
40.96471914455841
 21
6.107287974272406
 31
0.0
  0
LINE
  5
5FF2
330
1E
100
AcDbEntity
  8
HIDDEN
370
    30
100
AcDbLine
 10
42.48721914455841
 20
5.727287974272407
 30
0.0
 11
41.22621914455841
 21
5.727287974272407
 31
0.0
  0
LINE
  5
5FF3
330
1E
100
AcDbEntity
  8
HIDDEN
370
    30
100
AcDbLine
 10
42.48721914455841
 20
6.057287974272405
 30
0.0
 11
40.96471914455841
 21
6.057287974272405
 31
0.0
  0
LINE
  5
5FF6
330
1E
100
AcDbEntity
  8
HIDDEN
370
    30
100
AcDbLine
 10
42.48721914455841
 20
5.727287974272407
 30
0.0
 11
42.48721914455839
 21
6.057287974272401
 31
0.0
  0
LINE
  5
5FF7
330
1E
100
AcDbEntity
  8
HIDDEN
370
    30
100
AcDbLine
 10
41.20471914455842
 20
2.947287974272413
 30
0.0
 11
40.96471914455841
 21
2.947287974272409
 31
0.0
  0
LINE
  5
5FF8
330
1E
100
AcDbEntity
  8
HIDDEN
370
    30
100
AcDbLine
 10
41.20471914455842
 20
2.617287974272411
 30
0.0
 11
40.96471914455841
 21
2.617287974272411
 31
0.0
  0
LINE
  5
5FF9
330
1E
100
AcDbEntity
  8
HIDDEN
370
    30
100
AcDbLine
 10
41.20471914455841
 20
5.727287974272407
 30
0.0
 11
40.96471914455841
 21
5.727287974272407
 31
0.0
  0
LINE
  5
5FFA
330
1E
100
AcDbEntity
  8
HIDDEN
370
    30
100
AcDbLine
 10
41.20471914455841
 20
6.057287974272405
 30
0.0
 11
40.96471914455841
 21
6.057287974272405
 31
0.0
  0
LINE
  5
5FFB
330
1E
100
AcDbEntity
  8
0
370
    30
100
AcDbLine
 10
42.82121914455842
 20
2.607287974272409
 30
0.0
 11
42.82121914455842
 21
6.06728797427241
 31
0.0
  0
LINE
  5
5FFC
330
1E
100
AcDbEntity
  8
0
370
    30
100
AcDbLine
 10
42.82121914455842
 20
6.06728797427241
 30
0.0
 11
42.75871914455841
 21
6.06728797427241
 31
0.0
  0
LINE
  5
5FFD
330
1E
100
AcDbEntity
  8
0
370
    30
100
AcDbLine
 10
42.82121914455842
 20
2.607287974272409
 30
0.0
 11
42.75871914455841
 21
2.607287974272409
 31
0.0
  0
MTEXT
  5
5FFE
330
1E
100
AcDbEntity
  8
0
370
    30
100
AcDbMText
 10
40.79485567954009
 20
7.038591820444782
 30
0.0
 40
0.2
 41
3.3744
 71
     1
 72
     5
  1
{\fTimes New Roman|b1|i0|c0|p18;Side View:}
 73
     1
 44
1.0
  0
DIMENSION
  5
5FFF
330
1E
100
AcDbEntity
  8
0
370
    30
100
AcDbDimension
  2
*D68
 10
41.99621914455841
 20
6.530239675043517
 30
0.0
 11
43.51448338392395
 21
6.530239675043517
 31
0.0
 70
   160
 71
     5
 42
0.7625000000000029
  3
DIM STYLE 1
100
AcDbAlignedDimension
 13
42.75871914455841
 23
6.187287974272408
 33
0.0
 14
41.99621914455841
 24
4.938537974272414
 34
0.0
100
AcDbRotatedDimension
  0
DIMENSION
  5
6000
330
1E
100
AcDbEntity
  8
0
370
    30
100
AcDbDimension
  2
*D69
 10
39.99860892125939
 20
3.736037974272413
 30
0.0
 11
39.99860892125939
 21
4.337287974272419
 31
0.0
 70
    32
 71
     5
 42
1.2025
  3
DIM STYLE 1
100
AcDbAlignedDimension
 13
41.99621914455841
 23
4.938537974272414
 33
0.0
 14
41.99621914455841
 24
3.736037974272413
 34
0.0
 50
90.0
100
AcDbRotatedDimension
  0
LINE
  5
6004
330
1E
100
AcDbEntity
  8
HIDDEN
370
    30
100
AcDbLine
 10
42.63671914455842
 20
6.067287974272408
 30
0.0
 11
41.22621914455841
 21
6.06728797427241
 31
0.0
  0
LINE
  5
6005
330
1E
100
AcDbEntity
  8
HIDDEN
370
    30
100
AcDbLine
 10
42.52871914455841
 20
5.737287974272406
 30
0.0
 11
42.5287191445584
 21
2.937287974272411
 31
0.0
  0
LINE
  5
6006
330
1E
100
AcDbEntity
  8
HIDDEN
370
    30
100
AcDbLine
 10
42.75871914455841
 20
2.937287974272411
 30
0.0
 11
42.5287191445584
 21
2.937287974272411
 31
0.0
  0
LINE
  5
6007
330
1E
100
AcDbEntity
  8
HIDDEN
370
    30
100
AcDbLine
 10
42.75871914455841
 20
5.737287974272408
 30
0.0
 11
42.52871914455841
 21
5.737287974272406
 31
0.0
  0
LINE
  5
6008
330
1E
100
AcDbEntity
  8
HIDDEN
370
    30
100
AcDbLine
 10
42.63671914455841
 20
2.609287974272411
 30
0.0
 11
41.22621914455841
 21
2.609287974272411
 31
0.0
  0
LINE
  5
6009
330
1E
100
AcDbEntity
  8
HIDDEN
370
    30
100
AcDbLine
 10
42.63671914455841
 20
2.609287974272411
 30
0.0
 11
42.63671914455841
 21
2.937287974272411
 31
0.0
  0
LINE
  5
600A
330
1E
100
AcDbEntity
  8
HIDDEN
370
    30
100
AcDbLine
 10
42.63671914455842
 20
5.737287974272406
 30
0.0
 11
42.63671914455841
 21
6.067287974272408
 31
0.0
  0
LINE
  5
604B
330
1E
100
AcDbEntity
  8
0
370
    30
100
AcDbLine
 10
42.54129376713888
 20
2.487287974272412
 30
0.0
 11
41.44129376713887
 21
2.487287974272412
 31
0.0
  0
LINE
  5
6057
330
1E
100
AcDbEntity
  8
0
370
    30
100
AcDbLine
 10
41.63805218229184
 20
2.487287974272412
 30
0.0
 11
42.34688610682496
 21
2.487287974272414
 31
0.0
  0
LINE
  5
6068
330
1E
100
AcDbEntity
  8
0
370
    30
100
AcDbLine
 10
41.20471914455841
 20
6.187287974272411
 30
0.0
 11
41.22621914455841
 21
6.187287974272411
 31
0.0
  0
MTEXT
  5
606B
330
1E
100
AcDbEntity
  8
0
370
    30
100
AcDbMText
 10
43.01163924386083
 20
3.388876719845704
 30
0.0
 40
0.09
 41
2.366499999999999
 71
     1
 72
     5
  1
PG11= INNER KNOCKOUT (6x)\PPG16= OUTER KNOCKOUT (6X)
 73
     1
 44
1.0
  0
LEADER
  5
606C
330
1E
100
AcDbEntity
  8
0
370
    30
100
AcDbLeader
  3
DIM STYLE 1
 76
     3
 10
41.99760136807235
 20
3.738745842638607
 30
0.0
 10
42.63912756468194
 20
3.334540989981691
 30
0.0
 10
42.95086080462455
 20
3.334540989981691
 30
0.0
1001
ACAD
1000
DSTYLE
1002
{
1070
   147
1040
0.09
1070
    77
1070
     0
1002
}
  0
LINE
  5
610A
330
1E
100
AcDbEntity
  8
0
100
AcDbLine
 10
36.69148346992111
 20
9.986811650094718
 30
0.0
 11
37.08922124551028
 21
9.986811650094718
 31
0.0
  0
LINE
  5
610B
330
1E
100
AcDbEntity
  8
0
100
AcDbLine
 10
36.32529175358596
 20
9.876811650094719
 30
0.0
 11
37.32529175358596
 21
9.876811650094719
 31
0.0
  0
LINE
  5
610C
330
1E
100
AcDbEntity
  8
0
100
AcDbLine
 10
36.41529175358597
 20
9.861811650094711
 30
0.0
 11
37.23529175358596
 21
9.861811650094711
 31
0.0
  0
LINE
  5
610D
330
1E
100
AcDbEntity
  8
0
100
AcDbLine
 10
37.38779175358596
 20
10.03958733406331
 30
0.0
 11
37.32529175358596
 21
9.986811650094718
 31
0.0
  0
LINE
  5
610E
330
1E
100
AcDbEntity
  8
0
100
AcDbLine
 10
37.23529175358596
 20
9.861811650094711
 30
0.0
 11
37.38779175358596
 21
9.887228316761383
 31
0.0
  0
LINE
  5
610F
330
1E
100
AcDbEntity
  8
0
100
AcDbLine
 10
37.38779175358596
 20
9.88722831676139
 30
0.0
 11
37.38779175358596
 21
10.03958733406331
 31
0.0
  0
LINE
  5
6111
330
1E
100
AcDbEntity
  8
0
100
AcDbLine
 10
37.21479492905901
 20
9.914587334063309
 30
0.0
 11
37.21479492905901
 21
10.03958733406331
 31
0.0
  0
LINE
  5
6112
330
1E
100
AcDbEntity
  8
0
100
AcDbLine
 10
36.99828857811291
 20
9.876811650094719
 30
0.0
 11
36.99828857811291
 21
9.986811650094718
 31
0.0
  0
LINE
  5
6113
330
1E
100
AcDbEntity
  8
0
100
AcDbLine
 10
36.95910003725088
 20
9.876811650094719
 30
0.0
 11
36.95910003725088
 21
9.986811650094718
 31
0.0
  0
LINE
  5
6114
330
1E
100
AcDbEntity
  8
0
100
AcDbLine
 10
37.32529175358596
 20
9.876811650094719
 30
0.0
 11
37.32529175358596
 21
9.986811650094718
 31
0.0
  0
LINE
  5
6115
330
1E
100
AcDbEntity
  8
0
100
AcDbLine
 10
37.21479492905901
 20
10.03958733406331
 30
0.0
 11
37.08922124551028
 21
9.986811650094718
 31
0.0
  0
LINE
  5
6116
330
1E
100
AcDbEntity
  8
0
100
AcDbLine
 10
37.21479492905901
 20
9.986811650094718
 30
0.0
 11
37.32529175358596
 21
9.986811650094718
 31
0.0
  0
LINE
  5
6117
330
1E
100
AcDbEntity
  8
0
100
AcDbLine
 10
37.21479492905901
 20
9.914587334063309
 30
0.0
 11
37.17560638819699
 21
9.876811650094719
 31
0.0
  0
LINE
  5
6118
330
1E
100
AcDbEntity
  8
0
100
AcDbLine
 10
37.21479492905901
 20
9.914587334063309
 30
0.0
 11
37.12491202413387
 21
9.876811650094719
 31
0.0
  0
LINE
  5
611B
330
1E
100
AcDbEntity
  8
0
100
AcDbLine
 10
36.26279175358598
 20
9.887228316761383
 30
0.0
 11
36.26279175358596
 21
10.03958733406331
 31
0.0
  0
LINE
  5
611C
330
1E
100
AcDbEntity
  8
0
100
AcDbLine
 10
36.69148346992111
 20
9.876811650094719
 30
0.0
 11
36.69148346992111
 21
9.986811650094718
 31
0.0
  0
LINE
  5
611D
330
1E
100
AcDbEntity
  8
0
100
AcDbLine
 10
36.65229492905901
 20
9.914587334063302
 30
0.0
 11
36.65229492905901
 21
10.03958733406331
 31
0.0
  0
LINE
  5
611E
330
1E
100
AcDbEntity
  8
0
100
AcDbLine
 10
36.43578857811291
 20
9.876811650094719
 30
0.0
 11
36.43578857811291
 21
9.986811650094718
 31
0.0
  0
LINE
  5
611F
330
1E
100
AcDbEntity
  8
0
100
AcDbLine
 10
36.32529175358596
 20
9.876811650094719
 30
0.0
 11
36.32529175358596
 21
9.986811650094718
 31
0.0
  0
LINE
  5
6120
330
1E
100
AcDbEntity
  8
0
100
AcDbLine
 10
36.52672124551028
 20
9.986811650094718
 30
0.0
 11
36.65229492905901
 21
10.03958733406331
 31
0.0
  0
LINE
  5
6121
330
1E
100
AcDbEntity
  8
0
100
AcDbLine
 10
36.32529175358596
 20
9.986811650094718
 30
0.0
 11
36.26279175358596
 21
10.03958733406331
 31
0.0
  0
LINE
  5
6122
330
1E
100
AcDbEntity
  8
0
100
AcDbLine
 10
36.43578857811291
 20
9.986811650094718
 30
0.0
 11
36.52672124551028
 21
9.986811650094718
 31
0.0
  0
LINE
  5
6123
330
1E
100
AcDbEntity
  8
0
100
AcDbLine
 10
36.32529175358596
 20
9.986811650094718
 30
0.0
 11
36.43578857811291
 21
9.986811650094718
 31
0.0
  0
LINE
  5
6124
330
1E
100
AcDbEntity
  8
HIDDEN
100
AcDbLine
 10
36.65229492905901
 20
10.03958733406331
 30
0.0
 11
36.69148346992111
 21
9.986811650094718
 31
0.0
  0
LINE
  5
6125
330
1E
100
AcDbEntity
  8
0
100
AcDbLine
 10
36.52672124551028
 20
9.876811650094719
 30
0.0
 11
36.65229492905901
 21
9.914587334063309
 31
0.0
  0
LINE
  5
6126
330
1E
100
AcDbEntity
  8
0
100
AcDbLine
 10
36.41529175358597
 20
9.861811650094711
 30
0.0
 11
36.26279175358596
 21
9.88722831676139
 31
0.0
  0
LINE
  5
6127
330
1E
100
AcDbEntity
  8
0
100
AcDbLine
 10
36.65229492905901
 20
9.914587334063309
 30
0.0
 11
36.69148346992111
 21
9.876811650094719
 31
0.0
  0
LINE
  5
6138
330
1E
100
AcDbEntity
  8
0
370
    30
100
AcDbLine
 10
37.1764671310055
 20
10.03514942010771
 30
0.0
 11
37.2114671310055
 21
10.06208731688431
 31
0.0
  0
LINE
  5
6139
330
1E
100
AcDbEntity
  8
0
370
    30
100
AcDbLine
 10
37.2114671310055
 20
10.06208731688431
 30
0.0
 11
37.1764671310055
 21
10.09514942010772
 31
0.0
  0
LINE
  5
613A
330
1E
100
AcDbEntity
  8
0
370
    30
100
AcDbLine
 10
37.1764671310055
 20
10.15514942010772
 30
0.0
 11
37.2114671310055
 21
10.18208731688431
 31
0.0
  0
LINE
  5
613B
330
1E
100
AcDbEntity
  8
0
370
    30
100
AcDbLine
 10
37.2114671310055
 20
10.12208731688431
 30
0.0
 11
37.1764671310055
 21
10.15514942010772
 31
0.0
  0
LINE
  5
613C
330
1E
100
AcDbEntity
  8
0
370
    30
100
AcDbLine
 10
37.1764671310055
 20
10.09514942010772
 30
0.0
 11
37.2114671310055
 21
10.12208731688431
 31
0.0
  0
LINE
  5
613D
330
1E
100
AcDbEntity
  8
0
370
    30
100
AcDbLine
 10
37.2114671310055
 20
10.00208731688431
 30
0.0
 11
37.1764671310055
 21
10.03514942010771
 31
0.0
  0
LINE
  5
6144
330
1E
100
AcDbEntity
  8
0
370
    30
100
AcDbLine
 10
37.2114671310055
 20
10.18208731688431
 30
0.0
 11
37.1764671310055
 21
10.21514942010772
 31
0.0
  0
LINE
  5
6150
330
1E
100
AcDbEntity
  8
0
370
    30
100
AcDbLine
 10
36.44146713100548
 20
10.12945358779926
 30
0.0
 11
36.47646713100548
 21
10.09639148457585
 31
0.0
  0
LINE
  5
6151
330
1E
100
AcDbEntity
  8
0
370
    30
100
AcDbLine
 10
36.47646713100548
 20
10.15639148457585
 30
0.0
 11
36.44146713100548
 21
10.12945358779926
 31
0.0
  0
LINE
  5
6152
330
1E
100
AcDbEntity
  8
0
370
    30
100
AcDbLine
 10
36.47646713100548
 20
10.09639148457585
 30
0.0
 11
36.44146713100548
 21
10.06945358779926
 31
0.0
  0
LINE
  5
6153
330
1E
100
AcDbEntity
  8
0
370
    30
100
AcDbLine
 10
36.44146713100548
 20
10.06945358779926
 30
0.0
 11
36.47646713100548
 21
10.03639148457586
 31
0.0
  0
LINE
  5
615F
330
1E
100
AcDbEntity
  8
0
370
    30
100
AcDbLine
 10
36.4764671064584
 20
10.03639150504733
 30
0.0
 11
36.44146710645841
 21
10.00945360827074
 31
0.0
  0
LINE
  5
6160
330
1E
100
AcDbEntity
  8
0
370
    30
100
AcDbLine
 10
36.44146710645841
 20
10.00945360827074
 30
0.0
 11
36.4764671064584
 21
9.976391505047335
 31
0.0
  0
LINE
  5
6161
330
1E
100
AcDbEntity
  8
HIDDEN
370
    30
100
AcDbLine
 10
36.47646713100548
 20
10.15639148457585
 30
0.0
 11
37.1764671310055
 21
10.09514942010772
 31
0.0
  0
LINE
  5
6162
330
1E
100
AcDbEntity
  8
HIDDEN
370
    30
100
AcDbLine
 10
36.47646713100548
 20
10.09639148457585
 30
0.0
 11
37.1764671310055
 21
10.03514942010771
 31
0.0
  0
LINE
  5
6163
330
1E
100
AcDbEntity
  8
HIDDEN
370
    30
100
AcDbLine
 10
36.47646713100548
 20
10.27639148457586
 30
0.0
 11
37.1764671310055
 21
10.21514942010771
 31
0.0
  0
LINE
  5
61B1
330
1E
100
AcDbEntity
  8
0
  6
HIDDEN2
100
AcDbLine
 10
46.25237710957197
 20
4.038180340575633
 30
0.0
 11
45.47224144180436
 21
4.038180340575632
 31
0.0
  0
LINE
  5
61B2
330
1E
100
AcDbEntity
  8
0
  6
HIDDEN2
100
AcDbLine
 10
46.25237710957197
 20
4.632869475710624
 30
0.0
 11
45.3416743002946
 21
4.632869475710623
 31
0.0
  0
LINE
  5
61B3
330
1E
100
AcDbEntity
  8
0
  6
DASHED
370
    30
100
AcDbLine
 10
42.46428124778183
 20
3.986112596852866
 30
0.0
 11
42.52552331224998
 21
4.686112596852876
 31
0.0
  0
LINE
  5
61B4
330
1E
100
AcDbEntity
  8
0
  6
DASHED
370
    30
100
AcDbLine
 10
42.40428124778182
 20
3.986112596852859
 30
0.0
 11
42.46552331224997
 21
4.686112596852876
 31
0.0
  0
LINE
  5
61B5
330
1E
100
AcDbEntity
  8
0
  6
DASHED
370
    30
100
AcDbLine
 10
42.34428124778182
 20
3.986112596852859
 30
0.0
 11
42.40552331224997
 21
4.686112596852868
 31
0.0
  0
LWPOLYLINE
  5
61B6
330
1E
100
AcDbEntity
  8
0
  6
DASHED
370
    30
100
AcDbPolyline
 90
        2
 70
     0
 43
0.0
 10
42.28728293152131
 20
4.687975354270765
 10
42.28718554438605
 20
3.982339146906216
  0
LINE
  5
61B7
330
1E
100
AcDbEntity
  8
0
370
    30
100
AcDbLine
 10
42.34428124778182
 20
3.986112596852859
 30
0.0
 11
42.37121914455842
 21
3.951112596852862
 31
0.0
  0
LINE
  5
61B8
330
1E
100
AcDbEntity
  8
0
370
    30
100
AcDbLine
 10
42.37121914455842
 20
3.951112596852862
 30
0.0
 11
42.40428124778182
 21
3.986112596852859
 31
0.0
  0
LINE
  5
61B9
330
1E
100
AcDbEntity
  8
0
370
    30
100
AcDbLine
 10
42.46428124778183
 20
3.986112596852859
 30
0.0
 11
42.49121914455843
 21
3.951112596852862
 31
0.0
  0
LINE
  5
61BA
330
1E
100
AcDbEntity
  8
0
370
    30
100
AcDbLine
 10
42.43121914455842
 20
3.951112596852862
 30
0.0
 11
42.46428124778183
 21
3.986112596852859
 31
0.0
  0
LINE
  5
61BB
330
1E
100
AcDbEntity
  8
0
370
    30
100
AcDbLine
 10
42.40428124778182
 20
3.986112596852859
 30
0.0
 11
42.43121914455842
 21
3.951112596852862
 31
0.0
  0
LINE
  5
61BC
330
1E
100
AcDbEntity
  8
HIDDEN
370
    30
100
AcDbLine
 10
42.76552331224998
 20
4.686112596852876
 30
0.0
 11
42.73858541547339
 21
4.721112596852865
 31
0.0
  0
LINE
  5
61BD
330
1E
100
AcDbEntity
  8
HIDDEN
370
    30
100
AcDbLine
 10
42.73858541547339
 20
4.721112596852865
 30
0.0
 11
42.70644346058982
 21
4.687086678618843
 31
0.0
  0
LINE
  5
61BE
330
1E
100
AcDbEntity
  8
HIDDEN
370
    30
100
AcDbLine
 10
42.73858541547339
 20
4.721112596852865
 30
0.0
 11
42.70644346058982
 21
4.687086678618843
 31
0.0
  0
LINE
  5
61BF
330
1E
100
AcDbEntity
  8
0
370
    30
100
AcDbLine
 10
42.46552331224997
 20
4.686112596852868
 30
0.0
 11
42.43858541547338
 21
4.721112596852865
 31
0.0
  0
LINE
  5
61C0
330
1E
100
AcDbEntity
  8
0
370
    30
100
AcDbLine
 10
42.43858541547338
 20
4.721112596852865
 30
0.0
 11
42.40552331224997
 21
4.686112596852868
 31
0.0
  0
LINE
  5
61C1
330
1E
100
AcDbEntity
  8
0
370
    30
100
AcDbLine
 10
42.40552331224997
 20
4.686112596852868
 30
0.0
 11
42.37858541547338
 21
4.721112596852865
 31
0.0
  0
LINE
  5
61D0
330
1E
100
AcDbEntity
  8
0
370
    30
100
AcDbLine
 10
42.82121914455842
 20
4.886112596852878
 30
0.0
 11
42.82121914455842
 21
3.78611259685287
 31
0.0
  0
LINE
  5
61D1
330
1E
100
AcDbEntity
  8
0
370
    30
100
AcDbLine
 10
42.67858541547338
 20
4.721112596852858
 30
0.0
 11
42.64441713983451
 21
4.687549829865613
 31
0.0
  0
LINE
  5
61D2
330
1E
100
AcDbEntity
  8
0
370
    30
100
AcDbLine
 10
42.70552331224997
 20
4.686112596852861
 30
0.0
 11
42.67858541547338
 21
4.721112596852858
 31
0.0
  0
LINE
  5
61D3
330
1E
100
AcDbEntity
  8
HIDDEN
370
    30
100
AcDbLine
 10
42.70428124778184
 20
3.986112596852859
 30
0.0
 11
42.73121914455843
 21
3.951112596852862
 31
0.0
  0
LINE
  5
61D4
330
1E
100
AcDbEntity
  8
HIDDEN
370
    30
100
AcDbLine
 10
42.73121914455843
 20
3.951112596852862
 30
0.0
 11
42.76428124778184
 21
3.986112596852859
 31
0.0
  0
LINE
  5
61D5
330
1E
100
AcDbEntity
  8
HIDDEN
370
    30
100
AcDbLine
 10
42.76428124778183
 20
3.986112596852859
 30
0.0
 11
42.79121914455843
 21
3.951112596852862
 31
0.0
  0
LINE
  5
61D6
330
1E
100
AcDbEntity
  8
HIDDEN
370
    30
100
AcDbLine
 10
42.79121914455843
 20
3.951112596852862
 30
0.0
 11
42.82121914455842
 21
3.982871012005848
 31
0.0
  0
LINE
  5
61D7
330
1E
100
AcDbEntity
  8
HIDDEN
370
    30
100
AcDbLine
 10
42.79858541547337
 20
4.721112596852851
 30
0.0
 11
42.76552331224996
 21
4.686112596852854
 31
0.0
  0
LINE
  5
61D8
330
1E
100
AcDbEntity
  8
HIDDEN
370
    30
100
AcDbLine
 10
42.82121914455842
 20
4.691704936538965
 30
0.0
 11
42.79858541547337
 21
4.721112596852851
 31
0.0
  0
LINE
  5
61D9
330
1E
100
AcDbEntity
  8
0
  6
DASHED
370
    30
100
AcDbLine
 10
42.76428124778184
 20
3.986112596852859
 30
0.0
 11
42.82121914455841
 21
4.636915735018366
 31
0.0
  0
LINE
  5
61DA
330
1E
100
AcDbEntity
  8
0
  6
DASHED
370
    30
100
AcDbLine
 10
42.64428124778183
 20
3.986112596852859
 30
0.0
 11
42.70552331224997
 21
4.686112596852868
 31
0.0
  0
LINE
  5
61DB
330
1E
100
AcDbEntity
  8
0
370
    30
100
AcDbLine
 10
42.82121914455842
 20
3.982871012005848
 30
0.0
 11
42.82121914455842
 21
4.691704936538965
 31
0.0
  0
LWPOLYLINE
  5
61DC
330
1E
100
AcDbEntity
  8
0
370
    30
100
AcDbPolyline
 90
        4
 70
     1
 43
0.0
 10
44.00371914455842
 20
3.792787974272403
 10
44.00371914455842
 20
4.881787974272402
 10
43.04921914455842
 20
4.881787974272402
 10
43.04921914455842
 20
3.792787974272403
  0
LWPOLYLINE
  5
61DD
330
1E
100
AcDbEntity
  8
0
370
    30
100
AcDbPolyline
 90
        4
 70
     1
 43
0.0
 10
43.04921914455842
 20
3.715037974272409
 10
43.04921914455842
 20
4.959537974272411
 10
42.82121914455842
 20
4.959537974272411
 10
42.82121914455842
 20
3.715037974272409
  0
LWPOLYLINE
  5
61DE
330
1E
100
AcDbEntity
  8
0
370
    30
100
AcDbPolyline
 90
        4
 70
     1
 43
0.0
 10
43.04921914455842
 20
3.997287974272406
 10
43.04921914455842
 20
4.677287974272406
 10
42.82121914455842
 20
4.677287974272406
 10
42.82121914455842
 20
3.997287974272406
  0
LINE
  5
61E1
330
1E
100
AcDbEntity
  8
0
370
    30
100
AcDbLine
 10
42.37858541547338
 20
4.721112596852865
 30
0.0
 11
42.34552331224998
 21
4.686112596852868
 31
0.0
  0
LINE
  5
61E2
330
1E
100
AcDbEntity
  8
0
370
    30
100
AcDbLine
 10
42.34552330398957
 20
4.686112588215177
 30
0.0
 11
42.31858540721296
 21
4.721112588215174
 31
0.0
  0
LINE
  5
61E3
330
1E
100
AcDbEntity
  8
0
370
    30
100
AcDbLine
 10
42.31858540721296
 20
4.721112588215174
 30
0.0
 11
42.28728293152131
 21
4.687975354270765
 31
0.0
  0
LINE
  5
61E4
330
1E
100
AcDbEntity
  8
0
370
    30
100
AcDbLine
 10
42.31121914455842
 20
3.951112596852862
 30
0.0
 11
42.34428124778182
 21
3.986112596852859
 31
0.0
  0
LINE
  5
61E5
330
1E
100
AcDbEntity
  8
0
370
    30
100
AcDbLine
 10
42.28718554438605
 20
3.982339146906216
 30
0.0
 11
42.31121914885746
 21
3.951112649771882
 31
0.0
  0
LINE
  5
61E6
330
1E
100
AcDbEntity
  8
0
  6
DASHED
370
    30
100
AcDbLine
 10
42.28719065476904
 20
4.019367356665949
 30
0.0
 11
42.34552330398957
 21
4.686112588215177
 31
0.0
  0
LINE
  5
61E9
330
1E
100
AcDbEntity
  8
0
370
    30
100
AcDbLine
 10
42.52428124778183
 20
3.986112596852859
 30
0.0
 11
42.55121914455843
 21
3.951112596852862
 31
0.0
  0
LINE
  5
61EA
330
1E
100
AcDbEntity
  8
0
370
    30
100
AcDbLine
 10
42.55121914455843
 20
3.951112596852862
 30
0.0
 11
42.58428124778183
 21
3.986112596852859
 31
0.0
  0
LINE
  5
61EB
330
1E
100
AcDbEntity
  8
0
370
    30
100
AcDbLine
 10
42.64428124778183
 20
3.986112596852859
 30
0.0
 11
42.67121914455843
 21
3.951112596852862
 31
0.0
  0
LINE
  5
61EC
330
1E
100
AcDbEntity
  8
0
370
    30
100
AcDbLine
 10
42.61121914455843
 20
3.951112596852862
 30
0.0
 11
42.64428124778183
 21
3.986112596852859
 31
0.0
  0
LINE
  5
61ED
330
1E
100
AcDbEntity
  8
0
370
    30
100
AcDbLine
 10
42.58428124778183
 20
3.986112596852859
 30
0.0
 11
42.61121914455843
 21
3.951112596852862
 31
0.0
  0
LINE
  5
61EE
330
1E
100
AcDbEntity
  8
0
370
    30
100
AcDbLine
 10
42.49121914455843
 20
3.951112596852862
 30
0.0
 11
42.52428124778183
 21
3.986112596852859
 31
0.0
  0
LINE
  5
61EF
330
1E
100
AcDbEntity
  8
0
370
    30
100
AcDbLine
 10
42.67121914455843
 20
3.951112596852862
 30
0.0
 11
42.70428124778184
 21
3.986112596852859
 31
0.0
  0
LINE
  5
61F0
330
1E
100
AcDbEntity
  8
0
370
    30
100
AcDbLine
 10
42.61858541547338
 20
4.721112596852872
 30
0.0
 11
42.58552331224997
 21
4.686112596852876
 31
0.0
  0
LINE
  5
61F1
330
1E
100
AcDbEntity
  8
0
370
    30
100
AcDbLine
 10
42.64552331224997
 20
4.686112596852876
 30
0.0
 11
42.61858541547338
 21
4.721112596852872
 31
0.0
  0
LINE
  5
61F2
330
1E
100
AcDbEntity
  8
0
370
    30
100
AcDbLine
 10
42.58552331224997
 20
4.686112596852876
 30
0.0
 11
42.55858541547338
 21
4.721112596852872
 31
0.0
  0
LINE
  5
61F3
330
1E
100
AcDbEntity
  8
0
370
    30
100
AcDbLine
 10
42.55858541547338
 20
4.721112596852872
 30
0.0
 11
42.52552331224998
 21
4.686112596852876
 31
0.0
  0
LINE
  5
61F4
330
1E
100
AcDbEntity
  8
0
370
    30
100
AcDbLine
 10
42.52552333272145
 20
4.68611262139996
 30
0.0
 11
42.49858543594486
 21
4.721112621399957
 31
0.0
  0
LINE
  5
61F5
330
1E
100
AcDbEntity
  8
0
370
    30
100
AcDbLine
 10
42.49858543594486
 20
4.721112621399957
 30
0.0
 11
42.46552333272145
 21
4.68611262139996
 31
0.0
  0
LINE
  5
61F6
330
1E
100
AcDbEntity
  8
0
  6
DASHED
370
    30
100
AcDbLine
 10
42.64552331224997
 20
4.686112596852876
 30
0.0
 11
42.58428124778183
 21
3.986112596852859
 31
0.0
  0
LINE
  5
61F7
330
1E
100
AcDbEntity
  8
0
  6
DASHED
370
    30
100
AcDbLine
 10
42.58552331224997
 20
4.686112596852876
 30
0.0
 11
42.52428124778183
 21
3.986112596852859
 31
0.0
  0
LINE
  5
61F8
330
1E
100
AcDbEntity
  8
0
  6
DASHED
370
    30
100
AcDbLine
 10
42.76552331224998
 20
4.686112596852876
 30
0.0
 11
42.70428124778184
 21
3.986112596852859
 31
0.0
  0
LINE
  5
6219
330
1E
100
AcDbEntity
  8
0
100
AcDbLine
 10
42.4759434605898
 20
4.471096257937257
 30
0.0
 11
42.4759434605898
 21
4.073358482348093
 31
0.0
  0
LINE
  5
621A
330
1E
100
AcDbEntity
  8
0
100
AcDbLine
 10
42.36594346058981
 20
4.83728797427241
 30
0.0
 11
42.36594346058981
 21
3.837287974272409
 31
0.0
  0
LINE
  5
621B
330
1E
100
AcDbEntity
  8
0
100
AcDbLine
 10
42.3509434605898
 20
4.747287974272406
 30
0.0
 11
42.3509434605898
 21
3.927287974272412
 31
0.0
  0
LINE
  5
621C
330
1E
100
AcDbEntity
  8
0
100
AcDbLine
 10
42.5287191445584
 20
3.774787974272409
 30
0.0
 11
42.4759434605898
 21
3.837287974272409
 31
0.0
  0
LINE
  5
621D
330
1E
100
AcDbEntity
  8
0
100
AcDbLine
 10
42.3509434605898
 20
3.927287974272412
 30
0.0
 11
42.37636012725647
 21
3.774787974272409
 31
0.0
  0
LINE
  5
621E
330
1E
100
AcDbEntity
  8
0
100
AcDbLine
 10
42.37636012725648
 20
3.774787974272409
 30
0.0
 11
42.5287191445584
 21
3.774787974272409
 31
0.0
  0
LINE
  5
621F
330
1E
100
AcDbEntity
  8
0
100
AcDbLine
 10
42.4037191445584
 20
3.947784798799356
 30
0.0
 11
42.5287191445584
 21
3.947784798799356
 31
0.0
  0
LINE
  5
6220
330
1E
100
AcDbEntity
  8
0
100
AcDbLine
 10
42.36594346058981
 20
4.164291149745461
 30
0.0
 11
42.4759434605898
 21
4.164291149745461
 31
0.0
  0
LINE
  5
6221
330
1E
100
AcDbEntity
  8
0
100
AcDbLine
 10
42.36594346058981
 20
4.20347969060749
 30
0.0
 11
42.4759434605898
 21
4.20347969060749
 31
0.0
  0
LINE
  5
6222
330
1E
100
AcDbEntity
  8
0
100
AcDbLine
 10
42.36594346058981
 20
3.837287974272409
 30
0.0
 11
42.4759434605898
 21
3.837287974272409
 31
0.0
  0
LINE
  5
6223
330
1E
100
AcDbEntity
  8
0
100
AcDbLine
 10
42.5287191445584
 20
3.947784798799356
 30
0.0
 11
42.4759434605898
 21
4.073358482348093
 31
0.0
  0
LINE
  5
6224
330
1E
100
AcDbEntity
  8
0
100
AcDbLine
 10
42.4759434605898
 20
3.947784798799356
 30
0.0
 11
42.4759434605898
 21
3.837287974272409
 31
0.0
  0
LINE
  5
6225
330
1E
100
AcDbEntity
  8
0
100
AcDbLine
 10
42.4037191445584
 20
3.947784798799356
 30
0.0
 11
42.36594346058981
 21
3.986973339661385
 31
0.0
  0
LINE
  5
6226
330
1E
100
AcDbEntity
  8
0
100
AcDbLine
 10
42.4037191445584
 20
3.947784798799356
 30
0.0
 11
42.36594346058981
 21
4.037667703724504
 31
0.0
  0
LINE
  5
6227
330
1E
100
AcDbEntity
  8
0
100
AcDbLine
 10
42.37636012725647
 20
4.899787974272395
 30
0.0
 11
42.5287191445584
 21
4.89978797427241
 31
0.0
  0
LINE
  5
6228
330
1E
100
AcDbEntity
  8
0
100
AcDbLine
 10
42.36594346058981
 20
4.471096257937257
 30
0.0
 11
42.4759434605898
 21
4.471096257937257
 31
0.0
  0
LINE
  5
6229
330
1E
100
AcDbEntity
  8
0
100
AcDbLine
 10
42.40371914455839
 20
4.510284798799356
 30
0.0
 11
42.5287191445584
 21
4.510284798799356
 31
0.0
  0
LINE
  5
622A
330
1E
100
AcDbEntity
  8
0
100
AcDbLine
 10
42.36594346058981
 20
4.726791149745462
 30
0.0
 11
42.4759434605898
 21
4.726791149745462
 31
0.0
  0
LINE
  5
622B
330
1E
100
AcDbEntity
  8
0
100
AcDbLine
 10
42.36594346058981
 20
4.83728797427241
 30
0.0
 11
42.4759434605898
 21
4.83728797427241
 31
0.0
  0
LINE
  5
622C
330
1E
100
AcDbEntity
  8
0
100
AcDbLine
 10
42.4759434605898
 20
4.635858482348094
 30
0.0
 11
42.5287191445584
 21
4.510284798799356
 31
0.0
  0
LINE
  5
622D
330
1E
100
AcDbEntity
  8
0
100
AcDbLine
 10
42.4759434605898
 20
4.83728797427241
 30
0.0
 11
42.5287191445584
 21
4.89978797427241
 31
0.0
  0
LINE
  5
622E
330
1E
100
AcDbEntity
  8
0
100
AcDbLine
 10
42.4759434605898
 20
4.726791149745462
 30
0.0
 11
42.4759434605898
 21
4.635858482348094
 31
0.0
  0
LINE
  5
622F
330
1E
100
AcDbEntity
  8
0
100
AcDbLine
 10
42.4759434605898
 20
4.83728797427241
 30
0.0
 11
42.4759434605898
 21
4.726791149745462
 31
0.0
  0
LINE
  5
6230
330
1E
100
AcDbEntity
  8
HIDDEN
100
AcDbLine
 10
42.5287191445584
 20
4.510284798799356
 30
0.0
 11
42.4759434605898
 21
4.471096257937257
 31
0.0
  0
LINE
  5
6231
330
1E
100
AcDbEntity
  8
0
100
AcDbLine
 10
42.36594346058981
 20
4.635858482348094
 30
0.0
 11
42.4037191445584
 21
4.510284798799356
 31
0.0
  0
LINE
  5
6232
330
1E
100
AcDbEntity
  8
0
100
AcDbLine
 10
42.3509434605898
 20
4.747287974272406
 30
0.0
 11
42.37636012725648
 21
4.89978797427241
 31
0.0
  0
LINE
  5
6233
330
1E
100
AcDbEntity
  8
0
100
AcDbLine
 10
42.4037191445584
 20
4.510284798799356
 30
0.0
 11
42.36594346058981
 21
4.471096257937257
 31
0.0
  0
LINE
  5
6261
330
1E
100
AcDbEntity
  8
0
100
AcDbLine
 10
45.27274712078254
 20
4.780684289185483
 30
0.0
 11
45.70737710957197
 21
4.780684289185479
 31
0.0
  0
LINE
  5
6262
330
1E
100
AcDbEntity
  8
0
100
AcDbLine
 10
45.70737710957197
 20
3.893891659359301
 30
0.0
 11
45.53952435884062
 21
3.893891659359301
 31
0.0
  0
LINE
  5
6264
330
1E
100
AcDbEntity
  8
0
100
AcDbLine
 10
45.32446972688357
 20
4.355077805878838
 30
0.0
 11
45.62879861348125
 21
3.702442402459158
 31
0.0
  0
LINE
  5
6266
330
1E
100
AcDbEntity
  8
0
100
AcDbLine
 10
44.00371914455842
 20
4.780684289185504
 30
0.0
 11
44.00371914455843
 21
3.893891659359301
 31
0.0
  0
LINE
  5
6267
330
1E
100
AcDbEntity
  8
0
100
AcDbLine
 10
45.12053079840067
 20
4.379461588846599
 30
0.0
 11
45.42485968499835
 21
3.726826185426919
 31
0.0
  0
LINE
  5
6268
330
1E
100
AcDbEntity
  8
0
100
AcDbLine
 10
45.34695577509038
 20
3.893891659359301
 30
0.0
 11
44.00371914455843
 21
3.893891659359301
 31
0.0
  0
LINE
  5
6269
330
1E
100
AcDbEntity
  8
0
100
AcDbLine
 10
44.29554854824291
 20
4.780684289185476
 30
0.0
 11
44.00371914455843
 21
4.780684289185504
 31
0.0
  0
LINE
  5
626A
330
1E
100
AcDbEntity
  8
0
100
AcDbLine
 10
44.00371914455843
 20
4.780684289185504
 30
0.0
 11
45.08017853703231
 21
4.780684289185476
 31
0.0
  0
LINE
  5
626B
330
1E
100
AcDbEntity
  8
0
100
AcDbLine
 10
45.26727175482594
 20
4.379461588846599
 30
0.0
 11
45.12053079840067
 21
4.379461588846599
 31
0.0
  0
LINE
  5
626C
330
1E
100
AcDbEntity
  8
0
100
AcDbLine
 10
45.47121068330884
 20
4.355077805878838
 30
0.0
 11
45.32446972688357
 21
4.355077805878838
 31
0.0
  0
LINE
  5
626D
330
1E
100
AcDbEntity
  8
0
100
AcDbLine
 10
44.98918462235324
 20
4.975821368938969
 30
0.0
 11
45.26727175482594
 21
4.379461588846599
 31
0.0
  0
LINE
  5
626E
330
1E
100
AcDbEntity
  8
0
100
AcDbLine
 10
45.19312355083614
 20
4.951437585971209
 30
0.0
 11
45.47121068330884
 21
4.355077805878838
 31
0.0
  0
LINE
  5
626F
330
1E
100
AcDbEntity
  8
0
100
AcDbLine
 10
46.25237710957197
 20
4.780684289185504
 30
0.0
 11
46.25237710957197
 21
3.893891659359301
 31
0.0
  0
LINE
  5
6271
330
1E
100
AcDbEntity
  8
0
100
AcDbLine
 10
46.25237710957197
 20
3.893891659359301
 30
0.0
 11
46.05737710957198
 21
3.893891659359301
 31
0.0
  0
LINE
  5
6272
330
1E
100
AcDbEntity
  8
0
100
AcDbLine
 10
45.95237710957198
 20
4.038180340575647
 30
0.0
 11
45.95237710957198
 21
3.893891659359301
 31
0.0
  0
LINE
  5
6273
330
1E
100
AcDbEntity
  8
0
100
AcDbLine
 10
45.81237710957196
 20
4.038180340575633
 30
0.0
 11
45.81237710957196
 21
3.893891659359301
 31
0.0
  0
LINE
  5
6274
330
1E
100
AcDbEntity
  8
0
100
AcDbLine
 10
45.70737710957196
 20
4.038180340575633
 30
0.0
 11
45.70737710957196
 21
3.893891659359304
 31
0.0
  0
LINE
  5
6275
330
1E
100
AcDbEntity
  8
0
100
AcDbLine
 10
45.95237710957198
 20
3.893891659359304
 30
0.0
 11
45.81237710957197
 21
3.893891659359301
 31
0.0
  0
LINE
  5
6276
330
1E
100
AcDbEntity
  8
0
  6
Continuous
370
    30
100
AcDbLine
 10
45.81237710957196
 20
4.038180340575633
 30
0.0
 11
45.70737710957196
 21
4.038180340575661
 31
0.0
  0
LINE
  5
6278
330
1E
100
AcDbEntity
  8
0
100
AcDbLine
 10
46.05737710957195
 20
4.038180340575633
 30
0.0
 11
46.05737710957196
 21
3.893891659359304
 31
0.0
  0
LINE
  5
6279
330
1E
100
AcDbEntity
  8
0
  6
Continuous
370
    30
100
AcDbLine
 10
46.05737710957198
 20
4.038180340575633
 30
0.0
 11
45.95237710957198
 21
4.038180340575647
 31
0.0
  0
LINE
  5
627A
330
1E
100
AcDbEntity
  8
0
100
AcDbLine
 10
46.05737710957197
 20
4.780684289185479
 30
0.0
 11
46.25237710957194
 21
4.780684289185476
 31
0.0
  0
LINE
  5
627C
330
1E
100
AcDbEntity
  8
0
100
AcDbLine
 10
46.25237710957194
 20
4.780684289185476
 30
0.0
 11
46.05737710957198
 21
4.780684289185476
 31
0.0
  0
LINE
  5
627D
330
1E
100
AcDbEntity
  8
0
100
AcDbLine
 10
45.95237710957197
 20
4.780684289185476
 30
0.0
 11
45.81237710957197
 21
4.780684289185476
 31
0.0
  0
LINE
  5
627E
330
1E
100
AcDbEntity
  8
0
100
AcDbLine
 10
45.81237710957196
 20
4.780684289185479
 30
0.0
 11
45.95237710957198
 21
4.780684289185479
 31
0.0
  0
LINE
  5
627F
330
1E
100
AcDbEntity
  8
0
  6
Continuous
370
    30
100
AcDbLine
 10
45.81237710957197
 20
4.632869475710624
 30
0.0
 11
45.70737710957197
 21
4.632869475710624
 31
0.0
  0
LINE
  5
6281
330
1E
100
AcDbEntity
  8
0
100
AcDbLine
 10
45.81237710957196
 20
4.780684289185479
 30
0.0
 11
45.81237710957197
 21
4.632869475710624
 31
0.0
  0
LINE
  5
6282
330
1E
100
AcDbEntity
  8
0
100
AcDbLine
 10
45.70737710957197
 20
4.780684289185479
 30
0.0
 11
45.70737710957196
 21
4.632869475710624
 31
0.0
  0
LINE
  5
6283
330
1E
100
AcDbEntity
  8
0
100
AcDbLine
 10
45.95237710957198
 20
4.780684289185479
 30
0.0
 11
45.95237710957198
 21
4.632869475710624
 31
0.0
  0
LINE
  5
6284
330
1E
100
AcDbEntity
  8
0
100
AcDbLine
 10
46.05737710957197
 20
4.780684289185476
 30
0.0
 11
46.05737710957197
 21
4.632869475710624
 31
0.0
  0
LINE
  5
6285
330
1E
100
AcDbEntity
  8
0
  6
Continuous
370
    30
100
AcDbLine
 10
46.05737710957197
 20
4.632869475710624
 30
0.0
 11
45.95237710957198
 21
4.632869475710624
 31
0.0
  0
LINE
  5
628E
330
1E
100
AcDbEntity
  8
HIDDEN
370
    30
100
AcDbLine
 10
42.48721914455841
 20
2.617287974272411
 30
0.0
 11
41.22621914455841
 21
2.617287974272411
 31
0.0
  0
LINE
  5
628F
330
1E
100
AcDbEntity
  8
HIDDEN
370
    30
100
AcDbLine
 10
42.48721914455841
 20
2.947287974272409
 30
0.0
 11
41.22621914455842
 21
2.947287974272409
 31
0.0
  0
LINE
  5
6290
330
1E
100
AcDbEntity
  8
HIDDEN
370
    30
100
AcDbLine
 10
42.48721914455841
 20
2.617287974272411
 30
0.0
 11
42.48721914455839
 21
2.947287974272406
 31
0.0
  0
LINE
  5
633E
330
1E
100
AcDbEntity
  8
0
370
    30
100
AcDbLine
 10
36.38189543867286
 20
11.5145873168843
 30
0.0
 11
37.26868806849906
 21
11.5145873168843
 31
0.0
  0
LINE
  5
63A6
330
1E
100
AcDbEntity
  8
0
  6
Continuous
370
    30
100
AcDbLine
 10
35.55029175358596
 20
10.2695873168843
 30
0.0
 11
38.10029175358597
 21
10.2695873168843
 31
0.0
  0
LINE
  5
63A7
330
1E
100
AcDbEntity
  8
0
  6
Continuous
370
    30
100
AcDbLine
 10
38.10029175358597
 20
10.2695873168843
 30
0.0
 11
38.10029175358597
 21
8.737087316884302
 31
0.0
  0
LINE
  5
63A8
330
1E
100
AcDbEntity
  8
0
  6
Continuous
370
    30
100
AcDbLine
 10
35.55029175358596
 20
8.737087316884302
 30
0.0
 11
35.55029175358596
 21
10.2695873168843
 31
0.0
  0
LINE
  5
63A9
330
1E
100
AcDbEntity
  8
0
  6
Continuous
370
    30
100
AcDbLine
 10
38.10029175358597
 20
8.737087316884309
 30
0.0
 11
35.55029175358596
 21
8.737087316884302
 31
0.0
  0
LINE
  5
63AA
330
1E
100
AcDbEntity
  8
HIDDEN
370
    30
100
AcDbLine
 10
38.02029175358598
 20
8.65208731688428
 30
0.0
 11
35.63029175358597
 21
8.652087316884294
 31
0.0
  0
LINE
  5
63AB
330
1E
100
AcDbEntity
  8
0
  6
Continuous
370
    30
100
AcDbLine
 10
38.10029175358597
 20
8.737087316884302
 30
0.0
 11
35.55029175358596
 21
8.737087316884295
 31
0.0
  0
LINE
  5
63AC
330
1E
100
AcDbEntity
  8
0
  6
Continuous
370
    30
100
AcDbLine
 10
38.10029175358598
 20
8.137087316884294
 30
0.0
 11
38.10029175358599
 21
8.715587316884304
 31
0.0
  0
LINE
  5
63AD
330
1E
100
AcDbEntity
  8
HIDDEN
370
    30
100
AcDbLine
 10
38.02029175358598
 20
8.737087316884295
 30
0.0
 11
38.02029175358598
 21
8.652087316884287
 31
0.0
  0
LINE
  5
63AE
330
1E
100
AcDbEntity
  8
HIDDEN
370
    30
100
AcDbLine
 10
35.63029175358596
 20
8.737087316884295
 30
0.0
 11
35.63029175358596
 21
8.652087316884287
 31
0.0
  0
LINE
  5
63B0
330
1E
100
AcDbEntity
  8
0
370
    30
100
AcDbLine
 10
35.67029175358593
 20
10.3320873168843
 30
0.0
 11
37.98029175358598
 21
10.3320873168843
 31
0.0
  0
LINE
  5
63B1
330
1E
100
AcDbEntity
  8
0
370
    30
100
AcDbLine
 10
37.98029175358598
 20
10.3320873168843
 30
0.0
 11
37.98029175358598
 21
10.2695873168843
 31
0.0
  0
LINE
  5
63B2
330
1E
100
AcDbEntity
  8
0
370
    30
100
AcDbLine
 10
35.67029175358593
 20
10.3320873168843
 30
0.0
 11
35.67029175358593
 21
10.2695873168843
 31
0.0
  0
MTEXT
  5
63B3
330
1E
100
AcDbEntity
  8
0
370
    30
100
AcDbMText
 10
33.23541083627497
 20
10.32980791791068
 30
0.0
 40
0.2
 41
3.3744
 71
     1
 72
     5
  1
{\fTimes New Roman|b1|i0|c0|p18;End View:}
 73
     1
 44
1.0
  0
CIRCLE
  5
63B4
330
1E
100
AcDbEntity
  8
0
  6
Continuous
370
    30
100
AcDbCircle
 10
36.82529175358596
 20
9.507087316884305
 30
0.0
 40
0.4600000000000001
  0
CIRCLE
  5
63B5
330
1E
100
AcDbEntity
  8
0
  6
Continuous
370
    30
100
AcDbCircle
 10
36.82529175358596
 20
9.507087316884305
 30
0.0
 40
0.4185000000000001
  0
CIRCLE
  5
63B6
330
1E
100
AcDbEntity
  8
0
  6
Continuous
370
    30
100
AcDbCircle
 10
36.82529175358596
 20
9.507087316884305
 30
0.0
 40
0.375
  0
CIRCLE
  5
63B7
330
1E
100
AcDbEntity
  8
0
  6
Continuous
370
    30
100
AcDbCircle
 10
36.82529175358596
 20
9.507087316884305
 30
0.0
 40
0.335
  0
DIMENSION
  5
63B8
330
1E
100
AcDbEntity
  8
0
370
    30
100
AcDbDimension
  2
*D78
 10
38.73170582342333
 20
8.115587316884294
 30
0.0
 11
38.73170582342333
 21
9.222032321101247
 31
0.0
 70
    32
  1
2.23" (56.62mm)
 71
     5
 42
2.212890008433891
  3
DIM STYLE 1
100
AcDbAlignedDimension
 13
37.98179857752035
 23
10.32847732531818
 33
0.0
 14
38.10029175358598
 24
8.115587316884294
 34
0.0
 50
90.0
100
AcDbRotatedDimension
  0
LINE
  5
63B9
330
1E
100
AcDbEntity
  8
HIDDEN
370
    30
100
AcDbLine
 10
35.93779175358596
 20
10.03958733406331
 30
0.0
 11
35.93779175358596
 21
10.26958733406331
 31
0.0
  0
LINE
  5
63BA
330
1E
100
AcDbEntity
  8
HIDDEN
370
    30
100
AcDbLine
 10
37.71279175358596
 20
10.03958733406331
 30
0.0
 11
37.71279175358596
 21
10.26958733406331
 31
0.0
  0
LINE
  5
63BB
330
1E
100
AcDbEntity
  8
HIDDEN
370
    30
100
AcDbLine
 10
35.55029175358595
 20
10.14958733406331
 30
0.0
 11
35.93779175358596
 21
10.14958733406331
 31
0.0
  0
LINE
  5
63BC
330
1E
100
AcDbEntity
  8
HIDDEN
370
    30
100
AcDbLine
 10
37.71279175358596
 20
10.03958733406331
 30
0.0
 11
35.93779175358596
 21
10.03958733406331
 31
0.0
  0
LINE
  5
63BD
330
1E
100
AcDbEntity
  8
HIDDEN
370
    30
100
AcDbLine
 10
37.71279175358596
 20
10.14958733406331
 30
0.0
 11
38.10029175358597
 21
10.14958733406331
 31
0.0
  0
LINE
  5
63BE
330
1E
100
AcDbEntity
  8
HIDDEN
370
    30
100
AcDbLine
 10
37.97029175358598
 20
9.998087316884301
 30
0.0
 11
37.97029175358598
 21
8.715587316884302
 31
0.0
  0
LINE
  5
63BF
330
1E
100
AcDbEntity
  8
HIDDEN
370
    30
100
AcDbLine
 10
37.64029175358599
 20
9.998087316884301
 30
0.0
 11
37.64029175358599
 21
8.715587316884302
 31
0.0
  0
LINE
  5
63C0
330
1E
100
AcDbEntity
  8
HIDDEN
370
    30
100
AcDbLine
 10
37.64029175358599
 20
9.998087316884301
 30
0.0
 11
37.97029175358598
 21
9.998087316884294
 31
0.0
  0
LINE
  5
63C1
330
1E
100
AcDbEntity
  8
HIDDEN
370
    30
100
AcDbLine
 10
35.68029175358597
 20
9.998087316884308
 30
0.0
 11
35.68029175358597
 21
8.715587316884306
 31
0.0
  0
LINE
  5
63C2
330
1E
100
AcDbEntity
  8
HIDDEN
370
    30
100
AcDbLine
 10
36.01029175358597
 20
9.998087316884308
 30
0.0
 11
36.01029175358597
 21
8.715587316884306
 31
0.0
  0
LINE
  5
63C3
330
1E
100
AcDbEntity
  8
HIDDEN
370
    30
100
AcDbLine
 10
35.68029175358597
 20
9.998087316884301
 30
0.0
 11
36.01029175358597
 21
9.998087316884308
 31
0.0
  0
LINE
  5
63C4
330
1E
100
AcDbEntity
  8
0
  6
Continuous
370
    30
100
AcDbLine
 10
35.55029175358597
 20
8.115587316884294
 30
0.0
 11
38.10029175358598
 21
8.115587316884294
 31
0.0
  0
LINE
  5
63C5
330
1E
100
AcDbEntity
  8
0
  6
Continuous
370
    30
100
AcDbLine
 10
38.10029175358598
 20
8.715587316884302
 30
0.0
 11
35.55029175358597
 21
8.715587316884295
 31
0.0
  0
LINE
  5
63C6
330
1E
100
AcDbEntity
  8
HIDDEN
100
AcDbLine
 10
38.02029175358599
 20
8.475587316884293
 30
0.0
 11
38.02029175358599
 21
8.115587316884294
 31
0.0
  0
LINE
  5
63C7
330
1E
100
AcDbEntity
  8
HIDDEN
100
AcDbLine
 10
37.59029175358598
 20
8.475587316884293
 30
0.0
 11
37.59029175358598
 21
8.115587316884294
 31
0.0
  0
LINE
  5
63C8
330
1E
100
AcDbEntity
  8
0
  6
Continuous
370
    30
100
AcDbLine
 10
38.10029175358599
 20
8.137087316884286
 30
0.0
 11
38.10029175358599
 21
8.715587316884302
 31
0.0
  0
LINE
  5
63C9
330
1E
100
AcDbEntity
  8
HIDDEN
370
    30
100
AcDbLine
 10
37.97029175358598
 20
8.715587316884295
 30
0.0
 11
37.97029175358599
 21
8.475587316884293
 31
0.0
  0
LINE
  5
63CA
330
1E
100
AcDbEntity
  8
HIDDEN
370
    30
100
AcDbLine
 10
37.64029175358599
 20
8.715587316884295
 30
0.0
 11
37.64029175358599
 21
8.475587316884293
 31
0.0
  0
LINE
  5
63CB
330
1E
100
AcDbEntity
  8
HIDDEN
100
AcDbLine
 10
37.59029175358598
 20
8.475587316884293
 30
0.0
 11
38.02029175358599
 21
8.475587316884293
 31
0.0
  0
LINE
  5
63CC
330
1E
100
AcDbEntity
  8
HIDDEN
100
AcDbLine
 10
35.63029175358598
 20
8.475587316884301
 30
0.0
 11
35.63029175358598
 21
8.115587316884294
 31
0.0
  0
LINE
  5
63CD
330
1E
100
AcDbEntity
  8
HIDDEN
100
AcDbLine
 10
36.06029175358597
 20
8.475587316884301
 30
0.0
 11
36.06029175358597
 21
8.115587316884294
 31
0.0
  0
LINE
  5
63CE
330
1E
100
AcDbEntity
  8
0
  6
Continuous
370
    30
100
AcDbLine
 10
35.55029175358597
 20
8.715587316884295
 30
0.0
 11
35.55029175358597
 21
8.115587316884294
 31
0.0
  0
LINE
  5
63CF
330
1E
100
AcDbEntity
  8
HIDDEN
370
    30
100
AcDbLine
 10
35.68029175358597
 20
8.715587316884302
 30
0.0
 11
35.68029175358597
 21
8.475587316884293
 31
0.0
  0
LINE
  5
63D0
330
1E
100
AcDbEntity
  8
HIDDEN
370
    30
100
AcDbLine
 10
36.01029175358597
 20
8.715587316884302
 30
0.0
 11
36.01029175358597
 21
8.475587316884293
 31
0.0
  0
LINE
  5
63D1
330
1E
100
AcDbEntity
  8
HIDDEN
100
AcDbLine
 10
35.63029175358598
 20
8.475587316884293
 30
0.0
 11
36.06029175358597
 21
8.475587316884293
 31
0.0
  0
LINE
  5
63D2
330
1E
100
AcDbEntity
  8
0
370
    30
100
AcDbLine
 10
38.10029175358599
 20
8.715587316884304
 30
0.0
 11
38.10029175358598
 21
8.115587316884294
 31
0.0
  0
DIMENSION
  5
63D3
330
1E
100
AcDbEntity
  8
0
370
    30
100
AcDbDimension
  2
*D79
 10
36.82529175358596
 20
7.915229086271875
 30
0.0
 11
37.46279175358597
 21
7.915229086271875
 31
0.0
 70
    32
  1
1.27" (32.35mm)
 71
     5
 42
1.275000000000019
  3
DIM STYLE 1
100
AcDbAlignedDimension
 13
38.10029175358598
 23
8.115587316884294
 33
0.0
 14
36.82529175358596
 24
9.507087316884305
 34
0.0
100
AcDbRotatedDimension
  0
DIMENSION
  5
63D4
330
1E
100
AcDbEntity
  8
0
370
    30
100
AcDbDimension
  2
*D80
 10
34.99294061924579
 20
9.507087316884307
 30
0.0
 11
34.99294061924579
 21
9.919587316884312
 31
0.0
 70
    32
  1
0.78" (19.80mm)
 71
     5
 42
0.825000000000001
  3
DIM STYLE 1
100
AcDbAlignedDimension
 13
35.67029175358593
 23
10.3320873168843
 33
0.0
 14
36.82529175358596
 24
9.507087316884305
 34
0.0
 50
90.0
100
AcDbRotatedDimension
  0
LINE
  5
647F
330
1E
100
AcDbEntity
  8
0
370
    30
100
AcDbLine
 10
36.82529175358595
 20
10.56008731688431
 30
0.0
 11
36.82529175358595
 21
10.3320873168843
 31
0.0
  0
LINE
  5
653A
330
1E
100
AcDbEntity
  8
0
  6
HIDDEN2
100
AcDbLine
 10
45.14910571654437
 20
4.632869475710623
 30
0.0
 11
42.82121914455842
 21
4.632869475710624
 31
0.0
  0
LINE
  5
653B
330
1E
100
AcDbEntity
  8
0
  6
HIDDEN2
100
AcDbLine
 10
45.27967285805412
 20
4.038180340575632
 30
0.0
 11
42.82121914455842
 21
4.038180340575632
 31
0.0
  0
LINE
  5
653C
330
1E
100
AcDbEntity
  8
0
  6
HIDDEN2
100
AcDbLine
 10
36.52853487472823
 20
12.00494556066457
 30
0.0
 11
36.52853487472823
 21
10.3320873168843
 31
0.0
  0
LINE
  5
653D
330
1E
100
AcDbEntity
  8
0
  6
HIDDEN2
100
AcDbLine
 10
37.12439938728273
 20
11.87299174477606
 30
0.0
 11
37.12439938728273
 21
10.3320873168843
 31
0.0
  0
VIEWPORT
  5
3698
330
3697
100
AcDbEntity
 67
     1
  8
0
  6
Continuous
100
AcDbViewport
 10
6.513988769471023
 20
4.164596165380549
 30
0.0
 40
15.84517334298313
 41
9.449113059217065
 68
     1
 69
     1
 12
6.513988769471023
 22
4.164596165380549
 13
0.0
 23
0.0
 14
0.05
 24
0.05
 15
0.1
 25
0.1
 16
0.0
 26
0.0
 36
1.0
 17
0.0
 27
0.0
 37
0.0
 42
50.0
 43
0.0
 44
0.0
 45
9.449113059217065
 50
0.0
 51
0.0
 72
   100
 90
    32800
  1

281
     0
 71
     1
 74
     0
110
0.0
120
0.0
130
0.0
111
1.0
121
0.0
131
0.0
112
0.0
122
1.0
132
0.0
 79
     0
146
0.0
  0
VIEWPORT
  5
3699
330
3697
100
AcDbEntity
 67
     1
  8
Viewport Layer
  6
Continuous
100
AcDbViewport
 10
5.375
 20
4.799999999999999
 30
0.0
 40
10.55
 41
6.599999999999999
 68
     2
 69
     2
 12
38.62474688261205
 22
7.842215668253788
 13
0.0
 23
0.0
 14
1.0
 24
1.0
 15
0.0
 25
0.0
 16
0.0
 26
0.0
 36
1.0
 17
0.0
 27
0.0
 37
0.0
 42
50.0
 43
0.0
 44
0.0
 45
11.93636302298507
 50
0.0
 51
0.0
 72
   100
 90
    32800
  1

281
     0
 71
     1
 74
     0
110
0.0
120
0.0
130
0.0
111
1.0
121
0.0
131
0.0
112
0.0
122
1.0
132
0.0
 79
     0
146
0.0
  0
LINE
  5
37DD
330
3697
100
AcDbEntity
 67
     1
  8
0
  6
Continuous
370
    30
100
AcDbLine
 10
10.74999999999999
 20
0.35
 30
0.0
 11
2.6
 21
0.35
 31
0.0
  0
LINE
  5
37DE
330
3697
100
AcDbEntity
 67
     1
  8
0
  6
Continuous
370
    30
100
AcDbLine
 10
10.74999999381128
 20
0.54999999669137
 30
0.0
 11
2.599999993811282
 21
0.54999999669137
 31
0.0
  0
MTEXT
  5
37DF
330
3697
100
AcDbEntity
 67
     1
  8
0
  6
Continuous
370
    30
100
AcDbMText
 10
5.0
 20
1.199999999999999
 30
0.0
 40
0.075
 41
1.599999999999999
 71
     1
 72
     5
  1
{\fCourier New|b0|i0|c0|p49;CONFIDENTIAL INFORMATION-- PROPERTY OF ACI. UNAUTHORIZED USE STRICTLY FORBIDDEN.}
 73
     1
 44
1.0
  0
MTEXT
  5
37E0
330
3697
100
AcDbEntity
 67
     1
  8
0
  6
Continuous
370
    30
100
AcDbMText
 10
4.9
 20
1.35
 30
0.0
 40
0.075
 41
1.9
 71
     1
 72
     5
  1
{\fArial|b0|i0|c0|p34;WARNING!}
 73
     1
 44
1.0
  0
LINE
  5
37E1
330
3697
100
AcDbEntity
 67
     1
  8
0
  6
Continuous
370
    30
100
AcDbLine
 10
10.74999999999999
 20
1.4
 30
0.0
 11
2.599999999999999
 21
1.4
 31
0.0
  0
MTEXT
  5
37E2
330
3697
100
AcDbEntity
 67
     1
  8
0
  6
Continuous
370
    30
100
AcDbMText
 10
0.3185064118596195
 20
0.1000000000000001
 30
0.0
 40
0.075
 41
2.911799999999999
 71
     1
 72
     5
  1
{\fArial|b0|i0|c0|p34;PART SPECIFICATION FORM   REV 5   DATE: 07-12-07}
 73
     1
 44
1.0
  0
MTEXT
  5
37E4
330
3697
100
AcDbEntity
 67
     1
  8
0
  6
Continuous
370
    30
100
AcDbMText
 10
2.8
 20
1.199999999999999
 30
0.0
 40
0.075
 41
2.0
 71
     1
 72
     5
  1
{\fCourier New|b0|i0|c0|p49;3 PLACE DECIMAL = ±0.010\P2 PLACE DECIMAL = ±0.130\P1 PLACE DECIMAL = ±0.300\PALL DIMENSIONS IN in[mm].\PDRAWING NOT TO SCALE.}
 73
     1
 44
1.0
  0
MTEXT
  5
37E5
330
3697
100
AcDbEntity
 67
     1
  8
0
  6
Continuous
370
    30
100
AcDbMText
 10
2.699999999999999
 20
1.35
 30
0.0
 40
0.075
 41
2.1
 71
     1
 72
     5
  1
{\fArial|b0|i0|c0|p34;TOLERANCE: (UNLESS NOTED)}
 73
     1
 44
1.0
  0
MTEXT
  5
37E6
330
3697
100
AcDbEntity
 67
     1
  8
0
  6
Continuous
370
    30
100
AcDbMText
 10
2.7
 20
0.5
 30
0.0
 40
0.075
 41
0.4499999938112829
 71
     1
 72
     5
  1
{\fArial|b0|i0|c0|p34;DATE}
 73
     1
 44
1.0
  0
MTEXT
  5
37E7
330
3697
100
AcDbEntity
 67
     1
  8
0
  6
Continuous
370
    30
100
AcDbMText
 10
2.7
 20
0.3
 30
0.0
 40
0.075
 41
0.95
 71
     1
 72
     5
  1
{\fCourier New|b0|i0|c0|p49;2-20-08}
 73
     1
 44
1.0
  0
LINE
  5
37E8
330
3697
100
AcDbEntity
 67
     1
  8
0
  6
Continuous
370
    30
100
AcDbLine
 10
2.6
 20
1.4
 30
0.0
 11
2.599999999999999
 21
0.55
 31
0.0
  0
LINE
  5
37E9
330
3697
100
AcDbEntity
 67
     1
  8
0
  6
Continuous
370
    30
100
AcDbLine
 10
2.6
 20
0.55
 30
0.0
 11
2.599999999999999
 21
0.1499999999999999
 31
0.0
  0
LINE
  5
37EA
330
3697
100
AcDbEntity
 67
     1
  8
0
  6
Continuous
370
    30
100
AcDbLine
 10
3.65
 20
0.55
 30
0.0
 11
3.649999993811282
 21
0.1499999966913699
 31
0.0
  0
MTEXT
  5
37EB
330
3697
100
AcDbEntity
 67
     1
  8
0
  6
Continuous
370
    30
100
AcDbMText
 10
3.75
 20
0.3
 30
0.0
 40
0.075
 41
3.399999999999999
 71
     1
 72
     5
  1
{\fCourier New|b0|i0|c0|p49;DUCT RH w/NEMA 4x BOX}
 73
     1
 44
1.0
  0
MTEXT
  5
37EC
330
3697
100
AcDbEntity
 67
     1
  8
0
  6
Continuous
370
    30
100
AcDbMText
 10
3.75
 20
0.5
 30
0.0
 40
0.075
 41
1.599999993811282
 71
     1
 72
     5
  1
{\fArial|b0|i0|c0|p34;DESCRIPTION}
 73
     1
 44
1.0
  0
LINE
  5
37ED
330
3697
100
AcDbEntity
 67
     1
  8
0
  6
Continuous
370
    30
100
AcDbLine
 10
4.8
 20
1.4
 30
0.0
 11
4.799999999999999
 21
0.55
 31
0.0
  0
MTEXT
  5
37F0
330
3697
100
AcDbEntity
 67
     1
  8
0
  6
Continuous
370
    30
100
AcDbMText
 10
6.9
 20
1.3
 30
0.0
 40
0.5
 41
1.399999982316157
 71
     1
 72
     5
  1
{\fTimes New Roman|b1|i1|c0|p18;ACI}
 73
     1
 44
1.0
  0
MTEXT
  5
37F1
330
3697
100
AcDbEntity
 67
     1
  8
0
  6
Continuous
370
    30
100
AcDbMText
 10
6.874999982316158
 20
0.7513157954338136
 30
0.0
 40
0.075
 41
1.425
 71
     1
 72
     5
  1
{\fTimes New Roman|b1|i1|c0|p18;Automation Components, Inc.}
 73
     1
 44
1.0
  0
LINE
  5
37F2
330
3697
100
AcDbEntity
 67
     1
  8
0
  6
Continuous
370
    30
100
AcDbLine
 10
6.8
 20
1.4
 30
0.0
 11
6.8
 21
0.55
 31
0.0
  0
MTEXT
  5
37F3
330
3697
100
AcDbEntity
 67
     1
  8
0
  6
Continuous
370
    30
100
AcDbMText
 10
7.25
 20
0.5
 30
0.0
 40
0.075
 41
0.6999999938112822
 71
     1
 72
     5
  1
{\fArial|b0|i0|c0|p34;DRAWN BY}
 73
     1
 44
1.0
  0
MTEXT
  5
37F4
330
3697
100
AcDbEntity
 67
     1
  8
0
  6
Continuous
370
    30
100
AcDbMText
 10
7.25
 20
0.3
 30
0.0
 40
0.075
 41
0.7
 71
     1
 72
     5
  1
{\fCourier New|b0|i0|c0|p49;DJK}
 73
     1
 44
1.0
  0
LINE
  5
37F5
330
3697
100
AcDbEntity
 67
     1
  8
0
  6
Continuous
370
    30
100
AcDbLine
 10
7.149999993811281
 20
0.1499999966913699
 30
0.0
 11
7.15
 21
0.55
 31
0.0
  0
LINE
  5
37F6
330
3697
100
AcDbEntity
 67
     1
  8
0
  6
Continuous
370
    30
100
AcDbLine
 10
7.949999993811282
 20
0.1499999966913699
 30
0.0
 11
7.95
 21
0.55
 31
0.0
  0
LINE
  5
37F7
330
3697
100
AcDbEntity
 67
     1
  8
0
  6
Continuous
370
    30
100
AcDbLine
 10
8.349999999999999
 20
1.4
 30
0.0
 11
8.349999999999999
 21
0.55
 31
0.0
  0
MTEXT
  5
37F8
330
3697
100
AcDbEntity
 67
     1
  8
0
  6
Continuous
370
    30
100
AcDbMText
 10
8.05
 20
0.5
 30
0.0
 40
0.075
 41
0.8999999938112832
 71
     1
 72
     5
  1
{\fArial|b0|i0|c0|p34;APPROVED BY}
 73
     1
 44
1.0
  0
MTEXT
  5
37F9
330
3697
100
AcDbEntity
 67
     1
  8
0
  6
Continuous
370
    30
100
AcDbMText
 10
8.099999999999999
 20
0.3
 30
0.0
 40
0.075
 41
0.85
 71
     1
 72
     5
  1
{\fCourier New|b0|i0|c0|p49;TJD}
 73
     1
 44
1.0
  0
MTEXT
  5
37FB
330
3697
100
AcDbEntity
 67
     1
  8
0
  6
Continuous
370
    30
100
AcDbMText
 10
9.05
 20
0.5
 30
0.0
 40
0.075
 41
1.099999999999999
 71
     1
 72
     5
  1
{\fArial|b0|i0|c0|p34;DRAWING NUMBER}
 73
     1
 44
1.0
  0
MTEXT
  5
37FC
330
3697
100
AcDbEntity
 67
     1
  8
0
  6
Continuous
370
    30
100
AcDbMText
 10
9.05
 20
0.3
 30
0.0
 40
0.075
 41
1.1
 71
     1
 72
     5
  1
{\fCourier New|b0|i0|c0|p49;M0000065}
 73
     1
 44
1.0
  0
LINE
  5
37FD
330
3697
100
AcDbEntity
 67
     1
  8
0
  6
Continuous
370
    30
100
AcDbLine
 10
8.950000000000001
 20
0.55
 30
0.0
 11
8.949999993811282
 21
0.1499999966913699
 31
0.0
  0
MTEXT
  5
37FE
330
3697
100
AcDbEntity
 67
     1
  8
0
  6
Continuous
370
    30
100
AcDbMText
 10
10.25
 20
0.5
 30
0.0
 40
0.075
 41
0.4999999938112838
 71
     1
 72
     5
  1
{\fArial|b0|i0|c0|p34;REV}
 73
     1
 44
1.0
  0
LINE
  5
37FF
330
3697
100
AcDbEntity
 67
     1
  8
0
  6
Continuous
370
    30
100
AcDbLine
 10
10.15
 20
0.55
 30
0.0
 11
10.14999999381128
 21
0.1499999966913699
 31
0.0
  0
MTEXT
  5
3800
330
3697
100
AcDbEntity
 67
     1
  8
0
  6
Continuous
370
    30
100
AcDbMText
 10
10.25
 20
0.3
 30
0.0
 40
0.075
 41
0.5
 71
     1
 72
     5
  1
{\fCourier New|b0|i0|c0|p49;3}
 73
     1
 44
1.0
  0
LINE
  5
3B62
330
3697
100
AcDbEntity
 67
     1
  8
0
  6
Continuous
370
    30
100
AcDbLine
 10
0.3134163915838867
 20
8.200000000000001
 30
0.0
 11
0.3134163915838867
 21
0.1500000000000003
 31
0.0
  0
LINE
  5
3B63
330
3697
100
AcDbEntity
 67
     1
  8
0
  6
Continuous
370
    30
100
AcDbLine
 10
0.3134163915838867
 20
0.15
 30
0.0
 11
10.74999999999999
 21
0.15
 31
0.0
  0
LINE
  5
3B64
330
3697
100
AcDbEntity
 67
     1
  8
0
  6
Continuous
370
    30
100
AcDbLine
 10
10.74999999999999
 20
0.15
 30
0.0
 11
10.74999999999999
 21
8.200000000000001
 31
0.0
  0
LINE
  5
3B65
330
3697
100
AcDbEntity
 67
     1
  8
0
  6
Continuous
370
    30
100
AcDbLine
 10
10.74999999999999
 20
8.200000000000001
 30
0.0
 11
0.3134163915838867
 21
8.200000000000001
 31
0.0
  0
MTEXT
  5
3CB9
330
3697
100
AcDbEntity
 67
     1
  8
0
  6
Continuous
370
    30
100
AcDbMText
 10
8.549999992923018
 20
0.6999999902927221
 30
0.0
 40
0.075
 41
2.2
 71
     1
 72
     5
  1

 73
     1
 44
1.0
  0
LINE
  5
3CBA
330
3697
100
AcDbEntity
 67
     1
  8
0
  6
Continuous
370
    30
100
AcDbLine
 10
8.349999992923018
 20
0.7499999902927228
 30
0.0
 11
10.74999999292302
 21
0.7499999902927228
 31
0.0
  0
MTEXT
  5
3CBB
330
3697
100
AcDbEntity
 67
     1
  8
0
  6
Continuous
370
    30
100
AcDbMText
 10
8.976515588920548
 20
0.9873152697595088
 30
0.0
 40
0.14
 41
2.2
 71
     1
 72
     5
  1
{\fCourier New|b0|i0|c0|p49;M0000065}
 73
     1
 44
1.0
  0
MTEXT
  5
3CBC
330
3697
100
AcDbEntity
 67
     1
  8
0
  6
Continuous
370
    30
100
AcDbMText
 10
9.549999992923018
 20
1.249999990292722
 30
0.0
 40
0.14
 41
2.399999999999999
 71
     2
 72
     5
  1
{\fArial|b0|i0|c0|p34;DRAWING NUMBER}
 73
     1
 44
1.0
  0
ENDSEC
  0
SECTION
  2
OBJECTS
  0
DICTIONARY
  5
C
330
0
100
AcDbDictionary
281
     1
  3
ACAD_GROUP
350
D
  3
ACAD_LAYOUT
350
19
  3
ACAD_MLINESTYLE
350
16
  3
ACAD_PLOTSETTINGS
350
18
  3
ACAD_PLOTSTYLENAME
350
E
  3
AcadDim
350
40B1
  3
AcDbVariableDictionary
350
1BFF
  3
DWGPROPS
350
2288
  0
DICTIONARY
  5
4526
330
1E
100
AcDbDictionary
280
     1
281
     1
  3
ACAD_SORTENTS
360
4527
  0
DICTIONARY
  5
D
102
{ACAD_REACTORS
330
C
102
}
330
C
100
AcDbDictionary
281
     1
  0
DICTIONARY
  5
19
102
{ACAD_REACTORS
330
C
102
}
330
C
100
AcDbDictionary
281
     1
  3
Form Rev 5--Page 1
350
2A95
  3
Form Rev 5--Page 2 Landscape
350
3696
  3
Form Rev 5--Page 2 Portrait
350
33D1
  3
Model
350
21
  0
DICTIONARY
  5
16
102
{ACAD_REACTORS
330
C
102
}
330
C
100
AcDbDictionary
281
     1
  3
Standard
350
17
  0
DICTIONARY
  5
18
102
{ACAD_REACTORS
330
C
102
}
330
C
100
AcDbDictionary
281
     1
  0
ACDBDICTIONARYWDFLT
  5
E
102
{ACAD_REACTORS
330
C
102
}
330
C
100
AcDbDictionary
281
     1
  3
Normal
350
F
100
AcDbDictionaryWithDefault
340
F
  0
XRECORD
  5
40B1
102
{ACAD_REACTORS
330
C
102
}
330
C
100
AcDbXrecord
280
     1
 90
   990106
  3

 60
     0
 61
     0
 62
     1
 63
     3
 64
     0
 65
     0
 66
     0
 67
     3
 68
     1
 69
     0
 70
     0
 71
     0
 72
     0
 40
0.0
170
     0
340
0
  0
DICTIONARY
  5
1BFF
102
{ACAD_REACTORS
330
C
102
}
330
C
100
AcDbDictionary
281
     1
  3
DIMASSOC
350
1C00
  3
SORTENTS
350
446D
  0
XRECORD
  5
2288
102
{ACAD_REACTORS
330
C
102
}
330
C
100
AcDbXrecord
280
     1
  1
DWGPROPS COOKIE
  2

  3

  4

  6

  7

  8

  9

300
=
301
=
302
=
303
=
304
=
305
=
306
=
307
=
308
=
309
=
 40
0.334296712962963
 41
2452955.6374414
 42
2453119.504641921
  1

 90
        0
  0
SORTENTSTABLE
  5
4527
102
{ACAD_REACTORS
330
4526
102
}
330
4526
100
AcDbSortentsTable
330
1E
331
3925
  5
3925
331
3923
  5
3923
331
3B5F
  5
3B5F
331
3F15
  5
3F15
331
3814
  5
3814
331
3812
  5
3812
331
3917
  5
3917
331
3926
  5
3926
331
3915
  5
3915
331
3924
  5
3924
331
3922
  5
3922
331
3DCF
  5
3DCF
331
392D
  5
392D
331
3813
  5
3813
331
3811
  5
3811
331
3918
  5
3918
331
3916
  5
3916
  0
LAYOUT
  5
2A95
102
{ACAD_REACTORS
330
19
102
}
330
19
100
AcDbPlotSettings
  1

  2
Acrobat Distiller
  4
Letter
  6

 40
3.174999952316284
 41
3.174999952316284
 42
3.175003051757812
 43
3.17498779296875
 44
215.8999938964843
 45
279.3999938964843
 46
0.0
 47
0.0
 48
0.0
 49
0.0
140
0.0
141
0.0
142
1.0
143
1.0
 70
   656
 72
     0
 73
     0
 74
     5
  7

 75
    16
147
1.0
148
0.0
149
0.0
100
AcDbLayout
  1
Form Rev 5--Page 1
 70
     1
 71
     1
 10
-0.1249999981226883
 20
-0.1249999981226883
 11
8.37499976158142
 21
10.87499976158142
 12
0.0
 22
0.0
 32
0.0
 14
0.0494530321377837
 24
0.0013885746795381
 34
-0.0015258207003583
 15
12.82324545462383
 25
10.85855081292359
 35
0.0000000349246037
146
0.0
 13
0.0
 23
0.0
 33
0.0
 16
1.0
 26
0.0
 36
0.0
 17
0.0
 27
1.0
 37
0.0
 76
     0
330
2A96
331
2A97
  0
LAYOUT
  5
3696
102
{ACAD_REACTORS
330
19
102
}
330
19
100
AcDbPlotSettings
  1

  2
\\Eng_tdeforest\HP Deskjet 6940 series
  4
Letter
  6

 40
4.095749855041503
 41
3.799424409866333
 42
4.095748901367187
 43
3.84173583984375
 44
215.8999938964843
 45
279.3999938964843
 46
0.254
 47
0.0
 48
0.0
 49
0.0
140
0.0
141
0.0
142
1.0
143
1.004805320019991
 70
   660
 72
     0
 73
     1
 74
     1
  7

 75
     0
147
0.9952176606510244
148
0.0073510995510304
149
-0.0304251895348671
100
AcDbLayout
  1
Form Rev 5--Page 2 Landscape
 70
     1
 71
     3
 10
-0.1522656578558071
 20
-0.1708750632113001
 11
10.90059262091351
 21
8.369969915508038
 12
0.0
 22
0.0
 32
0.0
 14
0.0999999999999997
 24
0.0014665757162347
 34
0.0
 15
10.74999999999999
 25
8.200000000000001
 35
0.0
146
0.0
 13
0.0
 23
0.0
 33
0.0
 16
1.0
 26
0.0
 36
0.0
 17
0.0
 27
1.0
 37
0.0
 76
     0
330
3697
331
3698
  0
LAYOUT
  5
33D1
102
{ACAD_REACTORS
330
19
102
}
330
19
100
AcDbPlotSettings
  1

  2
Acrobat Distiller
  4
Letter
  6

 40
3.174999952316284
 41
3.174999952316284
 42
3.175003051757812
 43
3.17498779296875
 44
215.8999938964843
 45
279.3999938964843
 46
0.0
 47
0.0
 48
0.0
 49
0.0
140
0.0
141
0.0
142
1.0
143
1.0
 70
   656
 72
     0
 73
     0
 74
     5
  7

 75
    16
147
1.0
148
0.0
149
0.0
100
AcDbLayout
  1
Form Rev 5--Page 2 Portrait
 70
     1
 71
     2
 10
-0.1249999981226883
 20
-0.1249999981226883
 11
8.37499976158142
 21
10.87499976158142
 12
0.0
 22
0.0
 32
0.0
 14
-0.0009269395825413
 24
0.0013885746795381
 34
-0.0015258207003583
 15
12.82324545462383
 25
10.85855081292359
 35
0.0000000349246037
146
0.0
 13
0.0
 23
0.0
 33
0.0
 16
1.0
 26
0.0
 36
0.0
 17
0.0
 27
1.0
 37
0.0
 76
     0
330
3360
331
3361
  0
LAYOUT
  5
21
102
{ACAD_REACTORS
330
19
102
}
330
19
100
AcDbPlotSettings
  1

  2
Auto production on ACIDC
  4

  6

 40
0.0
 41
0.0
 42
0.0
 43
0.0
 44
0.0
 45
0.0
 46
0.0
 47
0.0
 48
0.0
 49
0.0
140
0.0
141
0.0
142
1.0
143
1.0
 70
  1712
 72
     0
 73
     0
 74
     0
  7

 75
     0
147
1.0
148
0.0
149
0.0
100
AcDbLayout
  1
Model
 70
     1
 71
     0
 10
0.0
 20
0.0
 11
12.0
 21
9.0
 12
0.0
 22
0.0
 32
0.0
 14
0.0
 24
0.0
 34
0.0
 15
0.0
 25
0.0
 35
0.0
146
0.0
 13
0.0
 23
0.0
 33
0.0
 16
1.0
 26
0.0
 36
0.0
 17
0.0
 27
1.0
 37
0.0
 76
     0
330
1E
  0
MLINESTYLE
  5
17
102
{ACAD_REACTORS
330
16
102
}
330
16
100
AcDbMlineStyle
  2
STANDARD
 70
     0
  3

 62
   256
 51
90.0
 52
90.0
 71
     2
 49
0.5
 62
   256
  6
BYLAYER
 49
-0.5
 62
   256
  6
BYLAYER
  0
ACDBPLACEHOLDER
  5
F
102
{ACAD_REACTORS
330
E
102
}
330
E
  0
DICTIONARYVAR
  5
1C00
102
{ACAD_REACTORS
330
1BFF
102
}
330
1BFF
100
DictionaryVariables
280
     0
  1
1
  0
DICTIONARYVAR
  5
446D
102
{ACAD_REACTORS
330
1BFF
102
}
330
1BFF
100
DictionaryVariables
280
     0
  1
127
  0
ENDSEC
  0
EOF
