  0
SECTION
  2
HEADER
  9
$ACADVER
  1
AC1015
  9
$ACADMAINTVER
 70
     6
  9
$DWGCODEPAGE
  3
ANSI_1252
  9
$INSBASE
 10
0.0
 20
0.0
 30
0.0
  9
$EXTMIN
 10
-0.0305982905982906
 20
-0.426837606837607
 30
0.0
  9
$EXTMAX
 10
44.77951529830941
 20
12.0
 30
0.0
  9
$LIMMIN
 10
-0.5
 20
-0.5
  9
$LIMMAX
 10
60.0
 20
60.0
  9
$ORTHOMODE
 70
     1
  9
$REGENMODE
 70
     1
  9
$FILLMODE
 70
     1
  9
$QTEXTMODE
 70
     0
  9
$MIRRTEXT
 70
     1
  9
$LTSCALE
 40
0.5
  9
$ATTMODE
 70
     1
  9
$TEXTSIZE
 40
0.2
  9
$TRACEWID
 40
0.05
  9
$TEXTSTYLE
  7
Standard
  9
$CLAYER
  8
0
  9
$CELTYPE
  6
DASHED
  9
$CECOLOR
 62
   256
  9
$CELTSCALE
 40
1.0
  9
$DISPSILH
 70
     0
  9
$DIMSCALE
 40
1.0
  9
$DIMASZ
 40
0.15
  9
$DIMEXO
 40
0.0625
  9
$DIMDLI
 40
0.38
  9
$DIMRND
 40
0.0
  9
$DIMDLE
 40
0.0
  9
$DIMEXE
 40
0.05
  9
$DIMTP
 40
0.0
  9
$DIMTM
 40
0.0
  9
$DIMTXT
 40
0.09
  9
$DIMCEN
 40
0.09
  9
$DIMTSZ
 40
0.0
  9
$DIMTOL
 70
     0
  9
$DIMLIM
 70
     0
  9
$DIMTIH
 70
     1
  9
$DIMTOH
 70
     1
  9
$DIMSE1
 70
     0
  9
$DIMSE2
 70
     0
  9
$DIMTAD
 70
     0
  9
$DIMZIN
 70
     0
  9
$DIMBLK
  1

  9
$DIMASO
 70
     1
  9
$DIMSHO
 70
     1
  9
$DIMPOST
  1

  9
$DIMAPOST
  1
mm
  9
$DIMALT
 70
     1
  9
$DIMALTD
 70
     2
  9
$DIMALTF
 40
25.4
  9
$DIMLFAC
 40
1.0
  9
$DIMTOFL
 70
     0
  9
$DIMTVP
 40
0.0
  9
$DIMTIX
 70
     0
  9
$DIMSOXD
 70
     0
  9
$DIMSAH
 70
     0
  9
$DIMBLK1
  1

  9
$DIMBLK2
  1

  9
$DIMSTYLE
  2
dim style 1
  9
$DIMCLRD
 70
     0
  9
$DIMCLRE
 70
     0
  9
$DIMCLRT
 70
     0
  9
$DIMTFAC
 40
1.0
  9
$DIMGAP
 40
0.09
  9
$DIMJUST
 70
     0
  9
$DIMSD1
 70
     0
  9
$DIMSD2
 70
     0
  9
$DIMTOLJ
 70
     1
  9
$DIMTZIN
 70
     0
  9
$DIMALTZ
 70
     0
  9
$DIMALTTZ
 70
     0
  9
$DIMUPT
 70
     0
  9
$DIMDEC
 70
     2
  9
$DIMTDEC
 70
     2
  9
$DIMALTU
 70
     2
  9
$DIMALTTD
 70
     2
  9
$DIMTXSTY
  7
Standard
  9
$DIMAUNIT
 70
     0
  9
$DIMADEC
 70
     0
  9
$DIMALTRND
 40
0.0
  9
$DIMAZIN
 70
     0
  9
$DIMDSEP
 70
    46
  9
$DIMATFIT
 70
     3
  9
$DIMFRAC
 70
     0
  9
$DIMLDRBLK
  1

  9
$DIMLUNIT
 70
     3
  9
$DIMLWD
 70
    -2
  9
$DIMLWE
 70
    -2
  9
$DIMTMOVE
 70
     0
  9
$LUNITS
 70
     2
  9
$LUPREC
 70
     4
  9
$SKETCHINC
 40
0.1
  9
$FILLETRAD
 40
0.1
  9
$AUNITS
 70
     0
  9
$AUPREC
 70
     0
  9
$MENU
  1
.
  9
$ELEVATION
 40
0.0
  9
$PELEVATION
 40
0.0
  9
$THICKNESS
 40
0.0
  9
$LIMCHECK
 70
     0
  9
$CHAMFERA
 40
0.0
  9
$CHAMFERB
 40
0.0
  9
$CHAMFERC
 40
0.0
  9
$CHAMFERD
 40
0.0
  9
$SKPOLY
 70
     0
  9
$TDCREATE
 40
2452955.595774734
  9
$TDUCREATE
 40
2452955.845774734
  9
$TDUPDATE
 40
2454522.628854189
  9
$TDUUPDATE
 40
2454522.878854190
  9
$TDINDWG
 40
2.2671956134
  9
$TDUSRTIMER
 40
2.2671956134
  9
$USRTIMER
 70
     1
  9
$ANGBASE
 50
0.0
  9
$ANGDIR
 70
     0
  9
$PDMODE
 70
     0
  9
$PDSIZE
 40
0.0
  9
$PLINEWID
 40
0.0
  9
$SPLFRAME
 70
     0
  9
$SPLINETYPE
 70
     6
  9
$SPLINESEGS
 70
     8
  9
$HANDSEED
  5
48C5
  9
$SURFTAB1
 70
     6
  9
$SURFTAB2
 70
     6
  9
$SURFTYPE
 70
     6
  9
$SURFU
 70
     6
  9
$SURFV
 70
     6
  9
$UCSBASE
  2

  9
$UCSNAME
  2

  9
$UCSORG
 10
0.0
 20
0.0
 30
0.0
  9
$UCSXDIR
 10
1.0
 20
0.0
 30
0.0
  9
$UCSYDIR
 10
0.0
 20
1.0
 30
0.0
  9
$UCSORTHOREF
  2

  9
$UCSORTHOVIEW
 70
     0
  9
$UCSORGTOP
 10
0.0
 20
0.0
 30
0.0
  9
$UCSORGBOTTOM
 10
0.0
 20
0.0
 30
0.0
  9
$UCSORGLEFT
 10
0.0
 20
0.0
 30
0.0
  9
$UCSORGRIGHT
 10
0.0
 20
0.0
 30
0.0
  9
$UCSORGFRONT
 10
0.0
 20
0.0
 30
0.0
  9
$UCSORGBACK
 10
0.0
 20
0.0
 30
0.0
  9
$PUCSBASE
  2

  9
$PUCSNAME
  2

  9
$PUCSORG
 10
0.0
 20
0.0
 30
0.0
  9
$PUCSXDIR
 10
1.0
 20
0.0
 30
0.0
  9
$PUCSYDIR
 10
0.0
 20
1.0
 30
0.0
  9
$PUCSORTHOREF
  2

  9
$PUCSORTHOVIEW
 70
     0
  9
$PUCSORGTOP
 10
0.0
 20
0.0
 30
0.0
  9
$PUCSORGBOTTOM
 10
0.0
 20
0.0
 30
0.0
  9
$PUCSORGLEFT
 10
0.0
 20
0.0
 30
0.0
  9
$PUCSORGRIGHT
 10
0.0
 20
0.0
 30
0.0
  9
$PUCSORGFRONT
 10
0.0
 20
0.0
 30
0.0
  9
$PUCSORGBACK
 10
0.0
 20
0.0
 30
0.0
  9
$USERI1
 70
     0
  9
$USERI2
 70
     0
  9
$USERI3
 70
     0
  9
$USERI4
 70
     0
  9
$USERI5
 70
     0
  9
$USERR1
 40
0.0
  9
$USERR2
 40
0.0
  9
$USERR3
 40
0.0
  9
$USERR4
 40
0.0
  9
$USERR5
 40
0.0
  9
$WORLDVIEW
 70
     1
  9
$SHADEDGE
 70
     3
  9
$SHADEDIF
 70
    70
  9
$TILEMODE
 70
     0
  9
$MAXACTVP
 70
    64
  9
$PINSBASE
 10
0.0
 20
0.0
 30
0.0
  9
$PLIMCHECK
 70
     0
  9
$PEXTMIN
 10
0.0999999999999997
 20
0.0014665757162347
 30
0.0
  9
$PEXTMAX
 10
10.74999999999999
 20
8.200000000000001
 30
0.0
  9
$PLIMMIN
 10
-0.0442375628933893
 20
-0.1231556534028213
  9
$PLIMMAX
 10
10.88780373759924
 20
8.324330751793459
  9
$UNITMODE
 70
     0
  9
$VISRETAIN
 70
     1
  9
$PLINEGEN
 70
     0
  9
$PSLTSCALE
 70
     1
  9
$TREEDEPTH
 70
  3020
  9
$CMLSTYLE
  2
Standard
  9
$CMLJUST
 70
     0
  9
$CMLSCALE
 40
1.0
  9
$PROXYGRAPHICS
 70
     1
  9
$MEASUREMENT
 70
     0
  9
$CELWEIGHT
370
    30
  9
$ENDCAPS
280
     0
  9
$JOINSTYLE
280
     0
  9
$LWDISPLAY
290
     0
  9
$INSUNITS
 70
     0
  9
$HYPERLINKBASE
  1

  9
$STYLESHEET
  1

  9
$XEDIT
290
     1
  9
$CEPSNTYPE
380
     0
  9
$PSTYLEMODE
290
     1
  9
$FINGERPRINTGUID
  2
{B533FD67-EFBD-470B-9CAB-60DFF78E1657}
  9
$VERSIONGUID
  2
{FA383C8E-99E9-4F93-A076-2AAFCE1D2500}
  9
$EXTNAMES
290
     1
  9
$PSVPSCALE
 40
0.0
  9
$OLESTARTUP
290
     0
  0
ENDSEC
  0
SECTION
  2
CLASSES
  0
CLASS
  1
ACDBDICTIONARYWDFLT
  2
AcDbDictionaryWithDefault
  3
AutoCAD 2000
 90
        0
280
     0
281
     0
  0
CLASS
  1
ACDBPLACEHOLDER
  2
AcDbPlaceHolder
  3
AutoCAD 2000
 90
        0
280
     0
281
     0
  0
CLASS
  1
LAYOUT
  2
AcDbLayout
  3
AutoCAD 2000
 90
        0
280
     0
281
     0
  0
CLASS
  1
DICTIONARYVAR
  2
AcDbDictionaryVar
  3
AutoCAD 2000
 90
        0
280
     0
281
     0
  0
ENDSEC
  0
SECTION
  2
TABLES
  0
TABLE
  2
VPORT
  5
8
330
0
100
AcDbSymbolTable
 70
     4
  0
VPORT
  5
48C4
330
8
100
AcDbSymbolTableRecord
100
AcDbViewportTableRecord
  2
*Active
 70
     0
 10
0.0
 20
0.0
 11
1.0
 21
1.0
 12
37.37715053369036
 22
7.102216700633647
 13
0.0
 23
0.0
 14
0.05
 24
0.05
 15
0.1
 25
0.1
 16
0.0
 26
0.0
 36
1.0
 17
0.0
 27
0.0
 37
0.0
 40
19.5242245788833
 41
1.676895306859205
 42
50.0
 43
0.0
 44
0.0
 50
0.0
 51
0.0
 71
     0
 72
   100
 73
     1
 74
     1
 75
     0
 76
     0
 77
     0
 78
     0
281
     0
 65
     1
110
0.0
120
0.0
130
0.0
111
1.0
121
0.0
131
0.0
112
0.0
122
1.0
132
0.0
 79
     0
146
0.0
  0
ENDTAB
  0
TABLE
  2
LTYPE
  5
5
330
0
100
AcDbSymbolTable
 70
    14
  0
LTYPE
  5
13
330
5
100
AcDbSymbolTableRecord
100
AcDbLinetypeTableRecord
  2
ByBlock
 70
     0
  3

 72
    65
 73
     0
 40
0.0
  0
LTYPE
  5
14
330
5
100
AcDbSymbolTableRecord
100
AcDbLinetypeTableRecord
  2
ByLayer
 70
     0
  3

 72
    65
 73
     0
 40
0.0
  0
LTYPE
  5
15
330
5
100
AcDbSymbolTableRecord
100
AcDbLinetypeTableRecord
  2
CONTINUOUS
 70
     0
  3
Solid
 72
    65
 73
     0
 40
0.0
  0
LTYPE
  5
22
330
5
100
AcDbSymbolTableRecord
100
AcDbLinetypeTableRecord
  2
HIDDEN
 70
     0
  3
Short Dashed
 72
    65
 73
     2
 40
0.06903
 49
0.04602
 74
     0
 49
-0.02301
 74
     0
  0
LTYPE
  5
23
330
5
100
AcDbSymbolTableRecord
100
AcDbLinetypeTableRecord
  2
DASHED
 70
     0
  3
Dashed
 72
    65
 73
     2
 40
0.13806
 49
0.06903
 74
     0
 49
-0.06903
 74
     0
  0
LTYPE
  5
24
330
5
100
AcDbSymbolTableRecord
100
AcDbLinetypeTableRecord
  2
LONGDASH
 70
     0
  3
Long Dash
 72
    65
 73
     2
 40
0.13806
 49
0.09204
 74
     0
 49
-0.04602
 74
     0
  0
LTYPE
  5
25
330
5
100
AcDbSymbolTableRecord
100
AcDbLinetypeTableRecord
  2
DOT
 70
     0
  3
Short Dotted
 72
    65
 73
     2
 40
0.02301
 49
0.0
 74
     0
 49
-0.02301
 74
     0
  0
LTYPE
  5
26
330
5
100
AcDbSymbolTableRecord
100
AcDbLinetypeTableRecord
  2
LONGDOT
 70
     0
  3
Dotted
 72
    65
 73
     2
 40
0.04602
 49
0.0
 74
     0
 49
-0.04602
 74
     0
  0
LTYPE
  5
27
330
5
100
AcDbSymbolTableRecord
100
AcDbLinetypeTableRecord
  2
DASHDOT
 70
     0
  3
Dot Center
 72
    65
 73
     4
 40
0.09204
 49
0.04602
 74
     0
 49
-0.02301
 74
     0
 49
0.0
 74
     0
 49
-0.02301
 74
     0
  0
LTYPE
  5
28
330
5
100
AcDbSymbolTableRecord
100
AcDbLinetypeTableRecord
  2
DIVIDE
 70
     0
  3
Dash Dot Dot
 72
    65
 73
     6
 40
0.11505
 49
0.04602
 74
     0
 49
-0.02301
 74
     0
 49
0.0
 74
     0
 49
-0.02301
 74
     0
 49
0.0
 74
     0
 49
-0.02301
 74
     0
  0
LTYPE
  5
29
330
5
100
AcDbSymbolTableRecord
100
AcDbLinetypeTableRecord
  2
CENTER
 70
     0
  3
Dash Center
 72
    65
 73
     4
 40
0.103545
 49
0.04602
 74
     0
 49
-0.02301
 74
     0
 49
0.011505
 74
     0
 49
-0.02301
 74
     0
  0
LTYPE
  5
2A
330
5
100
AcDbSymbolTableRecord
100
AcDbLinetypeTableRecord
  2
LONGCENTER
 70
     0
  3
Long Center
 72
    65
 73
     4
 40
0.149565
 49
0.09204
 74
     0
 49
-0.02301
 74
     0
 49
0.011505
 74
     0
 49
-0.02301
 74
     0
  0
LTYPE
  5
2B
330
5
100
AcDbSymbolTableRecord
100
AcDbLinetypeTableRecord
  2
PHANTOM
 70
     0
  3
Phantom
 72
    65
 73
     6
 40
0.13806
 49
0.04602
 74
     0
 49
-0.02301
 74
     0
 49
0.011505
 74
     0
 49
-0.02301
 74
     0
 49
0.011505
 74
     0
 49
-0.02301
 74
     0
  0
LTYPE
  5
2C
330
5
100
AcDbSymbolTableRecord
100
AcDbLinetypeTableRecord
  2
LONGPHANTOM
 70
     0
  3
Long Phantom
 72
    65
 73
     6
 40
0.18408
 49
0.09204
 74
     0
 49
-0.02301
 74
     0
 49
0.011505
 74
     0
 49
-0.02301
 74
     0
 49
0.011505
 74
     0
 49
-0.02301
 74
     0
  0
LTYPE
  5
3469
330
5
100
AcDbSymbolTableRecord
100
AcDbLinetypeTableRecord
  2
HIDDEN2
 70
     0
  3
Hidden (.5x) _ _ _ _ _ _ _ _ _ _ _ _ _ _ _ _ _
 72
    65
 73
     2
 40
0.1875
 49
0.125
 74
     0
 49
-0.0625
 74
     0
  0
LTYPE
  5
3CC4
330
5
100
AcDbSymbolTableRecord
100
AcDbLinetypeTableRecord
  2
DASHED2
 70
     0
  3
Dashed (.5x) _ _ _ _ _ _ _ _ _ _ _ _ _ _ _ _ _
 72
    65
 73
     2
 40
0.375
 49
0.25
 74
     0
 49
-0.125
 74
     0
  0
ENDTAB
  0
TABLE
  2
LAYER
  5
2
330
0
100
AcDbSymbolTable
 70
     4
  0
LAYER
  5
10
330
2
100
AcDbSymbolTableRecord
100
AcDbLayerTableRecord
  2
0
 70
     0
 62
     7
  6
CONTINUOUS
370
    -3
390
F
  0
LAYER
  5
1C70
330
2
100
AcDbSymbolTableRecord
100
AcDbLayerTableRecord
  2
Defpoints
 70
     0
 62
     7
  6
CONTINUOUS
290
     0
370
    -3
390
F
  0
LAYER
  5
39C2
330
2
100
AcDbSymbolTableRecord
100
AcDbLayerTableRecord
  2
Viewport Layer
 70
     0
 62
    -7
  6
CONTINUOUS
370
    -3
390
F
  0
LAYER
  5
3CC5
330
2
100
AcDbSymbolTableRecord
100
AcDbLayerTableRecord
  2
hidden
 70
     0
 62
     7
  6
DASHED2
370
    -3
390
F
  0
ENDTAB
  0
TABLE
  2
STYLE
  5
3
330
0
100
AcDbSymbolTable
 70
     5
  0
STYLE
  5
11
330
3
100
AcDbSymbolTableRecord
100
AcDbTextStyleTableRecord
  2
Standard
 70
     0
 40
0.0
 41
1.0
 50
0.0
 71
     0
 42
0.2
  3
TIMES.TTF
  4

1001
ACAD
1000
Times New Roman
1071
       18
  0
STYLE
  5
2F
330
3
100
AcDbSymbolTableRecord
100
AcDbTextStyleTableRecord
  2
FONT0
 70
     0
 40
1.0
 41
1.0
 50
0.0
 71
     0
 42
1.0
  3
txt
  4

  0
STYLE
  5
30
330
3
100
AcDbSymbolTableRecord
100
AcDbTextStyleTableRecord
  2
FONT1
 70
     0
 40
1.0
 41
1.0
 50
0.0
 71
     0
 42
1.0
  3
txt
  4

  0
STYLE
  5
31
330
3
100
AcDbSymbolTableRecord
100
AcDbTextStyleTableRecord
  2
FONT2
 70
     0
 40
1.0
 41
1.0
 50
0.0
 71
     0
 42
1.0
  3
txt
  4

  0
STYLE
  5
32
330
3
100
AcDbSymbolTableRecord
100
AcDbTextStyleTableRecord
  2
FONT3
 70
     0
 40
1.0
 41
1.0
 50
0.0
 71
     0
 42
1.0
  3
txt
  4

  0
ENDTAB
  0
TABLE
  2
VIEW
  5
6
330
0
100
AcDbSymbolTable
 70
     3
  0
VIEW
  5
3B6C
330
6
100
AcDbSymbolTableRecord
100
AcDbViewTableRecord
  2
Page 1 Layout
 70
     0
 40
5.8
 10
6.0
 20
3.0
 41
11.8
 11
0.0
 21
0.0
 31
1.0
 12
0.0
 22
0.0
 32
0.0
 42
50.0
 43
0.0
 44
0.0
 50
0.0
 71
     0
281
     0
 72
     1
110
0.0
120
0.0
130
0.0
111
1.0
121
0.0
131
0.0
112
0.0
122
1.0
132
0.0
 79
     0
146
0.0
  0
VIEW
  5
3B6D
330
6
100
AcDbSymbolTableRecord
100
AcDbViewTableRecord
  2
Page 2 Portrait Layout
 70
     0
 40
11.8
 10
19.0
 20
6.0
 41
11.8
 11
0.0
 21
0.0
 31
1.0
 12
0.0
 22
0.0
 32
0.0
 42
50.0
 43
0.0
 44
0.0
 50
0.0
 71
     0
281
     0
 72
     1
110
0.0
120
0.0
130
0.0
111
1.0
121
0.0
131
0.0
112
0.0
122
1.0
132
0.0
 79
     0
146
0.0
  0
VIEW
  5
3C6D
330
6
100
AcDbSymbolTableRecord
100
AcDbViewTableRecord
  2
Page 2 Landscape Layout
 70
     0
 40
8.3
 10
34.0
 20
4.25
 41
15.8
 11
0.0
 21
0.0
 31
1.0
 12
0.0
 22
0.0
 32
0.0
 42
50.0
 43
0.0
 44
0.0
 50
0.0
 71
     0
281
     0
 72
     1
110
0.0
120
0.0
130
0.0
111
1.0
121
0.0
131
0.0
112
0.0
122
1.0
132
0.0
 79
     0
146
0.0
  0
ENDTAB
  0
TABLE
  2
UCS
  5
7
330
0
100
AcDbSymbolTable
 70
     0
  0
ENDTAB
  0
TABLE
  2
APPID
  5
9
330
0
100
AcDbSymbolTable
 70
     1
  0
APPID
  5
12
330
9
100
AcDbSymbolTableRecord
100
AcDbRegAppTableRecord
  2
ACAD
 70
     0
  0
ENDTAB
  0
TABLE
  2
DIMSTYLE
  5
A
330
0
100
AcDbSymbolTable
 70
     2
100
AcDbDimStyleTable
 71
     2
340
3DBF
340
1BFC
  0
DIMSTYLE
105
1BFC
330
A
100
AcDbSymbolTableRecord
100
AcDbDimStyleTableRecord
  2
Standard
 70
     0
340
11
  0
DIMSTYLE
105
3DBF
102
{ACAD_REACTORS
330
3E34
330
3E8B
330
3E99
330
4615
330
46CF
330
47EE
330
4810
330
481E
330
486D
102
}
330
A
100
AcDbSymbolTableRecord
100
AcDbDimStyleTableRecord
  2
dim style 1
 70
     0
  4
mm
 41
0.15
 44
0.05
140
0.09
170
     1
271
     2
272
     2
277
     3
340
11
  0
ENDTAB
  0
TABLE
  2
BLOCK_RECORD
  5
1
330
0
100
AcDbSymbolTable
 70
    27
  0
BLOCK_RECORD
  5
1E
330
1
100
AcDbSymbolTableRecord
100
AcDbBlockTableRecord
  2
*Model_Space
340
21
  0
BLOCK_RECORD
  5
3697
330
1
100
AcDbSymbolTableRecord
100
AcDbBlockTableRecord
  2
*Paper_Space
340
3696
  0
BLOCK_RECORD
  5
35
330
1
100
AcDbSymbolTableRecord
100
AcDbBlockTableRecord
  2
F_015
340
0
  0
BLOCK_RECORD
  5
39
330
1
100
AcDbSymbolTableRecord
100
AcDbBlockTableRecord
  2
F_026
340
0
  0
BLOCK_RECORD
  5
40
330
1
100
AcDbSymbolTableRecord
100
AcDbBlockTableRecord
  2
F_032
340
0
  0
BLOCK_RECORD
  5
47
330
1
100
AcDbSymbolTableRecord
100
AcDbBlockTableRecord
  2
F_033
340
0
  0
BLOCK_RECORD
  5
4B
330
1
100
AcDbSymbolTableRecord
100
AcDbBlockTableRecord
  2
F_039
340
0
  0
BLOCK_RECORD
  5
52
330
1
100
AcDbSymbolTableRecord
100
AcDbBlockTableRecord
  2
F_041
340
0
  0
BLOCK_RECORD
  5
56
330
1
100
AcDbSymbolTableRecord
100
AcDbBlockTableRecord
  2
F_042
340
0
  0
BLOCK_RECORD
  5
5A
330
1
100
AcDbSymbolTableRecord
100
AcDbBlockTableRecord
  2
F_046
340
0
  0
BLOCK_RECORD
  5
5E
330
1
100
AcDbSymbolTableRecord
100
AcDbBlockTableRecord
  2
F_054
340
0
  0
BLOCK_RECORD
  5
65
330
1
100
AcDbSymbolTableRecord
100
AcDbBlockTableRecord
  2
F_056
340
0
  0
BLOCK_RECORD
  5
69
330
1
100
AcDbSymbolTableRecord
100
AcDbBlockTableRecord
  2
F_057
340
0
  0
BLOCK_RECORD
  5
2DD5
330
1
100
AcDbSymbolTableRecord
100
AcDbBlockTableRecord
  2
A$C02E13B6E
340
0
  0
BLOCK_RECORD
  5
31CD
330
1
100
AcDbSymbolTableRecord
100
AcDbBlockTableRecord
  2
A$C2D1730EF
340
0
  0
BLOCK_RECORD
  5
31E8
330
1
100
AcDbSymbolTableRecord
100
AcDbBlockTableRecord
  2
A$C2B5F7553
340
0
  0
BLOCK_RECORD
  5
2A96
330
1
100
AcDbSymbolTableRecord
100
AcDbBlockTableRecord
  2
*Paper_Space14
340
2A95
  0
BLOCK_RECORD
  5
3360
330
1
100
AcDbSymbolTableRecord
100
AcDbBlockTableRecord
  2
*Paper_Space15
340
33D1
  0
BLOCK_RECORD
  5
3743
330
1
100
AcDbSymbolTableRecord
100
AcDbBlockTableRecord
  2
A$C64F54320
340
0
  0
BLOCK_RECORD
  5
3E35
330
1
100
AcDbSymbolTableRecord
100
AcDbBlockTableRecord
  2
*D17
340
0
  0
BLOCK_RECORD
  5
3E8C
330
1
100
AcDbSymbolTableRecord
100
AcDbBlockTableRecord
  2
*D18
340
0
  0
BLOCK_RECORD
  5
3E9A
330
1
100
AcDbSymbolTableRecord
100
AcDbBlockTableRecord
  2
*D19
340
0
  0
BLOCK_RECORD
  5
4616
330
1
100
AcDbSymbolTableRecord
100
AcDbBlockTableRecord
  2
*D20
340
0
  0
BLOCK_RECORD
  5
46D0
330
1
100
AcDbSymbolTableRecord
100
AcDbBlockTableRecord
  2
*D21
340
0
  0
BLOCK_RECORD
  5
47EF
330
1
100
AcDbSymbolTableRecord
100
AcDbBlockTableRecord
  2
*D22
340
0
  0
BLOCK_RECORD
  5
4811
330
1
100
AcDbSymbolTableRecord
100
AcDbBlockTableRecord
  2
*D23
340
0
  0
BLOCK_RECORD
  5
481F
330
1
100
AcDbSymbolTableRecord
100
AcDbBlockTableRecord
  2
*D24
340
0
  0
BLOCK_RECORD
  5
486E
330
1
100
AcDbSymbolTableRecord
100
AcDbBlockTableRecord
  2
*D25
340
0
  0
ENDTAB
  0
ENDSEC
  0
SECTION
  2
BLOCKS
  0
BLOCK
  5
1F
330
1E
100
AcDbEntity
  8
0
100
AcDbBlockBegin
  2
*Model_Space
 70
     0
 10
0.0
 20
0.0
 30
0.0
  3
*Model_Space
  1

  0
ENDBLK
  5
20
330
1E
100
AcDbEntity
  8
0
100
AcDbBlockEnd
  0
BLOCK
  5
36A4
330
3697
100
AcDbEntity
 67
     1
  8
0
370
    30
100
AcDbBlockBegin
  2
*Paper_Space
 70
     0
 10
0.0
 20
0.0
 30
0.0
  3
*Paper_Space
  1

  0
ENDBLK
  5
36A5
330
3697
100
AcDbEntity
 67
     1
  8
0
370
    30
100
AcDbBlockEnd
  0
BLOCK
  5
36
330
35
100
AcDbEntity
  8
0
100
AcDbBlockBegin
  2
F_015
 70
     0
 10
0.0
 20
0.0
 30
0.0
  3
F_015
  1

  0
SOLID
  5
37
330
35
100
AcDbEntity
  8
0
100
AcDbTrace
 10
0.0075
 20
0.031
 30
0.0
 11
-0.0075
 21
0.031
 31
0.0
 12
0.0075
 22
-0.031
 32
0.0
 13
-0.0075
 23
-0.031
 33
0.0
  0
ENDBLK
  5
38
330
35
100
AcDbEntity
  8
0
100
AcDbBlockEnd
  0
BLOCK
  5
3A
330
39
100
AcDbEntity
  8
0
100
AcDbBlockBegin
  2
F_026
 70
     0
 10
0.0
 20
0.0
 30
0.0
  3
F_026
  1

  0
LWPOLYLINE
  5
3B
330
39
100
AcDbEntity
  8
0
100
AcDbPolyline
 90
        2
 70
     1
 43
0.02
 10
0.01
 20
0.0
 42
1.0
 10
-0.01
 20
0.0
 42
1.0
  0
ENDBLK
  5
3F
330
39
100
AcDbEntity
  8
0
100
AcDbBlockEnd
  0
BLOCK
  5
41
330
40
100
AcDbEntity
  8
0
100
AcDbBlockBegin
  2
F_032
 70
     0
 10
0.0
 20
0.0
 30
0.0
  3
F_032
  1

  0
LWPOLYLINE
  5
42
330
40
100
AcDbEntity
  8
0
100
AcDbPolyline
 90
        2
 70
     1
 43
0.025
 10
0.0125
 20
0.0
 42
1.0
 10
-0.0125
 20
0.0
 42
1.0
  0
ENDBLK
  5
46
330
40
100
AcDbEntity
  8
0
100
AcDbBlockEnd
  0
BLOCK
  5
48
330
47
100
AcDbEntity
  8
0
100
AcDbBlockBegin
  2
F_033
 70
     0
 10
0.0
 20
0.0
 30
0.0
  3
F_033
  1

  0
SOLID
  5
49
330
47
100
AcDbEntity
  8
0
100
AcDbTrace
 10
0.025
 20
0.025
 30
0.0
 11
-0.025
 21
0.025
 31
0.0
 12
0.025
 22
-0.025
 32
0.0
 13
-0.025
 23
-0.025
 33
0.0
  0
ENDBLK
  5
4A
330
47
100
AcDbEntity
  8
0
100
AcDbBlockEnd
  0
BLOCK
  5
4C
330
4B
100
AcDbEntity
  8
0
100
AcDbBlockBegin
  2
F_039
 70
     0
 10
0.0
 20
0.0
 30
0.0
  3
F_039
  1

  0
LWPOLYLINE
  5
4D
330
4B
100
AcDbEntity
  8
0
100
AcDbPolyline
 90
        2
 70
     1
 43
0.03
 10
0.015
 20
0.0
 42
1.0
 10
-0.015
 20
0.0
 42
1.0
  0
ENDBLK
  5
51
330
4B
100
AcDbEntity
  8
0
100
AcDbBlockEnd
  0
BLOCK
  5
53
330
52
100
AcDbEntity
  8
0
100
AcDbBlockBegin
  2
F_041
 70
     0
 10
0.0
 20
0.0
 30
0.0
  3
F_041
  1

  0
SOLID
  5
54
330
52
100
AcDbEntity
  8
0
100
AcDbTrace
 10
0.03
 20
0.03
 30
0.0
 11
-0.03
 21
0.03
 31
0.0
 12
0.03
 22
-0.03
 32
0.0
 13
-0.03
 23
-0.03
 33
0.0
  0
ENDBLK
  5
55
330
52
100
AcDbEntity
  8
0
100
AcDbBlockEnd
  0
BLOCK
  5
57
330
56
100
AcDbEntity
  8
0
100
AcDbBlockBegin
  2
F_042
 70
     0
 10
0.0
 20
0.0
 30
0.0
  3
F_042
  1

  0
SOLID
  5
58
330
56
100
AcDbEntity
  8
0
100
AcDbTrace
 10
0.03
 20
0.03
 30
0.0
 11
-0.03
 21
0.03
 31
0.0
 12
0.03
 22
-0.03
 32
0.0
 13
-0.03
 23
-0.03
 33
0.0
  0
ENDBLK
  5
59
330
56
100
AcDbEntity
  8
0
100
AcDbBlockEnd
  0
BLOCK
  5
5B
330
5A
100
AcDbEntity
  8
0
100
AcDbBlockBegin
  2
F_046
 70
     0
 10
0.0
 20
0.0
 30
0.0
  3
F_046
  1

  0
SOLID
  5
5C
330
5A
100
AcDbEntity
  8
0
100
AcDbTrace
 10
0.031
 20
0.0075
 30
0.0
 11
-0.031
 21
0.0075
 31
0.0
 12
0.031
 22
-0.0075
 32
0.0
 13
-0.031
 23
-0.0075
 33
0.0
  0
ENDBLK
  5
5D
330
5A
100
AcDbEntity
  8
0
100
AcDbBlockEnd
  0
BLOCK
  5
5F
330
5E
100
AcDbEntity
  8
0
100
AcDbBlockBegin
  2
F_054
 70
     0
 10
0.0
 20
0.0
 30
0.0
  3
F_054
  1

  0
LWPOLYLINE
  5
60
330
5E
100
AcDbEntity
  8
0
100
AcDbPolyline
 90
        2
 70
     1
 43
0.048
 10
0.024
 20
0.0
 42
1.0
 10
-0.024
 20
0.0
 42
1.0
  0
ENDBLK
  5
64
330
5E
100
AcDbEntity
  8
0
100
AcDbBlockEnd
  0
BLOCK
  5
66
330
65
100
AcDbEntity
  8
0
100
AcDbBlockBegin
  2
F_056
 70
     0
 10
0.0
 20
0.0
 30
0.0
  3
F_056
  1

  0
SOLID
  5
67
330
65
100
AcDbEntity
  8
0
100
AcDbTrace
 10
0.075
 20
0.075
 30
0.0
 11
-0.075
 21
0.075
 31
0.0
 12
0.075
 22
-0.075
 32
0.0
 13
-0.075
 23
-0.075
 33
0.0
  0
ENDBLK
  5
68
330
65
100
AcDbEntity
  8
0
100
AcDbBlockEnd
  0
BLOCK
  5
6A
330
69
100
AcDbEntity
  8
0
100
AcDbBlockBegin
  2
F_057
 70
     0
 10
0.0
 20
0.0
 30
0.0
  3
F_057
  1

  0
LWPOLYLINE
  5
6B
330
69
100
AcDbEntity
  8
0
100
AcDbPolyline
 90
        2
 70
     1
 43
0.15
 10
0.075
 20
0.0
 42
1.0
 10
-0.075
 20
0.0
 42
1.0
  0
ENDBLK
  5
6F
330
69
100
AcDbEntity
  8
0
100
AcDbBlockEnd
  0
BLOCK
  5
2DD7
330
2DD5
100
AcDbEntity
  8
0
370
    30
100
AcDbBlockBegin
  2
A$C02E13B6E
 70
     0
 10
0.0
 20
0.0
 30
0.0
  3
A$C02E13B6E
  1

  0
MTEXT
  5
2DD6
330
2DD5
100
AcDbEntity
  8
0
  6
Continuous
370
    30
100
AcDbMText
 10
0.0061000008915741
 20
0.1178557990997175
 30
0.0
 40
0.075
 41
0.6
 71
     1
 72
     5
  1
{\fCourier New|b0|i0|c0|p49;NO}
 73
     1
 44
1.0
  0
ENDBLK
  5
2DD8
330
2DD5
100
AcDbEntity
  8
0
370
    30
100
AcDbBlockEnd
  0
BLOCK
  5
31E6
330
31CD
100
AcDbEntity
  8
0
370
    30
100
AcDbBlockBegin
  2
A$C2D1730EF
 70
     0
 10
0.0
 20
0.0
 30
0.0
  3
A$C2D1730EF
  1

  0
LINE
  5
31CE
330
31CD
100
AcDbEntity
  8
0
  6
Continuous
370
    30
100
AcDbLine
 10
-0.0000000176838428
 20
0.0000000059601302
 30
0.0
 11
3.899999982316158
 21
0.0000000059601302
 31
0.0
  0
MTEXT
  5
31CF
330
31CD
100
AcDbEntity
  8
0
  6
Continuous
370
    30
100
AcDbMText
 10
1.999999982316158
 20
0.6000000059601299
 30
0.0
 40
0.1
 41
1.1
 71
     1
 72
     5
  1
{\fCourier New|b0|i0|c0|p49;06-15-07}
 73
     1
 44
1.0
  0
LINE
  5
31D0
330
31CD
100
AcDbEntity
  8
0
  6
Continuous
370
    30
100
AcDbLine
 10
-0.0000000176838428
 20
0.4000000059601306
 30
0.0
 11
3.899999982316158
 21
0.4000000059601306
 31
0.0
  0
MTEXT
  5
31D1
330
31CD
100
AcDbEntity
  8
0
  6
Continuous
370
    30
100
AcDbMText
 10
1.699999982316157
 20
1.100000005960129
 30
0.0
 40
0.14
 41
2.2
 71
     1
 72
     5
  1
{\fCourier New|b0|i0|c0|p49;123456789012345}
 73
     1
 44
1.0
  0
MTEXT
  5
31D2
330
31CD
100
AcDbEntity
  8
0
  6
Continuous
370
    30
100
AcDbMText
 10
2.724999982316156
 20
1.450000005960127
 30
0.0
 40
0.2
 41
2.35
 71
     2
 72
     5
  1
{\fArial|b0|i0|c0|p34;ITEM NUMBER}
 73
     1
 44
1.0
  0
LINE
  5
31D3
330
31CD
100
AcDbEntity
  8
0
  6
Continuous
370
    30
100
AcDbLine
 10
-0.0000000176838428
 20
0.8000000059601291
 30
0.0
 11
3.899999982316158
 21
0.8000000059601291
 31
0.0
  0
MTEXT
  5
31D4
330
31CD
100
AcDbEntity
  8
0
  6
Continuous
370
    30
100
AcDbMText
 10
0.0749999823161574
 20
0.9500000059601294
 30
0.0
 40
0.075
 41
1.425
 71
     1
 72
     5
  1
{\fTimes New Roman|b1|i1|c0|p18;Automation Components, Inc.}
 73
     1
 44
1.0
  0
MTEXT
  5
31D5
330
31CD
100
AcDbEntity
  8
0
  6
Continuous
370
    30
100
AcDbMText
 10
0.0749999823161574
 20
1.50000000596013
 30
0.0
 40
0.5
 41
1.425
 71
     1
 72
     5
  1
{\fTimes New Roman|b1|i1|c0|p18;ACI}
 73
     1
 44
1.0
  0
LINE
  5
31D6
330
31CD
100
AcDbEntity
  8
0
  6
Continuous
370
    30
100
AcDbLine
 10
-0.0000000176838428
 20
1.550000005960129
 30
0.0
 11
-0.0000000176838428
 21
0.0000000059601302
 31
0.0
  0
MTEXT
  5
31D7
330
31CD
100
AcDbEntity
  8
0
  6
Continuous
370
    30
100
AcDbMText
 10
0.1999999823161573
 20
0.6000000059601299
 30
0.0
 40
0.1
 41
1.077199999999999
 71
     1
 72
     5
  1
{\fCourier New|b0|i0|c0|p49;33nnnnnn}
 73
     1
 44
1.0
  0
MTEXT
  5
31D8
330
31CD
100
AcDbEntity
  8
0
  6
Continuous
370
    30
100
AcDbMText
 10
0.0999999823161577
 20
0.7500000059601302
 30
0.0
 40
0.075
 41
1.399999999999999
 71
     1
 72
     5
  1
{\fArial|b0|i0|c0|p34;DRAWING NUMBER}
 73
     1
 44
1.0
  0
MTEXT
  5
31D9
330
31CD
100
AcDbEntity
  8
0
  6
Continuous
370
    30
100
AcDbMText
 10
0.1999999823161573
 20
0.2000000059601295
 30
0.0
 40
0.1
 41
3.75
 71
     1
 72
     5
  1
{\fCourier New|b0|i0|c0|p49;ECO: }
 73
     1
 44
1.0
  0
MTEXT
  5
31DA
330
31CD
100
AcDbEntity
  8
0
  6
Continuous
370
    30
100
AcDbMText
 10
0.0999999823161577
 20
0.3500000059601298
 30
0.0
 40
0.075
 41
3.799999999999999
 71
     1
 72
     5
  1
{\fArial|b0|i0|c0|p34;ECO/REASON}
 73
     1
 44
1.0
  0
LINE
  5
31DB
330
31CD
100
AcDbEntity
  8
0
  6
Continuous
370
    30
100
AcDbLine
 10
1.499999982316157
 20
1.550000005960129
 30
0.0
 11
1.499999982316158
 21
0.8000000059601291
 31
0.0
  0
MTEXT
  5
31DC
330
31CD
100
AcDbEntity
  8
0
  6
Continuous
370
    30
100
AcDbMText
 10
1.599999982316157
 20
0.6000000059601299
 30
0.0
 40
0.1
 41
0.3
 71
     1
 72
     5
  1
{\fCourier New|b0|i0|c0|p49;1}
 73
     1
 44
1.0
  0
LINE
  5
31DD
330
31CD
100
AcDbEntity
  8
0
  6
Continuous
370
    30
100
AcDbLine
 10
1.499999982316158
 20
0.8000000059601291
 30
0.0
 11
1.499999982316158
 21
0.4000000059601306
 31
0.0
  0
MTEXT
  5
31DE
330
31CD
100
AcDbEntity
  8
0
  6
Continuous
370
    30
100
AcDbMText
 10
1.599999982316157
 20
0.7500000059601302
 30
0.0
 40
0.075
 41
0.4999999999999988
 71
     1
 72
     5
  1
{\fArial|b0|i0|c0|p34;REV}
 73
     1
 44
1.0
  0
LINE
  5
31DF
330
31CD
100
AcDbEntity
  8
0
  6
Continuous
370
    30
100
AcDbLine
 10
1.899999982316157
 20
0.7500000059601284
 30
0.0
 11
1.899999982316157
 21
0.4000000059601306
 31
0.0
  0
MTEXT
  5
31E0
330
31CD
100
AcDbEntity
  8
0
  6
Continuous
370
    30
100
AcDbMText
 10
1.999999982316158
 20
0.7500000059601302
 30
0.0
 40
0.075
 41
0.399999999999999
 71
     1
 72
     5
  1
{\fArial|b0|i0|c0|p34;DATE}
 73
     1
 44
1.0
  0
MTEXT
  5
31E1
330
31CD
100
AcDbEntity
  8
0
  6
Continuous
370
    30
100
AcDbMText
 10
3.099999982316157
 20
0.3500000059601298
 30
0.0
 40
0.075
 41
0.8000000000000005
 71
     1
 72
     5
  1
{\fArial|b0|i0|c0|p34;APPROVED BY}
 73
     1
 44
1.0
  0
MTEXT
  5
31E2
330
31CD
100
AcDbEntity
  8
0
  6
Continuous
370
    30
100
AcDbMText
 10
3.099999982316157
 20
0.2000000059601295
 30
0.0
 40
0.1
 41
0.3716
 71
     1
 72
     5
  1
{\fCourier New|b0|i0|c0|p49;INI}
 73
     1
 44
1.0
  0
MTEXT
  5
31E3
330
31CD
100
AcDbEntity
  8
0
  6
Continuous
370
    30
100
AcDbMText
 10
3.099999982316157
 20
0.6000000059601299
 30
0.0
 40
0.1
 41
0.5
 71
     1
 72
     5
  1
{\fCourier New|b0|i0|c0|p49;INI}
 73
     1
 44
1.0
  0
MTEXT
  5
31E4
330
31CD
100
AcDbEntity
  8
0
  6
Continuous
370
    30
100
AcDbMText
 10
3.099999982316157
 20
0.7500000059601302
 30
0.0
 40
0.075
 41
0.7999999999999992
 71
     1
 72
     5
  1
{\fArial|b0|i0|c0|p34;DRAWN BY}
 73
     1
 44
1.0
  0
LINE
  5
31E5
330
31CD
100
AcDbEntity
  8
0
  6
Continuous
370
    30
100
AcDbLine
 10
2.999999982316158
 20
0.8000000059601291
 30
0.0
 11
2.999999982316158
 21
0.0000000059601302
 31
0.0
  0
ENDBLK
  5
31E7
330
31CD
100
AcDbEntity
  8
0
370
    30
100
AcDbBlockEnd
  0
BLOCK
  5
3201
330
31E8
100
AcDbEntity
  8
0
370
    30
100
AcDbBlockBegin
  2
A$C2B5F7553
 70
     0
 10
0.0
 20
0.0
 30
0.0
  3
A$C2B5F7553
  1

  0
LINE
  5
31E9
330
31E8
100
AcDbEntity
  8
0
  6
Continuous
370
    30
100
AcDbLine
 10
-0.0000000176838428
 20
0.0000000059601302
 30
0.0
 11
3.899999982316158
 21
0.0000000059601302
 31
0.0
  0
MTEXT
  5
31EA
330
31E8
100
AcDbEntity
  8
0
  6
Continuous
370
    30
100
AcDbMText
 10
1.999999982316158
 20
0.6000000059601299
 30
0.0
 40
0.1
 41
1.1
 71
     1
 72
     5
  1
{\fCourier New|b0|i0|c0|p49;06-15-07}
 73
     1
 44
1.0
  0
LINE
  5
31EB
330
31E8
100
AcDbEntity
  8
0
  6
Continuous
370
    30
100
AcDbLine
 10
-0.0000000176838428
 20
0.4000000059601306
 30
0.0
 11
3.899999982316158
 21
0.4000000059601306
 31
0.0
  0
MTEXT
  5
31EC
330
31E8
100
AcDbEntity
  8
0
  6
Continuous
370
    30
100
AcDbMText
 10
1.699999982316157
 20
1.100000005960129
 30
0.0
 40
0.14
 41
2.2
 71
     1
 72
     5
  1
{\fCourier New|b0|i0|c0|p49;123456789012345}
 73
     1
 44
1.0
  0
MTEXT
  5
31ED
330
31E8
100
AcDbEntity
  8
0
  6
Continuous
370
    30
100
AcDbMText
 10
2.724999982316156
 20
1.450000005960127
 30
0.0
 40
0.2
 41
2.35
 71
     2
 72
     5
  1
{\fArial|b0|i0|c0|p34;ITEM NUMBER}
 73
     1
 44
1.0
  0
LINE
  5
31EE
330
31E8
100
AcDbEntity
  8
0
  6
Continuous
370
    30
100
AcDbLine
 10
-0.0000000176838428
 20
0.8000000059601291
 30
0.0
 11
3.899999982316158
 21
0.8000000059601291
 31
0.0
  0
MTEXT
  5
31EF
330
31E8
100
AcDbEntity
  8
0
  6
Continuous
370
    30
100
AcDbMText
 10
0.0749999823161574
 20
0.9500000059601294
 30
0.0
 40
0.075
 41
1.425
 71
     1
 72
     5
  1
{\fTimes New Roman|b1|i1|c0|p18;Automation Components, Inc.}
 73
     1
 44
1.0
  0
MTEXT
  5
31F0
330
31E8
100
AcDbEntity
  8
0
  6
Continuous
370
    30
100
AcDbMText
 10
0.0749999823161574
 20
1.50000000596013
 30
0.0
 40
0.5
 41
1.425
 71
     1
 72
     5
  1
{\fTimes New Roman|b1|i1|c0|p18;ACI}
 73
     1
 44
1.0
  0
LINE
  5
31F1
330
31E8
100
AcDbEntity
  8
0
  6
Continuous
370
    30
100
AcDbLine
 10
-0.0000000176838428
 20
1.550000005960129
 30
0.0
 11
-0.0000000176838428
 21
0.0000000059601302
 31
0.0
  0
MTEXT
  5
31F2
330
31E8
100
AcDbEntity
  8
0
  6
Continuous
370
    30
100
AcDbMText
 10
0.1999999823161573
 20
0.6000000059601299
 30
0.0
 40
0.1
 41
1.077199999999999
 71
     1
 72
     5
  1
{\fCourier New|b0|i0|c0|p49;33nnnnnn}
 73
     1
 44
1.0
  0
MTEXT
  5
31F3
330
31E8
100
AcDbEntity
  8
0
  6
Continuous
370
    30
100
AcDbMText
 10
0.0999999823161577
 20
0.7500000059601302
 30
0.0
 40
0.075
 41
1.399999999999999
 71
     1
 72
     5
  1
{\fArial|b0|i0|c0|p34;DRAWING NUMBER}
 73
     1
 44
1.0
  0
MTEXT
  5
31F4
330
31E8
100
AcDbEntity
  8
0
  6
Continuous
370
    30
100
AcDbMText
 10
0.1999999823161573
 20
0.2000000059601295
 30
0.0
 40
0.1
 41
2.8
 71
     1
 72
     5
  1
{\fCourier New|b0|i0|c0|p49;ECO: }
 73
     1
 44
1.0
  0
MTEXT
  5
31F5
330
31E8
100
AcDbEntity
  8
0
  6
Continuous
370
    30
100
AcDbMText
 10
0.0999999823161577
 20
0.3500000059601298
 30
0.0
 40
0.075
 41
3.799999999999999
 71
     1
 72
     5
  1
{\fArial|b0|i0|c0|p34;ECO/REASON}
 73
     1
 44
1.0
  0
LINE
  5
31F6
330
31E8
100
AcDbEntity
  8
0
  6
Continuous
370
    30
100
AcDbLine
 10
1.499999982316157
 20
1.550000005960129
 30
0.0
 11
1.499999982316158
 21
0.8000000059601291
 31
0.0
  0
MTEXT
  5
31F7
330
31E8
100
AcDbEntity
  8
0
  6
Continuous
370
    30
100
AcDbMText
 10
1.599999982316157
 20
0.6000000059601299
 30
0.0
 40
0.1
 41
0.3
 71
     1
 72
     5
  1
{\fCourier New|b0|i0|c0|p49;1}
 73
     1
 44
1.0
  0
LINE
  5
31F8
330
31E8
100
AcDbEntity
  8
0
  6
Continuous
370
    30
100
AcDbLine
 10
1.499999982316158
 20
0.8000000059601291
 30
0.0
 11
1.499999982316158
 21
0.4000000059601306
 31
0.0
  0
MTEXT
  5
31F9
330
31E8
100
AcDbEntity
  8
0
  6
Continuous
370
    30
100
AcDbMText
 10
1.599999982316157
 20
0.7500000059601302
 30
0.0
 40
0.075
 41
0.4999999999999988
 71
     1
 72
     5
  1
{\fArial|b0|i0|c0|p34;REV}
 73
     1
 44
1.0
  0
LINE
  5
31FA
330
31E8
100
AcDbEntity
  8
0
  6
Continuous
370
    30
100
AcDbLine
 10
1.899999982316157
 20
0.7500000059601284
 30
0.0
 11
1.899999982316157
 21
0.4000000059601306
 31
0.0
  0
MTEXT
  5
31FB
330
31E8
100
AcDbEntity
  8
0
  6
Continuous
370
    30
100
AcDbMText
 10
1.999999982316158
 20
0.7500000059601302
 30
0.0
 40
0.075
 41
0.399999999999999
 71
     1
 72
     5
  1
{\fArial|b0|i0|c0|p34;DATE}
 73
     1
 44
1.0
  0
MTEXT
  5
31FC
330
31E8
100
AcDbEntity
  8
0
  6
Continuous
370
    30
100
AcDbMText
 10
3.099999982316157
 20
0.3500000059601298
 30
0.0
 40
0.075
 41
0.8000000000000005
 71
     1
 72
     5
  1
{\fArial|b0|i0|c0|p34;APPROVED BY}
 73
     1
 44
1.0
  0
MTEXT
  5
31FD
330
31E8
100
AcDbEntity
  8
0
  6
Continuous
370
    30
100
AcDbMText
 10
3.099999982316157
 20
0.2000000059601295
 30
0.0
 40
0.1
 41
0.3716
 71
     1
 72
     5
  1
{\fCourier New|b0|i0|c0|p49;INI}
 73
     1
 44
1.0
  0
MTEXT
  5
31FE
330
31E8
100
AcDbEntity
  8
0
  6
Continuous
370
    30
100
AcDbMText
 10
3.099999982316157
 20
0.6000000059601299
 30
0.0
 40
0.1
 41
0.5
 71
     1
 72
     5
  1
{\fCourier New|b0|i0|c0|p49;INI}
 73
     1
 44
1.0
  0
MTEXT
  5
31FF
330
31E8
100
AcDbEntity
  8
0
  6
Continuous
370
    30
100
AcDbMText
 10
3.099999982316157
 20
0.7500000059601302
 30
0.0
 40
0.075
 41
0.7999999999999992
 71
     1
 72
     5
  1
{\fArial|b0|i0|c0|p34;DRAWN BY}
 73
     1
 44
1.0
  0
LINE
  5
3200
330
31E8
100
AcDbEntity
  8
0
  6
Continuous
370
    30
100
AcDbLine
 10
2.999999982316158
 20
0.8000000059601291
 30
0.0
 11
2.999999982316158
 21
0.0000000059601302
 31
0.0
  0
ENDBLK
  5
3202
330
31E8
100
AcDbEntity
  8
0
370
    30
100
AcDbBlockEnd
  0
BLOCK
  5
2AA3
330
2A96
100
AcDbEntity
  8
0
370
    30
100
AcDbBlockBegin
  2
*Paper_Space14
 70
     0
 10
0.0
 20
0.0
 30
0.0
  3
*Paper_Space14
  1

  0
VIEWPORT
  5
2A97
330
2A96
100
AcDbEntity
  8
0
  6
Continuous
100
AcDbViewport
 10
5.82853876874466
 20
8.015427109980038
 30
0.0
 40
11.92942738997307
 41
7.179006639603485
 69
     0
 12
5.82853876874466
 22
8.015427109980038
 13
0.0
 23
0.0
 14
0.05
 24
0.05
 15
0.1
 25
0.1
 16
0.0
 26
0.0
 36
1.0
 17
0.0
 27
0.0
 37
0.0
 42
50.0
 43
0.0
 44
0.0
 45
7.179006639603485
 50
0.0
 51
0.0
 72
   100
 90
    33568
  1

281
     0
 71
     1
 74
     0
110
0.0
120
0.0
130
0.0
111
1.0
121
0.0
131
0.0
112
0.0
122
1.0
132
0.0
 79
     0
146
0.0
  0
VIEWPORT
  5
2A98
330
2A96
100
AcDbEntity
  8
Viewport Layer
  6
Continuous
370
    30
100
AcDbViewport
 10
4.125
 20
2.725
 30
0.0
 40
8.05
 41
4.25
 69
     0
 12
6.0
 22
3.0
 13
0.0
 23
0.0
 14
1.0
 24
1.0
 15
0.0
 25
0.0
 16
0.0
 26
0.0
 36
1.0
 17
0.0
 27
0.0
 37
0.0
 42
50.0
 43
0.0
 44
0.0
 45
5.666666666666666
 50
0.0
 51
0.0
 72
   100
 90
    32800
  1

281
     0
 71
     1
 74
     0
110
0.0
120
0.0
130
0.0
111
1.0
121
0.0
131
0.0
112
0.0
122
1.0
132
0.0
 79
     0
146
0.0
  0
LINE
  5
2A9B
330
2A96
100
AcDbEntity
  8
0
  6
Continuous
370
    30
100
AcDbLine
 10
8.200000000000001
 20
5.8
 30
0.0
 11
4.299999999999999
 21
5.8
 31
0.0
  0
LINE
  5
2A9D
330
2A96
100
AcDbEntity
  8
0
  6
Continuous
370
    30
100
AcDbLine
 10
4.299999999999999
 20
10.74999999999999
 30
0.0
 11
4.299999999999999
 21
4.9
 31
0.0
  0
MTEXT
  5
2A9E
330
2A96
100
AcDbEntity
  8
0
  6
Continuous
370
    30
100
AcDbMText
 10
4.5
 20
5.6
 30
0.0
 40
0.075
 41
1.999999999999999
 71
     1
 72
     5
  1
{\fCourier New|b0|i0|c0|p49;3 PLACE DECIMAL = ±0.005\P2 PLACE DECIMAL = ±0.015\P1 PLACE DECIMAL = ±0.050\PALL DIMENSIONS IN INCHES.\PDRAWING NOT TO SCALE.}
 73
     1
 44
1.0
  0
MTEXT
  5
2A9F
330
2A96
100
AcDbEntity
  8
0
  6
Continuous
370
    30
100
AcDbMText
 10
4.375
 20
10.7
 30
0.0
 40
0.5
 41
1.425
 71
     1
 72
     5
  1
{\fTimes New Roman|b1|i1|c0|p18;ACI}
 73
     1
 44
1.0
  0
MTEXT
  5
2AA0
330
2A96
100
AcDbEntity
  8
0
  6
Continuous
370
    30
100
AcDbMText
 10
4.375
 20
10.15
 30
0.0
 40
0.075
 41
1.425
 71
     1
 72
     5
  1
{\fTimes New Roman|b1|i1|c0|p18;Automation Components, Inc.}
 73
     1
 44
1.0
  0
LINE
  5
2AA1
330
2A96
100
AcDbEntity
  8
0
  6
Continuous
370
    30
100
AcDbLine
 10
6.5
 20
5.8
 30
0.0
 11
6.5
 21
4.9
 31
0.0
  0
MTEXT
  5
2AA2
330
2A96
100
AcDbEntity
  8
0
  6
Continuous
370
    30
100
AcDbMText
 10
6.7
 20
5.6
 30
0.0
 40
0.075
 41
1.5
 71
     1
 72
     5
  1
{\fCourier New|b0|i0|c0|p49;CONFIDENTIAL INFORMATION-- PROPERTY OF ACI. UNAUTHORIZED USE STRICTLY FORBIDDEN.}
 73
     1
 44
1.0
  0
LINE
  5
2B6D
330
2A96
100
AcDbEntity
  8
0
  6
Continuous
370
    30
100
AcDbLine
 10
4.299999999999999
 20
10.0
 30
0.0
 11
8.200000000000001
 21
10.0
 31
0.0
  0
LINE
  5
2B6E
330
2A96
100
AcDbEntity
  8
0
  6
Continuous
370
    30
100
AcDbLine
 10
5.799999999999999
 20
10.74999999999999
 30
0.0
 11
5.8
 21
10.0
 31
0.0
  0
MTEXT
  5
2B6F
330
2A96
100
AcDbEntity
  8
0
  6
Continuous
370
    30
100
AcDbMText
 10
7.0
 20
10.7
 30
0.0
 40
0.2
 41
2.399999999999999
 71
     2
 72
     5
  1
{\fArial|b0|i0|c0|p34;ITEM NUMBER}
 73
     1
 44
1.0
  0
MTEXT
  5
2B71
330
2A96
100
AcDbEntity
  8
0
  6
Continuous
370
    30
100
AcDbMText
 10
6.0
 20
10.4
 30
0.0
 40
0.14
 41
2.2
 71
     1
 72
     5
  1
{\fCourier New|b0|i0|c0|p49;123456789012345}
 73
     1
 44
1.0
  0
MTEXT
  5
2B72
330
2A96
100
AcDbEntity
  8
0
  6
Continuous
370
    30
100
AcDbMText
 10
4.4
 20
9.05
 30
0.0
 40
0.075
 41
3.799999999999999
 71
     1
 72
     5
  1
{\fArial|b0|i0|c0|p34;TECHNICAL DESCRIPTION}
 73
     1
 44
1.0
  0
MTEXT
  5
2B73
330
2A96
100
AcDbEntity
  8
0
  6
Continuous
370
    30
100
AcDbMText
 10
5.8
 20
9.649999999999998
 30
0.0
 40
0.075
 41
2.399999999999999
 71
     1
 72
     5
  1
{\fCourier New|b0|i0|c0|p49;Maximum 30 characters per box.}
 73
     1
 44
1.0
  0
MTEXT
  5
2B80
330
2A96
100
AcDbEntity
  8
0
  6
Continuous
370
    30
100
AcDbMText
 10
0.1
 20
10.7
 30
0.0
 40
0.075
 41
1.699999999999999
 71
     1
 72
     5
  1
{\fArial|b0|i0|c0|p34;APPROVED MANUFACTURER}
 73
     1
 44
1.0
  0
MTEXT
  5
2B81
330
2A96
100
AcDbEntity
  8
0
  6
Continuous
370
    30
100
AcDbMText
 10
3.5
 20
4.9
 30
0.0
 40
0.2
 41
2.799999999999999
 71
     1
 72
     5
  1

 73
     1
 44
1.0
  0
MTEXT
  5
2B82
330
2A96
100
AcDbEntity
  8
0
  6
Continuous
370
    30
100
AcDbMText
 10
2.3
 20
10.7
 30
0.0
 40
0.075
 41
1.8
 71
     1
 72
     5
  1
{\fArial|b0|i0|c0|p34;MANUFACTURER NUMBER}
 73
     1
 44
1.0
  0
MTEXT
  5
2B83
330
2A96
100
AcDbEntity
  8
0
  6
Continuous
370
    30
100
AcDbMText
 10
2.2
 20
7.4
 30
0.0
 40
0.075
 41
0.3999999999999998
 71
     1
 72
     5
  1
{\fArial|b0|i0|c0|p34;MTBF}
 73
     1
 44
1.0
  0
MTEXT
  5
2B85
330
2A96
100
AcDbEntity
  8
0
  6
Continuous
370
    30
100
AcDbMText
 10
0.3
 20
7.400000000000001
 30
0.0
 40
0.075
 41
0.5999999999999999
 71
     1
 72
     5
  1
{\fArial|b0|i0|c0|p34;UL}
 73
     1
 44
1.0
  0
MTEXT
  5
2B86
330
2A96
100
AcDbEntity
  8
0
  6
Continuous
370
    30
100
AcDbMText
 10
1.0
 20
7.400000000000001
 30
0.0
 40
0.075
 41
0.3
 71
     1
 72
     5
  1
{\fArial|b0|i0|c0|p34;CE}
 73
     1
 44
1.0
  0
MTEXT
  5
2B87
330
2A96
100
AcDbEntity
  8
0
  6
Continuous
370
    30
100
AcDbMText
 10
1.4
 20
7.400000000000001
 30
0.0
 40
0.075
 41
0.7000000000000001
 71
     1
 72
     5
  1
{\fArial|b0|i0|c0|p34;ROHS/CODE}
 73
     1
 44
1.0
  0
MTEXT
  5
2BEB
330
2A96
100
AcDbEntity
  8
0
  6
Continuous
370
    30
100
AcDbMText
 10
2.3
 20
10.5
 30
0.0
 40
0.075
 41
2.0
 71
     1
 72
     5
  1
{\fCourier New|b0|i0|c0|p49;Part}
 73
     1
 44
1.0
  0
MTEXT
  5
2BF1
330
2A96
100
AcDbEntity
  8
0
  6
Continuous
370
    30
100
AcDbMText
 10
0.3
 20
7.200000000000001
 30
0.0
 40
0.075
 41
0.6
 71
     1
 72
     5
  1
{\fCourier New|b0|i0|c0|p49;NO}
 73
     1
 44
1.0
  0
MTEXT
  5
2BF9
330
2A96
100
AcDbEntity
  8
0
  6
Continuous
370
    30
100
AcDbMText
 10
1.0
 20
7.200000000000001
 30
0.0
 40
0.075
 41
0.3
 71
     1
 72
     5
  1
{\fCourier New|b0|i0|c0|p49;NO}
 73
     1
 44
1.0
  0
MTEXT
  5
2C00
330
2A96
100
AcDbEntity
  8
0
  6
Continuous
370
    30
100
AcDbMText
 10
1.4
 20
7.200000000000001
 30
0.0
 40
0.075
 41
0.7
 71
     1
 72
     5
  1
{\fCourier New|b0|i0|c0|p49;NO}
 73
     1
 44
1.0
  0
MTEXT
  5
2C07
330
2A96
100
AcDbEntity
  8
0
  6
Continuous
370
    30
100
AcDbMText
 10
2.7
 20
7.2
 30
0.0
 40
0.075
 41
0.6
 71
     1
 72
     5
  1
{\fCourier New|b0|i0|c0|p49;INI}
 73
     1
 44
1.0
  0
MTEXT
  5
2C30
330
2A96
100
AcDbEntity
  8
0
  6
Continuous
370
    30
100
AcDbMText
 10
4.4
 20
9.450000000000001
 30
0.0
 40
0.075
 41
1.7
 71
     1
 72
     5
  1
{\fArial|b0|i0|c0|p34;INCOMING INSPECTION}
 73
     1
 44
1.0
  0
MTEXT
  5
2C36
330
2A96
100
AcDbEntity
  8
0
  6
Continuous
370
    30
100
AcDbMText
 10
4.5
 20
9.284230769230768
 30
0.0
 40
0.075
 41
3.7
 71
     1
 72
     5
  1
{\fCourier New|b0|i0|c0|p49;Incoming inspection per drawing 3400nnnn.}
 73
     1
 44
1.0
  0
LINE
  5
2C37
330
2A96
100
AcDbEntity
  8
0
  6
Continuous
370
    30
100
AcDbLine
 10
4.299999999999999
 20
9.099999999999999
 30
0.0
 11
8.200000000000001
 21
9.099999999999999
 31
0.0
  0
LINE
  5
2C7F
330
2A96
100
AcDbEntity
  8
0
  6
Continuous
370
    30
100
AcDbLine
 10
0.05
 20
10.6
 30
0.0
 11
4.299999999999999
 21
10.6
 31
0.0
  0
LINE
  5
2C81
330
2A96
100
AcDbEntity
  8
0
  6
Continuous
370
    30
100
AcDbLine
 10
2.2
 20
10.74999999999999
 30
0.0
 11
2.2
 21
8.200000000000001
 31
0.0
  0
LINE
  5
2C82
330
2A96
100
AcDbEntity
  8
0
  6
Continuous
370
    30
100
AcDbLine
 10
0.05
 20
10.3
 30
0.0
 11
4.299999999999999
 21
10.3
 31
0.0
  0
MTEXT
  5
2C88
330
2A96
100
AcDbEntity
  8
0
  6
Continuous
370
    30
100
AcDbMText
 10
0.1
 20
10.5
 30
0.0
 40
0.075
 41
0.2000000000000001
 71
     1
 72
     5
  1
{\fCourier New|b0|i0|c0|p49;1.}
 73
     1
 44
1.0
  0
MTEXT
  5
2C8E
330
2A96
100
AcDbEntity
  8
0
  6
Continuous
370
    30
100
AcDbMText
 10
0.1
 20
10.2
 30
0.0
 40
0.075
 41
0.2178
 71
     1
 72
     5
  1
{\fCourier New|b0|i0|c0|p49;2.}
 73
     1
 44
1.0
  0
MTEXT
  5
2C94
330
2A96
100
AcDbEntity
  8
0
  6
Continuous
370
    30
100
AcDbMText
 10
0.1
 20
9.9
 30
0.0
 40
0.075
 41
0.2178
 71
     1
 72
     5
  1
{\fCourier New|b0|i0|c0|p49;3.}
 73
     1
 44
1.0
  0
LINE
  5
2CA1
330
2A96
100
AcDbEntity
  8
0
  6
Continuous
370
    30
100
AcDbLine
 10
0.05
 20
10.0
 30
0.0
 11
4.299999999999999
 21
10.0
 31
0.0
  0
LINE
  5
2CA2
330
2A96
100
AcDbEntity
  8
0
  6
Continuous
370
    30
100
AcDbLine
 10
0.05
 20
9.700000000000001
 30
0.0
 11
4.299999999999999
 21
9.700000000000001
 31
0.0
  0
LINE
  5
2CB1
330
2A96
100
AcDbEntity
  8
0
  6
Continuous
370
    30
100
AcDbLine
 10
0.05
 20
7.450000000000001
 30
0.0
 11
4.299999999999999
 21
7.450000000000001
 31
0.0
  0
MTEXT
  5
2CB7
330
2A96
100
AcDbEntity
  8
0
  6
Continuous
370
    30
100
AcDbMText
 10
0.1
 20
7.200000000000001
 30
0.0
 40
0.075
 41
0.1677666583358786
 71
     1
 72
     5
  1
{\fCourier New|b0|i0|c0|p49;1.}
 73
     1
 44
1.0
  0
MTEXT
  5
2CBD
330
2A96
100
AcDbEntity
  8
0
  6
Continuous
370
    30
100
AcDbMText
 10
2.7
 20
7.400000000000001
 30
0.0
 40
0.075
 41
0.6000000000000001
 71
     1
 72
     5
  1
{\fArial|b0|i0|c0|p34;ENGINEER}
 73
     1
 44
1.0
  0
MTEXT
  5
2CC3
330
2A96
100
AcDbEntity
  8
0
  6
Continuous
370
    30
100
AcDbMText
 10
3.4
 20
7.400000000000001
 30
0.0
 40
0.075
 41
0.8999999999999996
 71
     1
 72
     5
  1
{\fArial|b0|i0|c0|p34;DATE}
 73
     1
 44
1.0
  0
MTEXT
  5
2CC9
330
2A96
100
AcDbEntity
  8
0
  6
Continuous
370
    30
100
AcDbMText
 10
3.4
 20
7.2
 30
0.0
 40
0.075
 41
0.9
 71
     1
 72
     5
  1
{\fCourier New|b0|i0|c0|p49;07-12-07}
 73
     1
 44
1.0
  0
MTEXT
  5
2CCF
330
2A96
100
AcDbEntity
  8
0
  6
Continuous
370
    30
100
AcDbMText
 10
2.2
 20
7.2
 30
0.0
 40
0.075
 41
0.4
 71
     1
 72
     5
  1
{\fCourier New|b0|i0|c0|p49;NO}
 73
     1
 44
1.0
  0
LINE
  5
2CD0
330
2A96
100
AcDbEntity
  8
0
  6
Continuous
370
    30
100
AcDbLine
 10
0.05
 20
7.299999999999999
 30
0.0
 11
4.299999999999999
 21
7.299999999999999
 31
0.0
  0
LINE
  5
2CD1
330
2A96
100
AcDbEntity
  8
0
  6
Continuous
370
    30
100
AcDbLine
 10
0.05
 20
6.999999999999999
 30
0.0
 11
4.299999999999999
 21
7.000000000000002
 31
0.0
  0
LINE
  5
2CD2
330
2A96
100
AcDbEntity
  8
0
  6
Continuous
370
    30
100
AcDbLine
 10
0.9
 20
7.450000000000001
 30
0.0
 11
0.9
 21
4.9
 31
0.0
  0
LINE
  5
2CD3
330
2A96
100
AcDbEntity
  8
0
  6
Continuous
370
    30
100
AcDbLine
 10
1.3
 20
7.450000000000001
 30
0.0
 11
1.3
 21
4.9
 31
0.0
  0
LINE
  5
2CD4
330
2A96
100
AcDbEntity
  8
0
  6
Continuous
370
    30
100
AcDbLine
 10
2.1
 20
7.450000000000001
 30
0.0
 11
2.1
 21
4.9
 31
0.0
  0
LINE
  5
2CD5
330
2A96
100
AcDbEntity
  8
0
  6
Continuous
370
    30
100
AcDbLine
 10
2.6
 20
7.450000000000001
 30
0.0
 11
2.6
 21
4.9
 31
0.0
  0
LINE
  5
2CD6
330
2A96
100
AcDbEntity
  8
0
  6
Continuous
370
    30
100
AcDbLine
 10
3.3
 20
7.450000000000001
 30
0.0
 11
3.3
 21
4.9
 31
0.0
  0
LINE
  5
2CD8
330
2A96
100
AcDbEntity
  8
0
  6
Continuous
370
    30
100
AcDbLine
 10
0.05
 20
6.700000000000001
 30
0.0
 11
4.299999999999999
 21
6.700000000000001
 31
0.0
  0
LINE
  5
2CD9
330
2A96
100
AcDbEntity
  8
0
  6
Continuous
370
    30
100
AcDbLine
 10
0.05
 20
6.4
 30
0.0
 11
4.299999999999999
 21
6.4
 31
0.0
  0
MTEXT
  5
2CDF
330
2A96
100
AcDbEntity
  8
0
  6
Continuous
370
    30
100
AcDbMText
 10
0.1
 20
6.900000000000001
 30
0.0
 40
0.075
 41
0.2000000000000001
 71
     1
 72
     5
  1
{\fCourier New|b0|i0|c0|p49;2.}
 73
     1
 44
1.0
  0
MTEXT
  5
2CE5
330
2A96
100
AcDbEntity
  8
0
  6
Continuous
370
    30
100
AcDbMText
 10
0.1
 20
6.600000000000001
 30
0.0
 40
0.075
 41
0.2
 71
     1
 72
     5
  1
{\fCourier New|b0|i0|c0|p49;3.}
 73
     1
 44
1.0
  0
MTEXT
  5
2CEB
330
2A96
100
AcDbEntity
  8
0
  6
Continuous
370
    30
100
AcDbMText
 10
4.4
 20
5.75
 30
0.0
 40
0.075
 41
2.099999999999999
 71
     1
 72
     5
  1
{\fArial|b0|i0|c0|p34;TOLERANCE: (UNLESS NOTED)}
 73
     1
 44
1.0
  0
MTEXT
  5
2CF1
330
2A96
100
AcDbEntity
  8
0
  6
Continuous
370
    30
100
AcDbMText
 10
6.6
 20
5.75
 30
0.0
 40
0.075
 41
1.599999999999999
 71
     1
 72
     5
  1
{\fArial|b0|i0|c0|p34;WARNING!}
 73
     1
 44
1.0
  0
LINE
  5
2CF8
330
2A96
100
AcDbEntity
  8
0
  6
Continuous
370
    30
100
AcDbLine
 10
0.05
 20
9.4
 30
0.0
 11
4.299999999999999
 21
9.4
 31
0.0
  0
LINE
  5
2CF9
330
2A96
100
AcDbEntity
  8
0
  6
Continuous
370
    30
100
AcDbLine
 10
0.05
 20
9.099999999999999
 30
0.0
 11
4.299999999999999
 21
9.099999999999999
 31
0.0
  0
LINE
  5
2CFA
330
2A96
100
AcDbEntity
  8
0
  6
Continuous
370
    30
100
AcDbLine
 10
0.05
 20
8.8
 30
0.0
 11
4.299999999999999
 21
8.8
 31
0.0
  0
MTEXT
  5
2D00
330
2A96
100
AcDbEntity
  8
0
  6
Continuous
370
    30
100
AcDbMText
 10
0.1
 20
9.600000000000001
 30
0.0
 40
0.075
 41
0.2
 71
     1
 72
     5
  1
{\fCourier New|b0|i0|c0|p49;4.}
 73
     1
 44
1.0
  0
MTEXT
  5
2D06
330
2A96
100
AcDbEntity
  8
0
  6
Continuous
370
    30
100
AcDbMText
 10
0.1
 20
9.3
 30
0.0
 40
0.075
 41
0.2
 71
     1
 72
     5
  1
{\fCourier New|b0|i0|c0|p49;5.}
 73
     1
 44
1.0
  0
MTEXT
  5
2D0C
330
2A96
100
AcDbEntity
  8
0
  6
Continuous
370
    30
100
AcDbMText
 10
0.1
 20
9.0
 30
0.0
 40
0.075
 41
0.2
 71
     1
 72
     5
  1
{\fCourier New|b0|i0|c0|p49;6.}
 73
     1
 44
1.0
  0
LINE
  5
2D0D
330
2A96
100
AcDbEntity
  8
0
  6
Continuous
370
    30
100
AcDbLine
 10
0.05
 20
6.1
 30
0.0
 11
4.299999999999999
 21
6.1
 31
0.0
  0
LINE
  5
2D0E
330
2A96
100
AcDbEntity
  8
0
  6
Continuous
370
    30
100
AcDbLine
 10
0.05
 20
5.799999999999999
 30
0.0
 11
4.299999999999999
 21
5.799999999999999
 31
0.0
  0
LINE
  5
2D0F
330
2A96
100
AcDbEntity
  8
0
  6
Continuous
370
    30
100
AcDbLine
 10
0.05
 20
5.5
 30
0.0
 11
4.299999999999999
 21
5.5
 31
0.0
  0
MTEXT
  5
2D15
330
2A96
100
AcDbEntity
  8
0
  6
Continuous
370
    30
100
AcDbMText
 10
0.1
 20
6.3
 30
0.0
 40
0.075
 41
0.2
 71
     1
 72
     5
  1
{\fCourier New|b0|i0|c0|p49;4.}
 73
     1
 44
1.0
  0
MTEXT
  5
2D1B
330
2A96
100
AcDbEntity
  8
0
  6
Continuous
370
    30
100
AcDbMText
 10
0.1
 20
6.0
 30
0.0
 40
0.075
 41
0.2
 71
     1
 72
     5
  1
{\fCourier New|b0|i0|c0|p49;5.}
 73
     1
 44
1.0
  0
MTEXT
  5
2D21
330
2A96
100
AcDbEntity
  8
0
  6
Continuous
370
    30
100
AcDbMText
 10
0.1
 20
5.7
 30
0.0
 40
0.075
 41
0.2
 71
     1
 72
     5
  1
{\fCourier New|b0|i0|c0|p49;6.}
 73
     1
 44
1.0
  0
LINE
  5
2D22
330
2A96
100
AcDbEntity
  8
0
  6
Continuous
370
    30
100
AcDbLine
 10
0.0499999999999998
 20
4.9
 30
0.0
 11
8.200000000000001
 21
4.899999999999999
 31
0.0
  0
LINE
  5
2D23
330
2A96
100
AcDbEntity
  8
0
  6
Continuous
370
    30
100
AcDbLine
 10
0.05
 20
8.5
 30
0.0
 11
4.299999999999999
 21
8.5
 31
0.0
  0
LINE
  5
2D24
330
2A96
100
AcDbEntity
  8
0
  6
Continuous
370
    30
100
AcDbLine
 10
0.05
 20
8.200000000000001
 30
0.0
 11
4.299999999999999
 21
8.200000000000001
 31
0.0
  0
MTEXT
  5
2D2A
330
2A96
100
AcDbEntity
  8
0
  6
Continuous
370
    30
100
AcDbMText
 10
0.1
 20
8.700000000000001
 30
0.0
 40
0.075
 41
0.2
 71
     1
 72
     5
  1
{\fCourier New|b0|i0|c0|p49;7.}
 73
     1
 44
1.0
  0
MTEXT
  5
2D30
330
2A96
100
AcDbEntity
  8
0
  6
Continuous
370
    30
100
AcDbMText
 10
0.1
 20
8.4
 30
0.0
 40
0.075
 41
0.2
 71
     1
 72
     5
  1
{\fCourier New|b0|i0|c0|p49;8.}
 73
     1
 44
1.0
  0
LINE
  5
2D31
330
2A96
100
AcDbEntity
  8
0
  6
Continuous
370
    30
100
AcDbLine
 10
0.05
 20
5.2
 30
0.0
 11
4.299999999999999
 21
5.2
 31
0.0
  0
MTEXT
  5
2D38
330
2A96
100
AcDbEntity
  8
0
  6
Continuous
370
    30
100
AcDbMText
 10
0.1
 20
5.4
 30
0.0
 40
0.075
 41
0.2000000000000002
 71
     1
 72
     5
  1
{\fCourier New|b0|i0|c0|p49;7.}
 73
     1
 44
1.0
  0
MTEXT
  5
2D3E
330
2A96
100
AcDbEntity
  8
0
  6
Continuous
370
    30
100
AcDbMText
 10
0.1
 20
5.1
 30
0.0
 40
0.075
 41
0.2000000000000002
 71
     1
 72
     5
  1
{\fCourier New|b0|i0|c0|p49;8.}
 73
     1
 44
1.0
  0
LWPOLYLINE
  5
2D50
330
2A96
100
AcDbEntity
  8
0
  6
Continuous
370
    30
100
AcDbPolyline
 90
        4
 70
     1
 43
0.0
 10
0.05
 20
10.74999999999999
 10
8.200000000000001
 20
10.74999999999999
 10
8.200000000000001
 20
0.15
 10
0.05
 20
0.15
  0
MTEXT
  5
2D5C
330
2A96
100
AcDbEntity
  8
0
  6
Continuous
370
    30
100
AcDbMText
 10
4.5
 20
8.9
 30
0.0
 40
0.075
 41
3.7
 71
     1
 72
     5
  1
{\fCourier New|b0|i0|c0|p49;List critical technical specs here.}
 73
     1
 44
1.0
  0
MTEXT
  5
2D71
330
2A96
100
AcDbEntity
  8
0
  6
Continuous
370
    30
100
AcDbMText
 10
0.3
 20
10.5
 30
0.0
 40
0.075
 41
1.898099999999999
 71
     1
 72
     5
  1
{\fCourier New|b0|i0|c0|p49;Name}
 73
     1
 44
1.0
  0
MTEXT
  5
2D8F
330
2A96
100
AcDbEntity
  8
0
  6
Continuous
370
    30
100
AcDbMText
 10
0.2
 20
8.0
 30
0.0
 40
0.075
 41
4.099999999999999
 71
     1
 72
     5
  1
{\fCourier New|b0|i0|c0|p49;Here}
 73
     1
 44
1.0
  0
MTEXT
  5
2D9D
330
2A96
100
AcDbEntity
  8
0
  6
Continuous
370
    30
100
AcDbMText
 10
0.1
 20
8.15
 30
0.0
 40
0.075
 41
2.1
 71
     1
 72
     5
  1
{\fArial|b0|i0|c0|p34;NOTES}
 73
     1
 44
1.0
  0
MTEXT
  5
2F1B
330
2A96
100
AcDbEntity
  8
0
  6
Continuous
370
    30
100
AcDbMText
 10
0.1
 20
0.1000000000000001
 30
0.0
 40
0.075
 41
2.799999999999999
 71
     1
 72
     5
  1
{\fArial|b0|i0|c0|p34;PART SPECIFICATION FORM   REV 5   DATE: 07-12-07}
 73
     1
 44
1.0
  0
MTEXT
  5
2FBA
330
2A96
100
AcDbEntity
  8
0
  6
Continuous
370
    30
100
AcDbMText
 10
4.4
 20
9.899999999999998
 30
0.0
 40
0.125
 41
1.3
 71
     1
 72
     5
  1
{\fArial|b0|i0|c0|p34;ACI SYSTEM\PDESCRIPTION:}
 73
     1
 44
1.0
  0
LINE
  5
2FBB
330
2A96
100
AcDbEntity
  8
0
  6
Continuous
370
    30
100
AcDbLine
 10
4.299999999999999
 20
9.5
 30
0.0
 11
8.200000000000001
 21
9.5
 31
0.0
  0
LINE
  5
2FBC
330
2A96
100
AcDbEntity
  8
0
  6
Continuous
370
    30
100
AcDbLine
 10
5.7
 20
10.0
 30
0.0
 11
5.7
 21
9.5
 31
0.0
  0
MTEXT
  5
2FC2
330
2A96
100
AcDbEntity
  8
0
  6
Continuous
370
    30
100
AcDbMText
 10
5.8
 20
9.899999999999998
 30
0.0
 40
0.075
 41
2.399999999999999
 71
     1
 72
     5
  1
{\fCourier New|b0|i0|c0|p49;Most important details here.}
 73
     1
 44
1.0
  0
LINE
  5
2FC3
330
2A96
100
AcDbEntity
  8
0
  6
Continuous
370
    30
100
AcDbLine
 10
5.7
 20
9.75
 30
0.0
 11
8.200000000000001
 21
9.75
 31
0.0
  0
LINE
  5
32BA
330
2A96
100
AcDbEntity
  8
0
  6
Continuous
370
    30
100
AcDbLine
 10
8.200000000000001
 20
0.35
 30
0.0
 11
0.05
 21
0.35
 31
0.0
  0
MTEXT
  5
32CD
330
2A96
100
AcDbEntity
  8
0
  6
Continuous
370
    30
100
AcDbMText
 10
6.5
 20
0.5
 30
0.0
 40
0.075
 41
1.1
 71
     1
 72
     5
  1
{\fArial|b0|i0|c0|p34;DRAWING NUMBER}
 73
     1
 44
1.0
  0
MTEXT
  5
32D3
330
2A96
100
AcDbEntity
  8
0
  6
Continuous
370
    30
100
AcDbMText
 10
7.7
 20
0.5
 30
0.0
 40
0.075
 41
0.5000000000000009
 71
     1
 72
     5
  1
{\fArial|b0|i0|c0|p34;REV}
 73
     1
 44
1.0
  0
MTEXT
  5
32D9
330
2A96
100
AcDbEntity
  8
0
  6
Continuous
370
    30
100
AcDbMText
 10
0.2
 20
0.5
 30
0.0
 40
0.075
 41
0.4
 71
     1
 72
     5
  1
{\fArial|b0|i0|c0|p34;DATE}
 73
     1
 44
1.0
  0
MTEXT
  5
32DF
330
2A96
100
AcDbEntity
  8
0
  6
Continuous
370
    30
100
AcDbMText
 10
4.7
 20
0.5
 30
0.0
 40
0.075
 41
0.7000000000000002
 71
     1
 72
     5
  1
{\fArial|b0|i0|c0|p34;DRAWN BY}
 73
     1
 44
1.0
  0
MTEXT
  5
32E5
330
2A96
100
AcDbEntity
  8
0
  6
Continuous
370
    30
100
AcDbMText
 10
5.5
 20
0.5
 30
0.0
 40
0.075
 41
0.9000000000000003
 71
     1
 72
     5
  1
{\fArial|b0|i0|c0|p34;APPROVED BY}
 73
     1
 44
1.0
  0
MTEXT
  5
32EB
330
2A96
100
AcDbEntity
  8
0
  6
Continuous
370
    30
100
AcDbMText
 10
1.2
 20
0.5
 30
0.0
 40
0.075
 41
0.9
 71
     1
 72
     5
  1
{\fArial|b0|i0|c0|p34;DESCRIPTION}
 73
     1
 44
1.0
  0
MTEXT
  5
32F3
330
2A96
100
AcDbEntity
  8
0
  6
Continuous
370
    30
100
AcDbMText
 10
12.61565383451102
 20
0.6025710303042624
 30
0.0
 40
0.075
 41
0.3999999999999995
 71
     1
 72
     5
  1
{\fArial|b0|i0|c0|p34;REV}
 73
     1
 44
1.0
  0
MTEXT
  5
32FF
330
2A96
100
AcDbEntity
  8
0
  6
Continuous
370
    30
100
AcDbMText
 10
4.7
 20
0.3
 30
0.0
 40
0.075
 41
0.7
 71
     1
 72
     5
  1
{\fCourier New|b0|i0|c0|p49;INI}
 73
     1
 44
1.0
  0
MTEXT
  5
3305
330
2A96
100
AcDbEntity
  8
0
  6
Continuous
370
    30
100
AcDbMText
 10
5.5
 20
0.3
 30
0.0
 40
0.075
 41
0.9
 71
     1
 72
     5
  1
{\fCourier New|b0|i0|c0|p49;INI}
 73
     1
 44
1.0
  0
MTEXT
  5
330B
330
2A96
100
AcDbEntity
  8
0
  6
Continuous
370
    30
100
AcDbMText
 10
6.5
 20
0.3
 30
0.0
 40
0.075
 41
1.1
 71
     1
 72
     5
  1
{\fCourier New|b0|i0|c0|p49;3000nnnn}
 73
     1
 44
1.0
  0
MTEXT
  5
3311
330
2A96
100
AcDbEntity
  8
0
  6
Continuous
370
    30
100
AcDbMText
 10
7.7
 20
0.3
 30
0.0
 40
0.075
 41
0.5
 71
     1
 72
     5
  1
{\fCourier New|b0|i0|c0|p49;1}
 73
     1
 44
1.0
  0
MTEXT
  5
331D
330
2A96
100
AcDbEntity
  8
0
  6
Continuous
370
    30
100
AcDbMText
 10
0.2
 20
0.3
 30
0.0
 40
0.075
 41
0.9
 71
     1
 72
     5
  1
{\fCourier New|b0|i0|c0|p49;07-12-07}
 73
     1
 44
1.0
  0
MTEXT
  5
3323
330
2A96
100
AcDbEntity
  8
0
  6
Continuous
370
    30
100
AcDbMText
 10
1.2
 20
0.3
 30
0.0
 40
0.075
 41
3.399999999999999
 71
     1
 72
     5
  1
{\fCourier New|b0|i0|c0|p49;INITIAL VERSION}
 73
     1
 44
1.0
  0
LINE
  5
3324
330
2A96
100
AcDbEntity
  8
0
  6
Continuous
370
    30
100
AcDbLine
 10
1.1
 20
0.55
 30
0.0
 11
1.1
 21
0.1500000000000001
 31
0.0
  0
LINE
  5
3325
330
2A96
100
AcDbEntity
  8
0
  6
Continuous
370
    30
100
AcDbLine
 10
7.6
 20
0.55
 30
0.0
 11
7.599999999999999
 21
0.1500000000000001
 31
0.0
  0
LINE
  5
3326
330
2A96
100
AcDbEntity
  8
0
  6
Continuous
370
    30
100
AcDbLine
 10
6.4
 20
0.55
 30
0.0
 11
6.4
 21
0.1500000000000001
 31
0.0
  0
LINE
  5
3327
330
2A96
100
AcDbEntity
  8
0
  6
Continuous
370
    30
100
AcDbLine
 10
5.4
 20
0.1500000000000001
 30
0.0
 11
5.4
 21
0.55
 31
0.0
  0
LINE
  5
3328
330
2A96
100
AcDbEntity
  8
0
  6
Continuous
370
    30
100
AcDbLine
 10
4.6
 20
0.1500000000000001
 30
0.0
 11
4.6
 21
0.55
 31
0.0
  0
LINE
  5
3329
330
2A96
100
AcDbEntity
  8
0
  6
Continuous
370
    30
100
AcDbLine
 10
8.200000000000001
 20
0.55
 30
0.0
 11
0.05
 21
0.55
 31
0.0
  0
MTEXT
  5
3335
330
2A96
100
AcDbEntity
  8
0
  6
Continuous
370
    30
100
AcDbMText
 10
7.4
 20
0.1000000000000001
 30
0.0
 40
0.075
 41
0.8
 71
     1
 72
     5
  1
{\fArial|b0|i0|c0|p34;PAGE 1}
 73
     1
 44
1.0
  0
LINE
  5
3C8D
330
2A96
100
AcDbEntity
  8
0
  6
Continuous
370
    30
100
AcDbLine
 10
5.8
 20
10.2
 30
0.0
 11
8.200000000000001
 21
10.2
 31
0.0
  0
MTEXT
  5
3C93
330
2A96
100
AcDbEntity
  8
0
  6
Continuous
370
    30
100
AcDbMText
 10
6.0
 20
10.15
 30
0.0
 40
0.075
 41
2.2
 71
     1
 72
     5
  1
{\fCourier New|b0|i0|c0|p49;Formerly 123456789012345}
 73
     1
 44
1.0
  0
ENDBLK
  5
2AA4
330
2A96
100
AcDbEntity
  8
0
370
    30
100
AcDbBlockEnd
  0
BLOCK
  5
33CF
330
3360
100
AcDbEntity
  8
0
370
    30
100
AcDbBlockBegin
  2
*Paper_Space15
 70
     0
 10
0.0
 20
0.0
 30
0.0
  3
*Paper_Space15
  1

  0
VIEWPORT
  5
3361
330
3360
100
AcDbEntity
  8
0
  6
Continuous
100
AcDbViewport
 10
5.8285388633846
 20
7.647873650176577
 30
0.0
 40
11.92756543099051
 41
6.441891878340866
 69
     0
 12
5.8285388633846
 22
7.647873650176577
 13
0.0
 23
0.0
 14
0.05
 24
0.05
 15
0.1
 25
0.1
 16
0.0
 26
0.0
 36
1.0
 17
0.0
 27
0.0
 37
0.0
 42
50.0
 43
0.0
 44
0.0
 45
6.441891878340866
 50
0.0
 51
0.0
 72
   100
 90
    33568
  1

281
     0
 71
     1
 74
     0
110
0.0
120
0.0
130
0.0
111
1.0
121
0.0
131
0.0
112
0.0
122
1.0
132
0.0
 79
     0
146
0.0
  0
VIEWPORT
  5
3362
330
3360
100
AcDbEntity
  8
Viewport Layer
  6
Continuous
370
    30
100
AcDbViewport
 10
4.125
 20
4.825
 30
0.0
 40
8.05
 41
8.450000000000001
 69
     0
 12
19.0
 22
6.0
 13
0.0
 23
0.0
 14
1.0
 24
1.0
 15
0.0
 25
0.0
 16
0.0
 26
0.0
 36
1.0
 17
0.0
 27
0.0
 37
0.0
 42
50.0
 43
0.0
 44
0.0
 45
11.26666666666666
 50
0.0
 51
0.0
 72
   100
 90
    32800
  1

281
     0
 71
     1
 74
     0
110
0.0
120
0.0
130
0.0
111
1.0
121
0.0
131
0.0
112
0.0
122
1.0
132
0.0
 79
     0
146
0.0
  0
MTEXT
  5
3365
330
3360
100
AcDbEntity
  8
0
  6
Continuous
370
    30
100
AcDbMText
 10
4.5
 20
9.8
 30
0.0
 40
0.075
 41
1.999999999999999
 71
     1
 72
     5
  1
{\fCourier New|b0|i0|c0|p49;3 PLACE DECIMAL = ±0.005\P2 PLACE DECIMAL = ±0.015\P1 PLACE DECIMAL = ±0.050\PALL DIMENSIONS IN INCHES.\PDRAWING NOT TO SCALE.}
 73
     1
 44
1.0
  0
MTEXT
  5
3366
330
3360
100
AcDbEntity
  8
0
  6
Continuous
370
    30
100
AcDbMText
 10
4.375
 20
10.7
 30
0.0
 40
0.5
 41
1.425
 71
     1
 72
     5
  1
{\fTimes New Roman|b1|i1|c0|p18;ACI}
 73
     1
 44
1.0
  0
MTEXT
  5
3367
330
3360
100
AcDbEntity
  8
0
  6
Continuous
370
    30
100
AcDbMText
 10
4.375
 20
10.15
 30
0.0
 40
0.075
 41
1.425
 71
     1
 72
     5
  1
{\fTimes New Roman|b1|i1|c0|p18;Automation Components, Inc.}
 73
     1
 44
1.0
  0
LINE
  5
3368
330
3360
100
AcDbEntity
  8
0
  6
Continuous
370
    30
100
AcDbLine
 10
6.5
 20
10.0
 30
0.0
 11
6.5
 21
9.099999999999999
 31
0.0
  0
MTEXT
  5
3369
330
3360
100
AcDbEntity
  8
0
  6
Continuous
370
    30
100
AcDbMText
 10
6.7
 20
9.8
 30
0.0
 40
0.075
 41
1.5
 71
     1
 72
     5
  1
{\fCourier New|b0|i0|c0|p49;CONFIDENTIAL INFORMATION-- PROPERTY OF ACI. UNAUTHORIZED USE STRICTLY FORBIDDEN.}
 73
     1
 44
1.0
  0
LINE
  5
336A
330
3360
100
AcDbEntity
  8
0
  6
Continuous
370
    30
100
AcDbLine
 10
4.299999999999999
 20
10.0
 30
0.0
 11
8.200000000000001
 21
10.0
 31
0.0
  0
MTEXT
  5
3371
330
3360
100
AcDbEntity
  8
0
  6
Continuous
370
    30
100
AcDbMText
 10
3.5
 20
4.9
 30
0.0
 40
0.2
 41
2.799999999999999
 71
     1
 72
     5
  1

 73
     1
 44
1.0
  0
MTEXT
  5
3398
330
3360
100
AcDbEntity
  8
0
  6
Continuous
370
    30
100
AcDbMText
 10
4.4
 20
9.949999999999999
 30
0.0
 40
0.075
 41
2.099999999999999
 71
     1
 72
     5
  1
{\fArial|b0|i0|c0|p34;TOLERANCE: (UNLESS NOTED)}
 73
     1
 44
1.0
  0
MTEXT
  5
3399
330
3360
100
AcDbEntity
  8
0
  6
Continuous
370
    30
100
AcDbMText
 10
6.6
 20
9.950000000000001
 30
0.0
 40
0.075
 41
1.599999999999999
 71
     1
 72
     5
  1
{\fArial|b0|i0|c0|p34;WARNING!}
 73
     1
 44
1.0
  0
LINE
  5
33A6
330
3360
100
AcDbEntity
  8
0
  6
Continuous
370
    30
100
AcDbLine
 10
4.299999999999999
 20
9.099999999999999
 30
0.0
 11
8.200000000000001
 21
9.099999999999997
 31
0.0
  0
LWPOLYLINE
  5
33AE
330
3360
100
AcDbEntity
  8
0
  6
Continuous
370
    30
100
AcDbPolyline
 90
        4
 70
     1
 43
0.0
 10
0.05
 20
10.74999999999999
 10
8.200000000000001
 20
10.74999999999999
 10
8.200000000000001
 20
0.15
 10
0.05
 20
0.15
  0
MTEXT
  5
33B4
330
3360
100
AcDbEntity
  8
0
  6
Continuous
370
    30
100
AcDbMText
 10
0.1
 20
0.1000000000000001
 30
0.0
 40
0.075
 41
2.799999999999999
 71
     1
 72
     5
  1
{\fArial|b0|i0|c0|p34;PART SPECIFICATION FORM   REV 5   DATE: 07-12-07}
 73
     1
 44
1.0
  0
LINE
  5
33BA
330
3360
100
AcDbEntity
  8
0
  6
Continuous
370
    30
100
AcDbLine
 10
8.200000000000001
 20
0.35
 30
0.0
 11
0.05
 21
0.35
 31
0.0
  0
MTEXT
  5
33BB
330
3360
100
AcDbEntity
  8
0
  6
Continuous
370
    30
100
AcDbMText
 10
6.5
 20
0.5
 30
0.0
 40
0.075
 41
1.1
 71
     1
 72
     5
  1
{\fArial|b0|i0|c0|p34;DRAWING NUMBER}
 73
     1
 44
1.0
  0
MTEXT
  5
33BC
330
3360
100
AcDbEntity
  8
0
  6
Continuous
370
    30
100
AcDbMText
 10
7.7
 20
0.5
 30
0.0
 40
0.075
 41
0.5000000000000009
 71
     1
 72
     5
  1
{\fArial|b0|i0|c0|p34;REV}
 73
     1
 44
1.0
  0
MTEXT
  5
33BD
330
3360
100
AcDbEntity
  8
0
  6
Continuous
370
    30
100
AcDbMText
 10
0.2
 20
0.5
 30
0.0
 40
0.075
 41
0.4
 71
     1
 72
     5
  1
{\fArial|b0|i0|c0|p34;DATE}
 73
     1
 44
1.0
  0
MTEXT
  5
33BE
330
3360
100
AcDbEntity
  8
0
  6
Continuous
370
    30
100
AcDbMText
 10
4.7
 20
0.5
 30
0.0
 40
0.075
 41
0.7000000000000002
 71
     1
 72
     5
  1
{\fArial|b0|i0|c0|p34;DRAWN BY}
 73
     1
 44
1.0
  0
MTEXT
  5
33BF
330
3360
100
AcDbEntity
  8
0
  6
Continuous
370
    30
100
AcDbMText
 10
5.5
 20
0.5
 30
0.0
 40
0.075
 41
0.9000000000000003
 71
     1
 72
     5
  1
{\fArial|b0|i0|c0|p34;APPROVED BY}
 73
     1
 44
1.0
  0
MTEXT
  5
33C0
330
3360
100
AcDbEntity
  8
0
  6
Continuous
370
    30
100
AcDbMText
 10
1.2
 20
0.5
 30
0.0
 40
0.075
 41
0.7999999999999999
 71
     1
 72
     5
  1
{\fArial|b0|i0|c0|p34;DESCRIPTION}
 73
     1
 44
1.0
  0
MTEXT
  5
33C1
330
3360
100
AcDbEntity
  8
0
  6
Continuous
370
    30
100
AcDbMText
 10
12.61565383451102
 20
0.6025710303042624
 30
0.0
 40
0.075
 41
0.3999999999999995
 71
     1
 72
     5
  1
{\fArial|b0|i0|c0|p34;REV}
 73
     1
 44
1.0
  0
MTEXT
  5
33C2
330
3360
100
AcDbEntity
  8
0
  6
Continuous
370
    30
100
AcDbMText
 10
4.7
 20
0.3
 30
0.0
 40
0.075
 41
0.7
 71
     1
 72
     5
  1
{\fCourier New|b0|i0|c0|p49;INI}
 73
     1
 44
1.0
  0
MTEXT
  5
33C3
330
3360
100
AcDbEntity
  8
0
  6
Continuous
370
    30
100
AcDbMText
 10
5.5
 20
0.3
 30
0.0
 40
0.075
 41
0.9
 71
     1
 72
     5
  1
{\fCourier New|b0|i0|c0|p49;INI}
 73
     1
 44
1.0
  0
MTEXT
  5
33C4
330
3360
100
AcDbEntity
  8
0
  6
Continuous
370
    30
100
AcDbMText
 10
6.5
 20
0.3
 30
0.0
 40
0.075
 41
1.1
 71
     1
 72
     5
  1
{\fCourier New|b0|i0|c0|p49;3000nnnn}
 73
     1
 44
1.0
  0
MTEXT
  5
33C5
330
3360
100
AcDbEntity
  8
0
  6
Continuous
370
    30
100
AcDbMText
 10
7.7
 20
0.3
 30
0.0
 40
0.075
 41
0.5
 71
     1
 72
     5
  1
{\fCourier New|b0|i0|c0|p49;1}
 73
     1
 44
1.0
  0
MTEXT
  5
33C6
330
3360
100
AcDbEntity
  8
0
  6
Continuous
370
    30
100
AcDbMText
 10
0.2
 20
0.3
 30
0.0
 40
0.075
 41
0.9
 71
     1
 72
     5
  1
{\fCourier New|b0|i0|c0|p49;07-12-07}
 73
     1
 44
1.0
  0
MTEXT
  5
33C7
330
3360
100
AcDbEntity
  8
0
  6
Continuous
370
    30
100
AcDbMText
 10
1.2
 20
0.3
 30
0.0
 40
0.075
 41
3.399999999999999
 71
     1
 72
     5
  1
{\fCourier New|b0|i0|c0|p49;INITIAL VERSION}
 73
     1
 44
1.0
  0
LINE
  5
33C8
330
3360
100
AcDbEntity
  8
0
  6
Continuous
370
    30
100
AcDbLine
 10
1.1
 20
0.55
 30
0.0
 11
1.1
 21
0.1500000000000001
 31
0.0
  0
LINE
  5
33C9
330
3360
100
AcDbEntity
  8
0
  6
Continuous
370
    30
100
AcDbLine
 10
7.6
 20
0.55
 30
0.0
 11
7.599999999999999
 21
0.1500000000000001
 31
0.0
  0
LINE
  5
33CA
330
3360
100
AcDbEntity
  8
0
  6
Continuous
370
    30
100
AcDbLine
 10
6.4
 20
0.55
 30
0.0
 11
6.4
 21
0.1500000000000001
 31
0.0
  0
LINE
  5
33CB
330
3360
100
AcDbEntity
  8
0
  6
Continuous
370
    30
100
AcDbLine
 10
5.4
 20
0.1500000000000001
 30
0.0
 11
5.4
 21
0.55
 31
0.0
  0
LINE
  5
33CC
330
3360
100
AcDbEntity
  8
0
  6
Continuous
370
    30
100
AcDbLine
 10
4.6
 20
0.1500000000000001
 30
0.0
 11
4.6
 21
0.55
 31
0.0
  0
LINE
  5
33CD
330
3360
100
AcDbEntity
  8
0
  6
Continuous
370
    30
100
AcDbLine
 10
8.200000000000001
 20
0.55
 30
0.0
 11
0.0
 21
0.55
 31
0.0
  0
MTEXT
  5
33CE
330
3360
100
AcDbEntity
  8
0
  6
Continuous
370
    30
100
AcDbMText
 10
7.4
 20
0.1000000000000001
 30
0.0
 40
0.075
 41
0.8
 71
     1
 72
     5
  1
{\fArial|b0|i0|c0|p34;PAGE 2}
 73
     1
 44
1.0
  0
LINE
  5
33D7
330
3360
100
AcDbEntity
  8
0
  6
Continuous
370
    30
100
AcDbLine
 10
4.299999999999999
 20
9.099999999999999
 30
0.0
 11
4.299999999999999
 21
10.74999999999999
 31
0.0
  0
MTEXT
  5
3C9D
330
3360
100
AcDbEntity
  8
0
  6
Continuous
370
    30
100
AcDbMText
 10
5.999999992923019
 20
10.14999999029272
 30
0.0
 40
0.075
 41
2.2
 71
     1
 72
     5
  1
{\fCourier New|b0|i0|c0|p49;Formerly 123456789012345}
 73
     1
 44
1.0
  0
LINE
  5
3C9E
330
3360
100
AcDbEntity
  8
0
  6
Continuous
370
    30
100
AcDbLine
 10
5.799999992923019
 20
10.19999999029272
 30
0.0
 11
8.19999999292302
 21
10.19999999029272
 31
0.0
  0
MTEXT
  5
3C9F
330
3360
100
AcDbEntity
  8
0
  6
Continuous
370
    30
100
AcDbMText
 10
5.999999992923019
 20
10.39999999029272
 30
0.0
 40
0.14
 41
2.200000000000001
 71
     1
 72
     5
  1
{\fCourier New|b0|i0|c0|p49;123456789012345}
 73
     1
 44
1.0
  0
MTEXT
  5
3CA0
330
3360
100
AcDbEntity
  8
0
  6
Continuous
370
    30
100
AcDbMText
 10
6.99999999292302
 20
10.69999999029272
 30
0.0
 40
0.2
 41
2.399999999999999
 71
     2
 72
     5
  1
{\fArial|b0|i0|c0|p34;ITEM NUMBER}
 73
     1
 44
1.0
  0
LINE
  5
3CA1
330
3360
100
AcDbEntity
  8
0
  6
Continuous
370
    30
100
AcDbLine
 10
5.799999992923019
 20
10.74999999029272
 30
0.0
 11
5.799999992923019
 21
9.999999990292721
 31
0.0
  0
ENDBLK
  5
33D0
330
3360
100
AcDbEntity
  8
0
370
    30
100
AcDbBlockEnd
  0
BLOCK
  5
3767
330
3743
100
AcDbEntity
  8
0
370
    30
100
AcDbBlockBegin
  2
A$C64F54320
 70
     0
 10
0.0
 20
0.0
 30
0.0
  3
A$C64F54320
  1

  0
LINE
  5
3744
330
3743
100
AcDbEntity
  8
0
  6
Continuous
370
    30
100
AcDbLine
 10
8.15000001151851
 20
0.4025710227329599
 30
0.0
 11
2.05000001151851
 21
0.4025710227329599
 31
0.0
  0
LINE
  5
3745
330
3743
100
AcDbEntity
  8
0
  6
Continuous
370
    30
100
AcDbLine
 10
8.15000001151851
 20
0.6025710227329598
 30
0.0
 11
0.0000000115185106
 21
0.6025710227329598
 31
0.0
  0
MTEXT
  5
3746
330
3743
100
AcDbEntity
  8
0
  6
Continuous
370
    30
100
AcDbMText
 10
2.400000017707228
 20
1.252571026041589
 30
0.0
 40
0.075
 41
1.599999999999999
 71
     1
 72
     5
  1
{\fCourier New|b0|i0|c0|p49;CONFIDENTIAL INFORMATION-- PROPERTY OF ACI. UNAUTHORIZED USE STRICTLY FORBIDDEN.}
 73
     1
 44
1.0
  0
MTEXT
  5
3747
330
3743
100
AcDbEntity
  8
0
  6
Continuous
370
    30
100
AcDbMText
 10
2.300000017707228
 20
1.40257102604159
 30
0.0
 40
0.075
 41
1.9
 71
     1
 72
     5
  1
{\fArial|b0|i0|c0|p34;WARNING!}
 73
     1
 44
1.0
  0
LINE
  5
3748
330
3743
100
AcDbEntity
  8
0
  6
Continuous
370
    30
100
AcDbLine
 10
8.150000017707228
 20
1.45257102604159
 30
0.0
 11
0.0000000177072281
 21
1.45257102604159
 31
0.0
  0
LINE
  5
3749
330
3743
100
AcDbEntity
  8
0
  6
Continuous
370
    30
100
AcDbLine
 10
0.0000000115185106
 20
0.4025710227329599
 30
0.0
 11
2.05000001151851
 21
0.4025710227329599
 31
0.0
  0
MTEXT
  5
374A
330
3743
100
AcDbEntity
  8
0
  6
Continuous
370
    30
100
AcDbMText
 10
0.2000000177072283
 20
1.252571026041589
 30
0.0
 40
0.075
 41
2.0
 71
     1
 72
     5
  1
{\fCourier New|b0|i0|c0|p49;3 PLACE DECIMAL = ±0.005\P2 PLACE DECIMAL = ±0.015\P1 PLACE DECIMAL = ±0.050\PALL DIMENSIONS IN INCHES.\PDRAWING NOT TO SCALE.}
 73
     1
 44
1.0
  0
MTEXT
  5
374B
330
3743
100
AcDbEntity
  8
0
  6
Continuous
370
    30
100
AcDbMText
 10
0.1000000177072282
 20
1.40257102604159
 30
0.0
 40
0.075
 41
2.1
 71
     1
 72
     5
  1
{\fArial|b0|i0|c0|p34;TOLERANCE: (UNLESS NOTED)}
 73
     1
 44
1.0
  0
MTEXT
  5
374C
330
3743
100
AcDbEntity
  8
0
  6
Continuous
370
    30
100
AcDbMText
 10
0.1500000115185101
 20
0.5525710227329598
 30
0.0
 40
0.075
 41
0.4000000000000001
 71
     1
 72
     5
  1
{\fArial|b0|i0|c0|p34;DATE}
 73
     1
 44
1.0
  0
MTEXT
  5
374D
330
3743
100
AcDbEntity
  8
0
  6
Continuous
370
    30
100
AcDbMText
 10
0.1500000115185101
 20
0.3525710227329598
 30
0.0
 40
0.1
 41
0.9
 71
     1
 72
     5
  1
{\fCourier New|b0|i0|c0|p49;06-15-07}
 73
     1
 44
1.0
  0
LINE
  5
374E
330
3743
100
AcDbEntity
  8
0
  6
Continuous
370
    30
100
AcDbLine
 10
0.0000000177072281
 20
1.45257102604159
 30
0.0
 11
0.0000000177072281
 21
0.60257102604159
 31
0.0
  0
LINE
  5
374F
330
3743
100
AcDbEntity
  8
0
  6
Continuous
370
    30
100
AcDbLine
 10
0.0000000177072281
 20
0.60257102604159
 30
0.0
 11
0.0000000177072281
 21
0.1525710260415899
 31
0.0
  0
LINE
  5
3750
330
3743
100
AcDbEntity
  8
0
  6
Continuous
370
    30
100
AcDbLine
 10
1.05000001151851
 20
0.6025710227329598
 30
0.0
 11
1.05000001151851
 21
0.1525710227329598
 31
0.0
  0
MTEXT
  5
3751
330
3743
100
AcDbEntity
  8
0
  6
Continuous
370
    30
100
AcDbMText
 10
1.15000001151851
 20
0.3525710227329598
 30
0.0
 40
0.1
 41
3.399999999999999
 71
     1
 72
     5
  1
{\fCourier New|b0|i0|c0|p49;INITIAL VERSION}
 73
     1
 44
1.0
  0
MTEXT
  5
3752
330
3743
100
AcDbEntity
  8
0
  6
Continuous
370
    30
100
AcDbMText
 10
1.15000001151851
 20
0.5525710227329598
 30
0.0
 40
0.075
 41
1.6
 71
     1
 72
     5
  1
{\fArial|b0|i0|c0|p34;DESCRIPTION}
 73
     1
 44
1.0
  0
LINE
  5
3753
330
3743
100
AcDbEntity
  8
0
  6
Continuous
370
    30
100
AcDbLine
 10
2.200000017707228
 20
1.45257102604159
 30
0.0
 11
2.200000017707227
 21
0.60257102604159
 31
0.0
  0
MTEXT
  5
3754
330
3743
100
AcDbEntity
  8
0
  6
Continuous
370
    30
100
AcDbMText
 10
6.950000017707228
 20
1.302571026041589
 30
0.0
 40
0.2
 41
2.399999999999999
 71
     2
 72
     5
  1
{\fArial|b0|i0|c0|p34;ITEM NUMBER}
 73
     1
 44
1.0
  0
MTEXT
  5
3755
330
3743
100
AcDbEntity
  8
0
  6
Continuous
370
    30
100
AcDbMText
 10
5.900000017707228
 20
0.9525710260415898
 30
0.0
 40
0.14
 41
2.25
 71
     1
 72
     5
  1
{\fCourier New|b0|i0|c0|p49;123456789012345}
 73
     1
 44
1.0
  0
MTEXT
  5
3756
330
3743
100
AcDbEntity
  8
0
  6
Continuous
370
    30
100
AcDbMText
 10
4.300000017707228
 20
1.352571026041589
 30
0.0
 40
0.5
 41
1.399999982316157
 71
     1
 72
     5
  1
{\fTimes New Roman|b1|i1|c0|p18;ACI}
 73
     1
 44
1.0
  0
MTEXT
  5
3757
330
3743
100
AcDbEntity
  8
0
  6
Continuous
370
    30
100
AcDbMText
 10
4.275000000023386
 20
0.8038868214754034
 30
0.0
 40
0.075
 41
1.425
 71
     1
 72
     5
  1
{\fTimes New Roman|b1|i1|c0|p18;Automation Components, Inc.}
 73
     1
 44
1.0
  0
LINE
  5
3758
330
3743
100
AcDbEntity
  8
0
  6
Continuous
370
    30
100
AcDbLine
 10
4.200000017707228
 20
1.45257102604159
 30
0.0
 11
4.200000017707228
 21
0.60257102604159
 31
0.0
  0
MTEXT
  5
3759
330
3743
100
AcDbEntity
  8
0
  6
Continuous
370
    30
100
AcDbMText
 10
4.650000017707228
 20
0.5525710260415899
 30
0.0
 40
0.075
 41
0.6999999938112822
 71
     1
 72
     5
  1
{\fArial|b0|i0|c0|p34;DRAWN BY}
 73
     1
 44
1.0
  0
MTEXT
  5
375A
330
3743
100
AcDbEntity
  8
0
  6
Continuous
370
    30
100
AcDbMText
 10
4.650000017707228
 20
0.3525710260415899
 30
0.0
 40
0.1
 41
0.6999999938112822
 71
     1
 72
     5
  1
{\fCourier New|b0|i0|c0|p49;INI}
 73
     1
 44
1.0
  0
LINE
  5
375B
330
3743
100
AcDbEntity
  8
0
  6
Continuous
370
    30
100
AcDbLine
 10
4.550000011518509
 20
0.1525710227329598
 30
0.0
 11
4.550000011518509
 21
0.6025710227329598
 31
0.0
  0
LINE
  5
375C
330
3743
100
AcDbEntity
  8
0
  6
Continuous
370
    30
100
AcDbLine
 10
5.35000001151851
 20
0.1525710227329598
 30
0.0
 11
5.35000001151851
 21
0.6025710227329598
 31
0.0
  0
LINE
  5
375D
330
3743
100
AcDbEntity
  8
0
  6
Continuous
370
    30
100
AcDbLine
 10
5.750000017707227
 20
1.45257102604159
 30
0.0
 11
5.750000017707227
 21
0.60257102604159
 31
0.0
  0
MTEXT
  5
375E
330
3743
100
AcDbEntity
  8
0
  6
Continuous
370
    30
100
AcDbMText
 10
5.450000011518511
 20
0.5525710227329598
 30
0.0
 40
0.075
 41
0.9000000000000003
 71
     1
 72
     5
  1
{\fArial|b0|i0|c0|p34;APPROVED BY}
 73
     1
 44
1.0
  0
MTEXT
  5
375F
330
3743
100
AcDbEntity
  8
0
  6
Continuous
370
    30
100
AcDbMText
 10
5.500000017707227
 20
0.3525710260415899
 30
0.0
 40
0.1
 41
0.8499999938112843
 71
     1
 72
     5
  1
{\fCourier New|b0|i0|c0|p49;INI}
 73
     1
 44
1.0
  0
MTEXT
  5
3760
330
3743
100
AcDbEntity
  8
0
  6
Continuous
370
    30
100
AcDbMText
 10
7.300000017707228
 20
0.1025710260415899
 30
0.0
 40
0.075
 41
0.8499999999999989
 71
     1
 72
     5
  1
{\fArial|b0|i0|c0|p34;PAGE 2}
 73
     1
 44
1.0
  0
MTEXT
  5
3761
330
3743
100
AcDbEntity
  8
0
  6
Continuous
370
    30
100
AcDbMText
 10
6.450000017707228
 20
0.5525710260415899
 30
0.0
 40
0.075
 41
1.099999999999999
 71
     1
 72
     5
  1
{\fArial|b0|i0|c0|p34;DRAWING NUMBER}
 73
     1
 44
1.0
  0
MTEXT
  5
3762
330
3743
100
AcDbEntity
  8
0
  6
Continuous
370
    30
100
AcDbMText
 10
6.450000017707228
 20
0.3525710260415899
 30
0.0
 40
0.1
 41
1.099999993811282
 71
     1
 72
     5
  1
{\fCourier New|b0|i0|c0|p49;3000nnnn}
 73
     1
 44
1.0
  0
LINE
  5
3763
330
3743
100
AcDbEntity
  8
0
  6
Continuous
370
    30
100
AcDbLine
 10
6.35000001151851
 20
0.6025710227329598
 30
0.0
 11
6.35000001151851
 21
0.1525710227329598
 31
0.0
  0
MTEXT
  5
3764
330
3743
100
AcDbEntity
  8
0
  6
Continuous
370
    30
100
AcDbMText
 10
7.650000017707228
 20
0.5525710260415899
 30
0.0
 40
0.075
 41
0.4999999938112838
 71
     1
 72
     5
  1
{\fArial|b0|i0|c0|p34;REV}
 73
     1
 44
1.0
  0
LINE
  5
3765
330
3743
100
AcDbEntity
  8
0
  6
Continuous
370
    30
100
AcDbLine
 10
7.550000011518509
 20
0.6025710227329598
 30
0.0
 11
7.550000011518509
 21
0.1525710227329598
 31
0.0
  0
MTEXT
  5
3766
330
3743
100
AcDbEntity
  8
0
  6
Continuous
370
    30
100
AcDbMText
 10
7.650000017707228
 20
0.3525710260415899
 30
0.0
 40
0.1
 41
0.4999999938112829
 71
     1
 72
     5
  1
{\fCourier New|b0|i0|c0|p49;1}
 73
     1
 44
1.0
  0
ENDBLK
  5
3768
330
3743
100
AcDbEntity
  8
0
370
    30
100
AcDbBlockEnd
  0
BLOCK
  5
3E40
330
3E35
100
AcDbEntity
  8
0
370
    30
100
AcDbBlockBegin
  2
*D17
 70
     1
 10
0.0
 20
0.0
 30
0.0
  3
*D17
  1

  0
LINE
  5
47E4
330
3E35
100
AcDbEntity
  8
0
  6
Continuous
 62
     0
370
    -2
100
AcDbLine
 10
41.77299961966954
 20
8.92265143568678
 30
0.0
 11
41.77299961966954
 21
9.720037620259457
 31
0.0
  0
LINE
  5
47E5
330
3E35
100
AcDbEntity
  8
0
  6
Continuous
 62
     0
370
    -2
100
AcDbLine
 10
39.52299961966955
 20
8.615994481946707
 30
0.0
 11
39.52299961966955
 21
9.720037620259457
 31
0.0
  0
LINE
  5
47E6
330
3E35
100
AcDbEntity
  8
0
  6
Continuous
 62
     0
370
    -2
100
AcDbLine
 10
41.62299961966954
 20
9.670037620259456
 30
0.0
 11
41.18829161678562
 21
9.670037620259456
 31
0.0
  0
LINE
  5
47E7
330
3E35
100
AcDbEntity
  8
0
  6
Continuous
 62
     0
370
    -2
100
AcDbLine
 10
39.67299961966955
 20
9.670037620259456
 30
0.0
 11
40.10770762255346
 21
9.670037620259456
 31
0.0
  0
SOLID
  5
47E8
330
3E35
100
AcDbEntity
  8
0
  6
Continuous
 62
     0
370
    30
100
AcDbTrace
 10
41.62299961966954
 20
9.695037620259457
 30
0.0
 11
41.62299961966954
 21
9.645037620259456
 31
0.0
 12
41.77299961966954
 22
9.670037620259456
 32
0.0
 13
41.77299961966954
 23
9.670037620259456
 33
0.0
  0
SOLID
  5
47E9
330
3E35
100
AcDbEntity
  8
0
  6
Continuous
 62
     0
370
    30
100
AcDbTrace
 10
39.67299961966955
 20
9.695037620259457
 30
0.0
 11
39.67299961966955
 21
9.645037620259456
 31
0.0
 12
39.52299961966955
 22
9.670037620259456
 32
0.0
 13
39.52299961966955
 23
9.670037620259456
 33
0.0
  0
MTEXT
  5
47EA
330
3E35
100
AcDbEntity
  8
0
  6
Continuous
 62
     0
370
    30
100
AcDbMText
 10
40.64799961966954
 20
9.670037620259456
 30
0.0
 40
0.09
 41
0.0
 71
     5
 72
     1
  1
\A1;2.25" [57.15mm]
 73
     1
 44
1.0
  0
POINT
  5
47EB
330
3E35
100
AcDbEntity
  8
Defpoints
  6
Continuous
 62
     0
370
    30
100
AcDbPoint
 10
41.77299961966954
 20
8.86015143568678
 30
0.0
  0
POINT
  5
47EC
330
3E35
100
AcDbEntity
  8
Defpoints
  6
Continuous
 62
     0
370
    30
100
AcDbPoint
 10
39.52299961966955
 20
8.553494481946707
 30
0.0
  0
POINT
  5
47ED
330
3E35
100
AcDbEntity
  8
Defpoints
  6
Continuous
 62
     0
370
    30
100
AcDbPoint
 10
39.52299961966955
 20
9.670037620259456
 30
0.0
  0
ENDBLK
  5
3E41
330
3E35
100
AcDbEntity
  8
0
370
    30
100
AcDbBlockEnd
  0
BLOCK
  5
3E97
330
3E8C
100
AcDbEntity
  8
0
370
    30
100
AcDbBlockBegin
  2
*D18
 70
     1
 10
0.0
 20
0.0
 30
0.0
  3
*D18
  1

  0
LINE
  5
47C8
330
3E8C
100
AcDbEntity
  8
0
  6
Continuous
 62
     0
370
    -2
100
AcDbLine
 10
40.56549961966955
 20
0.9194256991245524
 30
0.0
 11
40.56549961966955
 21
0.4206726426148507
 31
0.0
  0
LINE
  5
47C9
330
3E8C
100
AcDbEntity
  8
0
  6
Continuous
 62
     0
370
    -2
100
AcDbLine
 10
41.40549961966955
 20
0.9194256991245524
 30
0.0
 11
41.40549961966955
 21
0.4206726426148507
 31
0.0
  0
LINE
  5
47CA
330
3E8C
100
AcDbEntity
  8
0
  6
Continuous
 62
     0
370
    -2
100
AcDbLine
 10
40.71549961966955
 20
0.4706726426148507
 30
0.0
 11
41.25549961966955
 21
0.4706726426148507
 31
0.0
  0
LINE
  5
47CB
330
3E8C
100
AcDbEntity
  8
0
  6
Continuous
 62
     0
370
    -2
100
AcDbLine
 10
41.40549961966955
 20
0.4706726426148507
 30
0.0
 11
41.55549961966954
 21
0.4706726426148507
 31
0.0
  0
SOLID
  5
47CC
330
3E8C
100
AcDbEntity
  8
0
  6
Continuous
 62
     0
370
    30
100
AcDbTrace
 10
40.71549961966955
 20
0.4956726426148507
 30
0.0
 11
40.71549961966955
 21
0.4456726426148507
 31
0.0
 12
40.56549961966955
 22
0.4706726426148507
 32
0.0
 13
40.56549961966955
 23
0.4706726426148507
 33
0.0
  0
SOLID
  5
47CD
330
3E8C
100
AcDbEntity
  8
0
  6
Continuous
 62
     0
370
    30
100
AcDbTrace
 10
41.25549961966955
 20
0.4956726426148507
 30
0.0
 11
41.25549961966955
 21
0.4456726426148507
 31
0.0
 12
41.40549961966955
 22
0.4706726426148507
 32
0.0
 13
41.40549961966955
 23
0.4706726426148507
 33
0.0
  0
MTEXT
  5
47CE
330
3E8C
100
AcDbEntity
  8
0
  6
Continuous
 62
     0
370
    30
100
AcDbMText
 10
42.09481829306536
 20
0.4706726426148507
 30
0.0
 40
0.09
 41
0.0
 71
     5
 72
     1
  1
\A1;0.84" [21.34mm]
 73
     1
 44
1.0
  0
POINT
  5
47CF
330
3E8C
100
AcDbEntity
  8
Defpoints
  6
Continuous
 62
     0
370
    30
100
AcDbPoint
 10
40.56549961966955
 20
0.9819256991245524
 30
0.0
  0
POINT
  5
47D0
330
3E8C
100
AcDbEntity
  8
Defpoints
  6
Continuous
 62
     0
370
    30
100
AcDbPoint
 10
41.40549961966955
 20
0.9819256991245524
 30
0.0
  0
POINT
  5
47D1
330
3E8C
100
AcDbEntity
  8
Defpoints
  6
Continuous
 62
     0
370
    30
100
AcDbPoint
 10
41.40549961966955
 20
0.4706726426148507
 30
0.0
  0
ENDBLK
  5
3E98
330
3E8C
100
AcDbEntity
  8
0
370
    30
100
AcDbBlockEnd
  0
BLOCK
  5
3EA5
330
3E9A
100
AcDbEntity
  8
0
370
    30
100
AcDbBlockBegin
  2
*D19
 70
     1
 10
0.0
 20
0.0
 30
0.0
  3
*D19
  1

  0
LINE
  5
47FB
330
3E9A
100
AcDbEntity
  8
0
  6
Continuous
 62
     0
370
    -2
100
AcDbLine
 10
40.44799961966954
 20
4.419425699124552
 30
0.0
 11
40.44799961966954
 21
-0.0778877841036687
 31
0.0
  0
LINE
  5
47FC
330
3E9A
100
AcDbEntity
  8
0
  6
Continuous
 62
     0
370
    -2
100
AcDbLine
 10
41.52299961966955
 20
4.419425699124552
 30
0.0
 11
41.52299961966955
 21
-0.0778877841036687
 31
0.0
  0
LINE
  5
47FD
330
3E9A
100
AcDbEntity
  8
0
  6
Continuous
 62
     0
370
    -2
100
AcDbLine
 10
40.59799961966954
 20
-0.0278877841036689
 30
0.0
 11
41.37299961966955
 21
-0.0278877841036689
 31
0.0
  0
LINE
  5
47FE
330
3E9A
100
AcDbEntity
  8
0
  6
Continuous
 62
     0
370
    -2
100
AcDbLine
 10
41.52299961966955
 20
-0.0278877841036689
 30
0.0
 11
41.67299961966954
 21
-0.0278877841036689
 31
0.0
  0
SOLID
  5
47FF
330
3E9A
100
AcDbEntity
  8
0
  6
Continuous
 62
     0
370
    30
100
AcDbTrace
 10
40.59799961966954
 20
-0.0028877841036689
 30
0.0
 11
40.59799961966954
 21
-0.0528877841036689
 31
0.0
 12
40.44799961966954
 22
-0.0278877841036689
 32
0.0
 13
40.44799961966954
 23
-0.0278877841036689
 33
0.0
  0
SOLID
  5
4800
330
3E9A
100
AcDbEntity
  8
0
  6
Continuous
 62
     0
370
    30
100
AcDbTrace
 10
41.37299961966955
 20
-0.0028877841036689
 30
0.0
 11
41.37299961966955
 21
-0.0528877841036689
 31
0.0
 12
41.52299961966955
 22
-0.0278877841036689
 32
0.0
 13
41.52299961966955
 23
-0.0278877841036689
 33
0.0
  0
MTEXT
  5
4801
330
3E9A
100
AcDbEntity
  8
0
  6
Continuous
 62
     0
370
    30
100
AcDbMText
 10
42.20693256847993
 20
-0.0278877841036689
 30
0.0
 40
0.09
 41
0.0
 71
     5
 72
     1
  1
\A1;1.08" [27.31mm]
 73
     1
 44
1.0
  0
POINT
  5
4802
330
3E9A
100
AcDbEntity
  8
Defpoints
  6
Continuous
 62
     0
370
    30
100
AcDbPoint
 10
40.44799961966954
 20
4.481925699124552
 30
0.0
  0
POINT
  5
4803
330
3E9A
100
AcDbEntity
  8
Defpoints
  6
Continuous
 62
     0
370
    30
100
AcDbPoint
 10
41.52299961966955
 20
4.481925699124552
 30
0.0
  0
POINT
  5
4804
330
3E9A
100
AcDbEntity
  8
Defpoints
  6
Continuous
 62
     0
370
    30
100
AcDbPoint
 10
41.52299961966955
 20
-0.0278877841036689
 30
0.0
  0
ENDBLK
  5
3EA6
330
3E9A
100
AcDbEntity
  8
0
370
    30
100
AcDbBlockEnd
  0
BLOCK
  5
4621
330
4616
100
AcDbEntity
  8
0
370
    30
100
AcDbBlockBegin
  2
*D20
 70
     1
 10
0.0
 20
0.0
 30
0.0
  3
*D20
  1

  0
LINE
  5
48A2
330
4616
100
AcDbEntity
  8
0
  6
Continuous
 62
     0
370
    -2
100
AcDbLine
 10
41.46799961966954
 20
0.9819256991245524
 30
0.0
 11
42.51888276591265
 21
0.981925699124552
 31
0.0
  0
LINE
  5
48A3
330
4616
100
AcDbEntity
  8
0
  6
Continuous
 62
     0
370
    -2
100
AcDbLine
 10
41.83549961966955
 20
5.681925699124554
 30
0.0
 11
42.51888276591265
 21
5.681925699124553
 31
0.0
  0
LINE
  5
48A4
330
4616
100
AcDbEntity
  8
0
  6
Continuous
 62
     0
370
    -2
100
AcDbLine
 10
42.46888276591265
 20
1.131925699124552
 30
0.0
 11
42.46888276591265
 21
3.183720940653031
 31
0.0
  0
LINE
  5
48A5
330
4616
100
AcDbEntity
  8
0
  6
Continuous
 62
     0
370
    -2
100
AcDbLine
 10
42.46888276591265
 20
5.531925699124553
 30
0.0
 11
42.46888276591265
 21
3.480130457596074
 31
0.0
  0
SOLID
  5
48A6
330
4616
100
AcDbEntity
  8
0
  6
Continuous
 62
     0
370
    30
100
AcDbTrace
 10
42.44388276591265
 20
1.131925699124552
 30
0.0
 11
42.49388276591265
 21
1.131925699124552
 31
0.0
 12
42.46888276591265
 22
0.981925699124552
 32
0.0
 13
42.46888276591265
 23
0.981925699124552
 33
0.0
  0
SOLID
  5
48A7
330
4616
100
AcDbEntity
  8
0
  6
Continuous
 62
     0
370
    30
100
AcDbTrace
 10
42.44388276591265
 20
5.531925699124553
 30
0.0
 11
42.49388276591265
 21
5.531925699124553
 31
0.0
 12
42.46888276591265
 22
5.681925699124553
 32
0.0
 13
42.46888276591265
 23
5.681925699124553
 33
0.0
  0
MTEXT
  5
48A8
330
4616
100
AcDbEntity
  8
0
  6
Continuous
 62
     0
370
    30
100
AcDbMText
 10
42.46888276591265
 20
3.331925699124559
 30
0.0
 40
0.09
 41
0.0
 71
     5
 72
     1
  1
\A1;4.70" [119.38mm]
 73
     1
 44
1.0
  0
POINT
  5
48A9
330
4616
100
AcDbEntity
  8
Defpoints
  6
Continuous
 62
     0
370
    30
100
AcDbPoint
 10
41.40549961966955
 20
0.9819256991245524
 30
0.0
  0
POINT
  5
48AA
330
4616
100
AcDbEntity
  8
Defpoints
  6
Continuous
 62
     0
370
    30
100
AcDbPoint
 10
41.77299961966954
 20
5.681925699124554
 30
0.0
  0
POINT
  5
48AB
330
4616
100
AcDbEntity
  8
Defpoints
  6
Continuous
 62
     0
370
    30
100
AcDbPoint
 10
42.46888276591265
 20
5.681925699124553
 30
0.0
  0
ENDBLK
  5
4622
330
4616
100
AcDbEntity
  8
0
370
    30
100
AcDbBlockEnd
  0
BLOCK
  5
46DB
330
46D0
100
AcDbEntity
  8
0
370
    30
100
AcDbBlockBegin
  2
*D21
 70
     1
 10
0.0
 20
0.0
 30
0.0
  3
*D21
  1

  0
LINE
  5
4805
330
46D0
100
AcDbEntity
  8
0
  6
Continuous
 62
     0
370
    -2
100
AcDbLine
 10
28.35656392596249
 20
2.702615975458997
 30
0.0
 11
28.35656392596249
 21
5.111015632734694
 31
0.0
  0
LINE
  5
4806
330
46D0
100
AcDbEntity
  8
0
  6
Continuous
 62
     0
370
    -2
100
AcDbLine
 10
32.47733095610593
 20
2.702615975458997
 30
0.0
 11
32.47733095610593
 21
5.111015632734694
 31
0.0
  0
LINE
  5
4807
330
46D0
100
AcDbEntity
  8
0
  6
Continuous
 62
     0
370
    -2
100
AcDbLine
 10
28.50656392596249
 20
5.061015632734694
 30
0.0
 11
29.84035046915245
 21
5.061015632734694
 31
0.0
  0
LINE
  5
4808
330
46D0
100
AcDbEntity
  8
0
  6
Continuous
 62
     0
370
    -2
100
AcDbLine
 10
32.32733095610593
 20
5.061015632734694
 30
0.0
 11
30.99354441291596
 21
5.061015632734694
 31
0.0
  0
SOLID
  5
4809
330
46D0
100
AcDbEntity
  8
0
  6
Continuous
 62
     0
370
    30
100
AcDbTrace
 10
28.50656392596249
 20
5.086015632734694
 30
0.0
 11
28.50656392596249
 21
5.036015632734693
 31
0.0
 12
28.35656392596249
 22
5.061015632734694
 32
0.0
 13
28.35656392596249
 23
5.061015632734694
 33
0.0
  0
SOLID
  5
480A
330
46D0
100
AcDbEntity
  8
0
  6
Continuous
 62
     0
370
    30
100
AcDbTrace
 10
32.32733095610593
 20
5.086015632734694
 30
0.0
 11
32.32733095610593
 21
5.036015632734693
 31
0.0
 12
32.47733095610593
 22
5.061015632734694
 32
0.0
 13
32.47733095610593
 23
5.061015632734694
 33
0.0
  0
MTEXT
  5
480B
330
46D0
100
AcDbEntity
  8
0
  6
Continuous
 62
     0
370
    30
100
AcDbMText
 10
30.41694744103421
 20
5.061015632734694
 30
0.0
 40
0.09
 41
0.0
 71
     5
 72
     1
  1
\A1;4.00" (101.60mm)
 73
     1
 44
1.0
  0
POINT
  5
480C
330
46D0
100
AcDbEntity
  8
Defpoints
  6
Continuous
 62
     0
370
    30
100
AcDbPoint
 10
28.35656392596249
 20
2.640115975458997
 30
0.0
  0
POINT
  5
480D
330
46D0
100
AcDbEntity
  8
Defpoints
  6
Continuous
 62
     0
370
    30
100
AcDbPoint
 10
32.47733095610593
 20
2.640115975458997
 30
0.0
  0
POINT
  5
480E
330
46D0
100
AcDbEntity
  8
Defpoints
  6
Continuous
 62
     0
370
    30
100
AcDbPoint
 10
32.47733095610593
 20
5.061015632734694
 30
0.0
  0
ENDBLK
  5
46DC
330
46D0
100
AcDbEntity
  8
0
370
    30
100
AcDbBlockEnd
  0
BLOCK
  5
47F8
330
47EF
100
AcDbEntity
  8
0
370
    30
100
AcDbBlockBegin
  2
*D22
 70
     1
 10
0.0
 20
0.0
 30
0.0
  3
*D22
  1

  0
LINE
  5
4890
330
47EF
100
AcDbEntity
  8
0
  6
Continuous
 62
     0
370
    -2
100
AcDbLine
 10
33.29856396109477
 20
6.32150825492908
 30
0.0
 11
33.44856396109477
 21
6.321508254929085
 31
0.0
  0
LINE
  5
4891
330
47EF
100
AcDbEntity
  8
0
  6
Continuous
 62
     0
370
    -2
100
AcDbLine
 10
33.44856396109477
 20
6.321508254929085
 30
0.0
 11
34.00408422373333
 21
6.018544426912994
 31
0.0
  0
MTEXT
  5
4892
330
47EF
100
AcDbEntity
  8
0
  6
Continuous
 62
     0
370
    30
100
AcDbMText
 10
32.5517002264156
 20
6.321508254929083
 30
0.0
 40
0.09
 41
0.0
 71
     5
 72
     1
  1
\A1;\U+22050.18" [\U+22054.66mm] (2X)
 73
     1
 44
1.0
  0
SOLID
  5
4893
330
47EF
100
AcDbEntity
  8
0
  6
Continuous
 62
     0
370
    30
100
AcDbTrace
 10
34.01605408900398
 20
6.04049260053638
 30
0.0
 11
33.99211435846268
 21
5.996596253289608
 31
0.0
 12
34.13577326547365
 22
5.946725235289058
 32
0.0
 13
34.13577326547365
 23
5.946725235289058
 33
0.0
  0
LINE
  5
4894
330
47EF
100
AcDbEntity
  8
0
  6
Continuous
 62
     0
370
    -2
100
AcDbLine
 10
34.12632306267147
 20
5.902795829745748
 30
0.0
 11
34.30632306267148
 21
5.902795829745747
 31
0.0
  0
LINE
  5
4895
330
47EF
100
AcDbEntity
  8
0
  6
Continuous
 62
     0
370
    -2
100
AcDbLine
 10
34.21632306267148
 20
5.812795829745748
 30
0.0
 11
34.21632306267148
 21
5.992795829745743
 31
0.0
  0
POINT
  5
4896
330
47EF
100
AcDbEntity
  8
Defpoints
  6
Continuous
 62
     0
370
    30
100
AcDbPoint
 10
34.13577326547365
 20
5.946725235289058
 30
0.0
  0
POINT
  5
4897
330
47EF
100
AcDbEntity
  8
Defpoints
  6
Continuous
 62
     0
370
    30
100
AcDbPoint
 10
34.29687285986931
 20
5.858866424202439
 30
0.0
  0
ENDBLK
  5
47F9
330
47EF
100
AcDbEntity
  8
0
370
    30
100
AcDbBlockEnd
  0
BLOCK
  5
481C
330
4811
100
AcDbEntity
  8
0
370
    30
100
AcDbBlockBegin
  2
*D23
 70
     1
 10
0.0
 20
0.0
 30
0.0
  3
*D23
  1

  0
LINE
  5
4837
330
4811
100
AcDbEntity
  8
0
  6
Continuous
 62
     0
370
    -2
100
AcDbLine
 10
34.21632306267148
 20
5.965295829745748
 30
0.0
 11
34.21632306267148
 21
9.563454253862094
 31
0.0
  0
LINE
  5
4838
330
4811
100
AcDbEntity
  8
0
  6
Continuous
 62
     0
370
    -2
100
AcDbLine
 10
36.91146055916401
 20
8.660433326238274
 30
0.0
 11
36.91146055916401
 21
9.563454253862094
 31
0.0
  0
LINE
  5
4839
330
4811
100
AcDbEntity
  8
0
  6
Continuous
 62
     0
370
    -2
100
AcDbLine
 10
34.36632306267148
 20
9.513454253862093
 30
0.0
 11
35.02359981380167
 21
9.513454253862093
 31
0.0
  0
LINE
  5
483A
330
4811
100
AcDbEntity
  8
0
  6
Continuous
 62
     0
370
    -2
100
AcDbLine
 10
36.76146055916401
 20
9.513454253862093
 30
0.0
 11
36.10418380803383
 21
9.513454253862093
 31
0.0
  0
SOLID
  5
483B
330
4811
100
AcDbEntity
  8
0
  6
Continuous
 62
     0
370
    30
100
AcDbTrace
 10
34.36632306267148
 20
9.538454253862093
 30
0.0
 11
34.36632306267148
 21
9.488454253862093
 31
0.0
 12
34.21632306267148
 22
9.513454253862093
 32
0.0
 13
34.21632306267148
 23
9.513454253862093
 33
0.0
  0
SOLID
  5
483C
330
4811
100
AcDbEntity
  8
0
  6
Continuous
 62
     0
370
    30
100
AcDbTrace
 10
36.76146055916401
 20
9.538454253862093
 30
0.0
 11
36.76146055916401
 21
9.488454253862093
 31
0.0
 12
36.91146055916401
 22
9.513454253862093
 32
0.0
 13
36.91146055916401
 23
9.513454253862093
 33
0.0
  0
MTEXT
  5
483D
330
4811
100
AcDbEntity
  8
0
  6
Continuous
 62
     0
370
    30
100
AcDbMText
 10
35.56389181091775
 20
9.513454253862093
 30
0.0
 40
0.09
 41
0.0
 71
     5
 72
     1
  1
\A1;2.70" [68.46mm]
 73
     1
 44
1.0
  0
POINT
  5
483E
330
4811
100
AcDbEntity
  8
Defpoints
  6
Continuous
 62
     0
370
    30
100
AcDbPoint
 10
34.21632306267148
 20
5.902795829745748
 30
0.0
  0
POINT
  5
483F
330
4811
100
AcDbEntity
  8
Defpoints
  6
Continuous
 62
     0
370
    30
100
AcDbPoint
 10
36.91146055916401
 20
8.597933326238274
 30
0.0
  0
POINT
  5
4840
330
4811
100
AcDbEntity
  8
Defpoints
  6
Continuous
 62
     0
370
    30
100
AcDbPoint
 10
36.91146055916401
 20
9.513454253862093
 30
0.0
  0
ENDBLK
  5
481D
330
4811
100
AcDbEntity
  8
0
370
    30
100
AcDbBlockEnd
  0
BLOCK
  5
482A
330
481F
100
AcDbEntity
  8
0
370
    30
100
AcDbBlockBegin
  2
*D24
 70
     1
 10
0.0
 20
0.0
 30
0.0
  3
*D24
  1

  0
LINE
  5
4841
330
481F
100
AcDbEntity
  8
0
  6
Continuous
 62
     0
370
    -2
100
AcDbLine
 10
34.27882306267148
 20
5.902795829745746
 30
0.0
 11
38.05363078831763
 21
5.902795829745745
 31
0.0
  0
LINE
  5
4842
330
481F
100
AcDbEntity
  8
0
  6
Continuous
 62
     0
370
    -2
100
AcDbLine
 10
36.97396055916401
 20
8.597933326238274
 30
0.0
 11
38.05363078831763
 21
8.597933326238274
 31
0.0
  0
LINE
  5
4843
330
481F
100
AcDbEntity
  8
0
  6
Continuous
 62
     0
370
    -2
100
AcDbLine
 10
38.00363078831763
 20
6.052795829745745
 30
0.0
 11
38.00363078831763
 21
7.102159819520489
 31
0.0
  0
LINE
  5
4844
330
481F
100
AcDbEntity
  8
0
  6
Continuous
 62
     0
370
    -2
100
AcDbLine
 10
38.00363078831763
 20
8.447933326238274
 30
0.0
 11
38.00363078831763
 21
7.39856933646353
 31
0.0
  0
SOLID
  5
4845
330
481F
100
AcDbEntity
  8
0
  6
Continuous
 62
     0
370
    30
100
AcDbTrace
 10
37.97863078831763
 20
6.052795829745746
 30
0.0
 11
38.02863078831763
 21
6.052795829745745
 31
0.0
 12
38.00363078831763
 22
5.902795829745745
 32
0.0
 13
38.00363078831763
 23
5.902795829745745
 33
0.0
  0
SOLID
  5
4846
330
481F
100
AcDbEntity
  8
0
  6
Continuous
 62
     0
370
    30
100
AcDbTrace
 10
37.97863078831763
 20
8.447933326238274
 30
0.0
 11
38.02863078831763
 21
8.447933326238274
 31
0.0
 12
38.00363078831763
 22
8.597933326238274
 32
0.0
 13
38.00363078831763
 23
8.597933326238274
 33
0.0
  0
MTEXT
  5
4847
330
481F
100
AcDbEntity
  8
0
  6
Continuous
 62
     0
370
    30
100
AcDbMText
 10
38.00363078831763
 20
7.250364577992016
 30
0.0
 40
0.09
 41
0.0
 71
     5
 72
     1
  1
\A1;2.70" [68.46mm]
 73
     1
 44
1.0
  0
POINT
  5
4848
330
481F
100
AcDbEntity
  8
Defpoints
  6
Continuous
 62
     0
370
    30
100
AcDbPoint
 10
34.21632306267148
 20
5.902795829745746
 30
0.0
  0
POINT
  5
4849
330
481F
100
AcDbEntity
  8
Defpoints
  6
Continuous
 62
     0
370
    30
100
AcDbPoint
 10
36.91146055916401
 20
8.597933326238274
 30
0.0
  0
POINT
  5
484A
330
481F
100
AcDbEntity
  8
Defpoints
  6
Continuous
 62
     0
370
    30
100
AcDbPoint
 10
38.00363078831763
 20
8.597933326238274
 30
0.0
  0
ENDBLK
  5
482B
330
481F
100
AcDbEntity
  8
0
370
    30
100
AcDbBlockEnd
  0
BLOCK
  5
4879
330
486E
100
AcDbEntity
  8
0
370
    30
100
AcDbBlockBegin
  2
*D25
 70
     1
 10
0.0
 20
0.0
 30
0.0
  3
*D25
  1

  0
LINE
  5
48AC
330
486E
100
AcDbEntity
  8
0
  6
Continuous
 62
     0
370
    -2
100
AcDbLine
 10
41.83549961966955
 20
5.681925699124554
 30
0.0
 11
42.52248447245281
 21
5.681925699124553
 31
0.0
  0
LINE
  5
48AD
330
486E
100
AcDbEntity
  8
0
  6
Continuous
 62
     0
370
    -2
100
AcDbLine
 10
40.34049961966955
 20
9.288877997018431
 30
0.0
 11
42.52248447245281
 21
9.288877997018431
 31
0.0
  0
LINE
  5
48AE
330
486E
100
AcDbEntity
  8
0
  6
Continuous
 62
     0
370
    -2
100
AcDbLine
 10
42.47248447245282
 20
5.831925699124553
 30
0.0
 11
42.47248447245282
 21
7.337197089599971
 31
0.0
  0
LINE
  5
48AF
330
486E
100
AcDbEntity
  8
0
  6
Continuous
 62
     0
370
    -2
100
AcDbLine
 10
42.47248447245282
 20
9.138877997018431
 30
0.0
 11
42.47248447245282
 21
7.633606606543013
 31
0.0
  0
SOLID
  5
48B0
330
486E
100
AcDbEntity
  8
0
  6
Continuous
 62
     0
370
    30
100
AcDbTrace
 10
42.44748447245282
 20
5.831925699124553
 30
0.0
 11
42.49748447245282
 21
5.831925699124553
 31
0.0
 12
42.47248447245282
 22
5.681925699124553
 32
0.0
 13
42.47248447245282
 23
5.681925699124553
 33
0.0
  0
SOLID
  5
48B1
330
486E
100
AcDbEntity
  8
0
  6
Continuous
 62
     0
370
    30
100
AcDbTrace
 10
42.44748447245282
 20
9.138877997018431
 30
0.0
 11
42.49748447245282
 21
9.138877997018431
 31
0.0
 12
42.47248447245282
 22
9.288877997018431
 32
0.0
 13
42.47248447245282
 23
9.288877997018431
 33
0.0
  0
MTEXT
  5
48B2
330
486E
100
AcDbEntity
  8
0
  6
Continuous
 62
     0
370
    30
100
AcDbMText
 10
42.47248447245282
 20
7.485401848071499
 30
0.0
 40
0.09
 41
0.0
 71
     5
 72
     1
  1
\A1;3.61" [91.62mm]
 73
     1
 44
1.0
  0
POINT
  5
48B3
330
486E
100
AcDbEntity
  8
Defpoints
  6
Continuous
 62
     0
370
    30
100
AcDbPoint
 10
41.77299961966954
 20
5.681925699124554
 30
0.0
  0
POINT
  5
48B4
330
486E
100
AcDbEntity
  8
Defpoints
  6
Continuous
 62
     0
370
    30
100
AcDbPoint
 10
40.27799961966954
 20
9.288877997018431
 30
0.0
  0
POINT
  5
48B5
330
486E
100
AcDbEntity
  8
Defpoints
  6
Continuous
 62
     0
370
    30
100
AcDbPoint
 10
42.47248447245282
 20
9.288877997018431
 30
0.0
  0
ENDBLK
  5
487A
330
486E
100
AcDbEntity
  8
0
370
    30
100
AcDbBlockEnd
  0
ENDSEC
  0
SECTION
  2
ENTITIES
  0
LINE
  5
3811
330
1E
100
AcDbEntity
  8
0
  6
Continuous
370
    30
100
AcDbLine
 10
0.0
 20
0.0
 30
0.0
 11
0.0
 21
6.0
 31
0.0
  0
LINE
  5
3812
330
1E
100
AcDbEntity
  8
0
  6
Continuous
370
    30
100
AcDbLine
 10
0.0
 20
6.0
 30
0.0
 11
12.0
 21
6.0
 31
0.0
  0
LINE
  5
3813
330
1E
100
AcDbEntity
  8
0
  6
Continuous
370
    30
100
AcDbLine
 10
12.0
 20
6.0
 30
0.0
 11
12.0
 21
0.0
 31
0.0
  0
LINE
  5
3814
330
1E
100
AcDbEntity
  8
0
  6
Continuous
370
    30
100
AcDbLine
 10
12.0
 20
0.0
 30
0.0
 11
0.0
 21
0.0
 31
0.0
  0
LINE
  5
3915
330
1E
100
AcDbEntity
  8
0
  6
Continuous
370
    30
100
AcDbLine
 10
13.0
 20
0.0
 30
0.0
 11
25.0
 21
0.0
 31
0.0
  0
LINE
  5
3916
330
1E
100
AcDbEntity
  8
0
  6
Continuous
370
    30
100
AcDbLine
 10
25.0
 20
0.0
 30
0.0
 11
25.0
 21
12.0
 31
0.0
  0
LINE
  5
3917
330
1E
100
AcDbEntity
  8
0
  6
Continuous
370
    30
100
AcDbLine
 10
25.0
 20
12.0
 30
0.0
 11
13.0
 21
12.0
 31
0.0
  0
LINE
  5
3918
330
1E
100
AcDbEntity
  8
0
  6
Continuous
370
    30
100
AcDbLine
 10
13.0
 20
12.0
 30
0.0
 11
13.0
 21
0.0
 31
0.0
  0
LINE
  5
3922
330
1E
100
AcDbEntity
  8
Viewport Layer
  6
Continuous
370
    30
100
AcDbLine
 10
26.0
 20
8.5
 30
0.0
 11
26.00000000158828
 21
0.0000000059643366
 31
0.0
  0
LINE
  5
3923
330
1E
100
AcDbEntity
  8
Viewport Layer
  6
Continuous
370
    30
100
AcDbLine
 10
42.0
 20
0.0
 30
0.0
 11
42.0
 21
8.5
 31
0.0
  0
LINE
  5
3924
330
1E
100
AcDbEntity
  8
Viewport Layer
  6
Continuous
370
    30
100
AcDbLine
 10
26.00000000158828
 20
0.0000000059643366
 30
0.0
 11
42.0
 21
0.0
 31
0.0
  0
LINE
  5
3925
330
1E
100
AcDbEntity
  8
Viewport Layer
  6
Continuous
370
    30
100
AcDbLine
 10
42.0
 20
8.5
 30
0.0
 11
26.0
 21
8.5
 31
0.0
  0
MTEXT
  5
3926
330
1E
100
AcDbEntity
  8
0
  6
Continuous
370
    30
100
AcDbMText
 10
0.0
 20
-0.1
 30
0.0
 40
0.2
 41
2.6
 71
     1
 72
     5
  1
{\fCourier New|b0|i0|c0|p49;Page 1 Space}
 73
     1
 44
1.0
  0
MTEXT
  5
392D
330
1E
100
AcDbEntity
  8
0
  6
Continuous
370
    30
100
AcDbMText
 10
13.0
 20
-0.1
 30
0.0
 40
0.2
 41
4.5
 71
     1
 72
     5
  1
{\fCourier New|b0|i0|c0|p49;Page 2 Portrait Space}
 73
     1
 44
1.0
  0
MTEXT
  5
3B5F
330
1E
100
AcDbEntity
  8
Viewport Layer
  6
Continuous
370
    30
100
AcDbMText
 10
26.0
 20
-0.1
 30
0.0
 40
0.2
 41
4.700000000000002
 71
     1
 72
     5
  1
{\fCourier New|b0|i0|c0|p49;Page 2 Landscape Space}
 73
     1
 44
1.0
  0
LINE
  5
3D45
330
1E
100
AcDbEntity
  8
0
100
AcDbLine
 10
41.77299961966955
 20
8.77506326476886
 30
0.0
 11
41.77299961966954
 21
5.596837528206634
 31
0.0
  0
LINE
  5
3D46
330
1E
100
AcDbEntity
  8
0
100
AcDbLine
 10
39.52299961966955
 20
8.553494481946707
 30
0.0
 11
39.52299961966954
 21
5.903494481946708
 31
0.0
  0
LINE
  5
3D47
330
1E
100
AcDbEntity
  8
0
100
AcDbLine
 10
39.72299961966955
 20
9.288877997018431
 30
0.0
 11
39.72299961966955
 21
5.168110966874984
 31
0.0
  0
LINE
  5
3D48
330
1E
100
AcDbEntity
  8
0
100
AcDbLine
 10
40.27799961966954
 20
9.288877997018431
 30
0.0
 11
40.27799961966954
 21
5.168110966874984
 31
0.0
  0
LINE
  5
3D49
330
1E
100
AcDbEntity
  8
0
100
AcDbLine
 10
33.95031965274877
 20
5.940241372502342
 30
0.0
 11
34.16951781358228
 21
6.253288788978245
 31
0.0
  0
ARC
  5
3D4B
330
1E
100
AcDbEntity
  8
0
100
AcDbCircle
 10
32.15448269846814
 20
4.710829860764986
 30
0.0
 40
0.7531250000000016
100
AcDbArc
 50
204.235299458953
 51
255.7647005410469
  0
CIRCLE
  5
3D4E
330
1E
100
AcDbEntity
  8
0
100
AcDbCircle
 10
34.21632306267148
 20
5.902795829745748
 30
0.0
 40
0.09175
  0
LINE
  5
3D4F
330
1E
100
AcDbEntity
  8
0
100
AcDbLine
 10
34.25376860542808
 20
5.636792419823038
 30
0.0
 11
34.56681602190398
 21
5.855990580656538
 31
0.0
  0
ARC
  5
3D50
330
1E
100
AcDbEntity
  8
0
100
AcDbCircle
 10
32.75792236063903
 20
1.288553475458998
 30
0.0
 40
0.7531250000000016
100
AcDbArc
 50
124.2352994589532
 51
175.7647005410473
  0
LINE
  5
3D51
330
1E
100
AcDbEntity
  8
0
100
AcDbLine
 10
40.27799961966954
 20
5.681925699124555
 30
0.0
 11
41.57299961966955
 21
5.681925699124555
 31
0.0
  0
LINE
  5
3D54
330
1E
100
AcDbEntity
  8
0
100
AcDbLine
 10
41.57299961966955
 20
5.596837528206634
 30
0.0
 11
41.77299961966954
 21
5.596837528206634
 31
0.0
  0
LINE
  5
3D57
330
1E
100
AcDbEntity
  8
0
100
AcDbLine
 10
39.72299961966955
 20
5.168110966874984
 30
0.0
 11
40.27799961966954
 21
5.168110966874984
 31
0.0
  0
LINE
  5
3D58
330
1E
100
AcDbEntity
  8
0
100
AcDbLine
 10
39.72299961966955
 20
5.294036538532338
 30
0.0
 11
40.27799961966954
 21
5.294036538532338
 31
0.0
  0
LINE
  5
3D59
330
1E
100
AcDbEntity
  8
0
100
AcDbLine
 10
39.72299961966955
 20
5.650149139532061
 30
0.0
 11
40.27799961966954
 21
5.650149139532061
 31
0.0
  0
ARC
  5
3D5A
330
1E
100
AcDbEntity
  8
0
100
AcDbCircle
 10
39.72299961966955
 20
5.903494481946708
 30
0.0
 40
0.2
100
AcDbArc
 50
180.0
 51
270.0
  0
LINE
  5
3D5B
330
1E
100
AcDbEntity
  8
0
100
AcDbLine
 10
39.72299961966955
 20
5.703494481946705
 30
0.0
 11
39.72299961966955
 21
5.703494481946705
 31
0.0
  0
LINE
  5
3D5C
330
1E
100
AcDbEntity
  8
0
100
AcDbLine
 10
34.12570028367432
 20
5.647996946133282
 30
0.0
 11
33.96152417905902
 21
5.812173050748583
 31
0.0
  0
ARC
  5
3D5E
330
1E
100
AcDbEntity
  8
0
100
AcDbCircle
 10
34.19641096179297
 20
5.718707624251941
 30
0.0
 40
0.1
100
AcDbArc
 50
224.9999999999999
 51
305.0
  0
ARC
  5
3D5F
330
1E
100
AcDbEntity
  8
hidden
100
AcDbCircle
 10
34.03223485717767
 20
5.882883728867241
 30
0.0
 40
0.1
100
AcDbArc
 50
144.9999999999999
 51
224.9999999999999
  0
ARC
  5
3D69
330
1E
100
AcDbEntity
  8
0
100
AcDbCircle
 10
32.30608999509674
 20
1.952524317494603
 30
0.0
 40
0.05
100
AcDbArc
 50
304.235299458953
 51
15.76470054104696
  0
ARC
  5
3D6A
330
1E
100
AcDbEntity
  8
0
100
AcDbCircle
 10
34.62417366553908
 20
5.774075376227642
 30
0.0
 40
0.1
100
AcDbArc
 50
57.52158789210741
 51
124.9999999999999
  0
ARC
  5
3D6F
330
1E
100
AcDbEntity
  8
0
100
AcDbCircle
 10
32.75792236063903
 20
3.991678475458997
 30
0.0
 40
0.7531250000000016
100
AcDbArc
 50
184.2352994589528
 51
235.7647005410469
  0
ARC
  5
3D71
330
1E
100
AcDbEntity
  8
0
100
AcDbCircle
 10
32.30608999509674
 20
3.327707633423389
 30
0.0
 40
0.05
100
AcDbArc
 50
344.2352994589532
 51
55.76470054104698
  0
ARC
  5
3D72
330
1E
100
AcDbEntity
  8
0
100
AcDbCircle
 10
31.9569905612929
 20
3.932365589665175
 30
0.0
 40
0.05
100
AcDbArc
 50
4.235299458953337
 51
75.76470054104683
  0
ARC
  5
3D73
330
1E
100
AcDbEntity
  8
0
100
AcDbCircle
 10
28.0759725214294
 20
1.288553475458993
 30
0.0
 40
0.7531250000000016
100
AcDbArc
 50
4.235299458953108
 51
55.76470054104719
  0
LINE
  5
3D75
330
1E
100
AcDbEntity
  8
0
100
AcDbLine
 10
40.95269363814214
 20
7.803494481946707
 30
0.0
 11
41.77299961966955
 21
7.803494481946707
 31
0.0
  0
LINE
  5
3D76
330
1E
100
AcDbEntity
  8
0
100
AcDbLine
 10
40.95269363814216
 20
6.653494481946701
 30
0.0
 11
41.77299961966954
 21
6.653494481946701
 31
0.0
  0
ARC
  5
3D77
330
1E
100
AcDbEntity
  8
0
100
AcDbCircle
 10
41.00299961966955
 20
7.228494481946704
 30
0.0
 40
0.577196406587425
100
AcDbArc
 50
94.99999999999474
 51
265.0000000000008
  0
CIRCLE
  5
3D78
330
1E
100
AcDbEntity
  8
0
100
AcDbCircle
 10
41.00299961966955
 20
7.228494481946704
 30
0.0
 40
0.35
  0
CIRCLE
  5
3D79
330
1E
100
AcDbEntity
  8
0
100
AcDbCircle
 10
41.00299961966955
 20
7.228494481946704
 30
0.0
 40
0.373
  0
CIRCLE
  5
3D7A
330
1E
100
AcDbEntity
  8
0
100
AcDbCircle
 10
41.00299961966955
 20
7.228494481946704
 30
0.0
 40
0.41
  0
CIRCLE
  5
3D7B
330
1E
100
AcDbEntity
  8
0
100
AcDbCircle
 10
41.00299961966955
 20
7.228494481946704
 30
0.0
 40
0.4400000000000001
  0
LINE
  5
3D7C
330
1E
100
AcDbEntity
  8
0
100
AcDbLine
 10
40.27799961966954
 20
8.77506326476886
 30
0.0
 11
41.77299961966955
 21
8.77506326476886
 31
0.0
  0
LINE
  5
3D7E
330
1E
100
AcDbEntity
  8
0
100
AcDbLine
 10
41.57299961966955
 20
8.86015143568678
 30
0.0
 11
41.77299961966955
 21
8.86015143568678
 31
0.0
  0
LINE
  5
3D7F
330
1E
100
AcDbEntity
  8
0
100
AcDbLine
 10
41.77299961966955
 20
8.77506326476886
 30
0.0
 11
41.77299961966955
 21
8.86015143568678
 31
0.0
  0
LINE
  5
3D80
330
1E
100
AcDbEntity
  8
0
100
AcDbLine
 10
41.57299961966955
 20
8.77506326476886
 30
0.0
 11
41.57299961966955
 21
8.86015143568678
 31
0.0
  0
ARC
  5
3D81
330
1E
100
AcDbEntity
  8
0
100
AcDbCircle
 10
29.49242424110701
 20
0.1000093598970859
 30
0.0
 40
0.7531250000000016
100
AcDbArc
 50
44.23529945895293
 51
95.7647005410468
  0
LINE
  5
3D82
330
1E
100
AcDbEntity
  8
0
100
AcDbLine
 10
39.72299961966955
 20
6.198302724410844
 30
0.0
 11
40.27799961966954
 21
6.198302724410844
 31
0.0
  0
LINE
  5
3D83
330
1E
100
AcDbEntity
  8
0
100
AcDbLine
 10
39.72299961966955
 20
6.870712639259515
 30
0.0
 11
40.27799961966954
 21
6.870712639259515
 31
0.0
  0
LINE
  5
3D84
330
1E
100
AcDbEntity
  8
0
100
AcDbLine
 10
39.72299961966955
 20
7.5862763246339
 30
0.0
 11
40.27799961966954
 21
7.5862763246339
 31
0.0
  0
LINE
  5
3D86
330
1E
100
AcDbEntity
  8
0
100
AcDbLine
 10
30.6389474410342
 20
0.9501159754589991
 30
0.0
 11
30.1949474410342
 21
0.9501159754589991
 31
0.0
  0
LINE
  5
3D87
330
1E
100
AcDbEntity
  8
0
100
AcDbLine
 10
30.1949474410342
 20
0.7751159754589985
 30
0.0
 11
30.6389474410342
 21
0.7751159754589985
 31
0.0
  0
ARC
  5
3D88
330
1E
100
AcDbEntity
  8
0
100
AcDbCircle
 10
30.41694744103421
 20
-0.0630090245410053
 30
0.0
 40
0.7531250000000016
100
AcDbArc
 50
64.23529945895281
 51
115.7647005410471
  0
ARC
  5
3D8A
330
1E
100
AcDbEntity
  8
0
100
AcDbCircle
 10
31.34147064096141
 20
0.1000093598970895
 30
0.0
 40
0.7531250000000016
100
AcDbArc
 50
84.23529945895321
 51
135.7647005410474
  0
ARC
  5
3D8B
330
1E
100
AcDbEntity
  8
0
100
AcDbCircle
 10
31.42213919857007
 20
0.8990727800574301
 30
0.0
 40
0.05
100
AcDbArc
 50
264.2352994589529
 51
335.7647005410466
  0
ARC
  5
3D8C
330
1E
100
AcDbEntity
  8
hidden
100
AcDbCircle
 10
34.08760260915338
 20
6.310646432613346
 30
0.0
 40
0.1
100
AcDbArc
 50
324.9999999999992
 51
32.47841210789244
  0
ARC
  5
3D8D
330
1E
100
AcDbEntity
  8
0
100
AcDbCircle
 10
30.76604687483805
 20
0.6602747032884256
 30
0.0
 40
0.05
100
AcDbArc
 50
244.235299458953
 51
315.7647005410471
  0
LINE
  5
3D8E
330
1E
100
AcDbEntity
  8
0
100
AcDbLine
 10
30.6389474410342
 20
0.7751159754589985
 30
0.0
 11
30.6389474410342
 21
0.9501159754589991
 31
0.0
  0
ARC
  5
3D8F
330
1E
100
AcDbEntity
  8
0
100
AcDbCircle
 10
30.06784800723036
 20
0.6602747032884256
 30
0.0
 40
0.05
100
AcDbArc
 50
224.2352994589535
 51
295.7647005410462
  0
LINE
  5
3D90
330
1E
100
AcDbEntity
  8
0
100
AcDbLine
 10
30.1949474410342
 20
0.9501159754589991
 30
0.0
 11
30.1949474410342
 21
0.7751159754589985
 31
0.0
  0
LINE
  5
3D91
330
1E
100
AcDbEntity
  8
0
100
AcDbLine
 10
39.72299961966955
 20
8.262365061300123
 30
0.0
 11
40.27799961966954
 21
8.262365061300123
 31
0.0
  0
LINE
  5
3D92
330
1E
100
AcDbEntity
  8
0
100
AcDbLine
 10
39.72299961966955
 20
8.809495204419846
 30
0.0
 11
40.27799961966954
 21
8.809495204419846
 31
0.0
  0
ARC
  5
3D93
330
1E
100
AcDbEntity
  8
0
100
AcDbCircle
 10
39.72299961966955
 20
8.553494481946707
 30
0.0
 40
0.2
100
AcDbArc
 50
89.99999999999998
 51
180.0
  0
LINE
  5
3D94
330
1E
100
AcDbEntity
  8
0
100
AcDbLine
 10
39.72299961966955
 20
8.753494481946709
 30
0.0
 11
39.72299961966955
 21
8.753494481946709
 31
0.0
  0
LINE
  5
3D95
330
1E
100
AcDbEntity
  8
0
100
AcDbLine
 10
39.72299961966955
 20
9.165933327323699
 30
0.0
 11
40.27799961966954
 21
9.165933327323692
 31
0.0
  0
LINE
  5
3D96
330
1E
100
AcDbEntity
  8
0
100
AcDbLine
 10
39.72299961966955
 20
9.288877997018431
 30
0.0
 11
40.27799961966954
 21
9.288877997018431
 31
0.0
  0
ARC
  5
3D97
330
1E
100
AcDbEntity
  8
0
100
AcDbCircle
 10
28.67941218360028
 20
0.5694020901530075
 30
0.0
 40
0.7531250000000016
100
AcDbArc
 50
24.23529945895296
 51
75.76470054104702
  0
ARC
  5
3D98
330
1E
100
AcDbEntity
  8
0
100
AcDbCircle
 10
29.41175568349835
 20
0.8990727800574266
 30
0.0
 40
0.05
100
AcDbArc
 50
204.2352994589535
 51
275.7647005410472
  0
ARC
  5
3D99
330
1E
100
AcDbEntity
  8
0
100
AcDbCircle
 10
28.87690432077551
 20
1.347866361252818
 30
0.0
 40
0.05
100
AcDbArc
 50
184.2352994589523
 51
255.7647005410469
  0
ARC
  5
3D9B
330
1E
100
AcDbEntity
  8
0
100
AcDbCircle
 10
29.492424241107
 20
5.180222591020909
 30
0.0
 40
0.7531250000000016
100
AcDbArc
 50
264.2352994589529
 51
315.7647005410471
  0
LINE
  5
3D9D
330
1E
100
AcDbEntity
  8
0
100
AcDbLine
 10
30.19494744103421
 20
4.330115975458993
 30
0.0
 11
30.63894744103421
 21
4.330115975458993
 31
0.0
  0
LINE
  5
3D9E
330
1E
100
AcDbEntity
  8
0
100
AcDbLine
 10
30.63894744103421
 20
4.505115975458995
 30
0.0
 11
30.19494744103421
 21
4.505115975458995
 31
0.0
  0
ARC
  5
3D9F
330
1E
100
AcDbEntity
  8
0
100
AcDbCircle
 10
30.41694744103421
 20
5.343240975459002
 30
0.0
 40
0.7531250000000016
100
AcDbArc
 50
244.235299458953
 51
295.7647005410469
  0
ARC
  5
3DA1
330
1E
100
AcDbEntity
  8
0
100
AcDbCircle
 10
31.3414706409614
 20
5.180222591020909
 30
0.0
 40
0.7531250000000016
100
AcDbArc
 50
224.2352994589528
 51
275.7647005410472
  0
ARC
  5
3DA2
330
1E
100
AcDbEntity
  8
0
100
AcDbCircle
 10
31.42213919857007
 20
4.381159170860565
 30
0.0
 40
0.05
100
AcDbArc
 50
24.23529945895356
 51
95.7647005410468
  0
LINE
  5
3DA3
330
1E
100
AcDbEntity
  8
0
100
AcDbLine
 10
30.63894744103421
 20
4.330115975458993
 30
0.0
 11
30.63894744103421
 21
4.505115975458995
 31
0.0
  0
ARC
  5
3DA4
330
1E
100
AcDbEntity
  8
0
100
AcDbCircle
 10
30.76604687483805
 20
4.619957247629567
 30
0.0
 40
0.05
100
AcDbArc
 50
44.23529945895291
 51
115.7647005410462
  0
ARC
  5
3DA5
330
1E
100
AcDbEntity
  8
0
100
AcDbCircle
 10
30.06784800723037
 20
4.619957247629567
 30
0.0
 40
0.05
100
AcDbArc
 50
64.23529945895255
 51
135.7647005410464
  0
LINE
  5
3DA6
330
1E
100
AcDbEntity
  8
0
100
AcDbLine
 10
30.19494744103421
 20
4.505115975458995
 30
0.0
 11
30.19494744103421
 21
4.330115975458993
 31
0.0
  0
ARC
  5
3DA7
330
1E
100
AcDbEntity
  8
0
100
AcDbCircle
 10
27.75488898367308
 20
3.109508705714917
 30
0.0
 40
0.7531250000000016
100
AcDbArc
 50
324.235299458953
 51
15.76470054104696
  0
ARC
  5
3DA9
330
1E
100
AcDbEntity
  8
0
100
AcDbCircle
 10
27.75488898367308
 20
2.170723245203074
 30
0.0
 40
0.7531250000000016
100
AcDbArc
 50
344.2352994589529
 51
35.76470054104714
  0
ARC
  5
3DAA
330
1E
100
AcDbEntity
  8
0
100
AcDbCircle
 10
28.52780488697167
 20
1.952524317494602
 30
0.0
 40
0.05
100
AcDbArc
 50
164.2352994589531
 51
235.7647005410469
  0
LINE
  5
3DAB
330
1E
100
AcDbEntity
  8
0
100
AcDbLine
 10
28.72694744103421
 20
2.418115975458996
 30
0.0
 11
28.72694744103421
 21
2.862115975458997
 31
0.0
  0
LINE
  5
3DAC
330
1E
100
AcDbEntity
  8
0
100
AcDbLine
 10
28.55194744103421
 20
2.862115975458997
 30
0.0
 11
28.55194744103421
 21
2.418115975458996
 31
0.0
  0
LINE
  5
3DAD
330
1E
100
AcDbEntity
  8
0
100
AcDbLine
 10
28.55194744103421
 20
2.418115975458996
 30
0.0
 11
28.72694744103421
 21
2.418115975458996
 31
0.0
  0
ARC
  5
3DAE
330
1E
100
AcDbEntity
  8
0
100
AcDbCircle
 10
28.40656392596249
 20
2.640115975458997
 30
0.0
 40
0.05
100
AcDbArc
 50
144.2352994589526
 51
215.7647005410468
  0
LINE
  5
3DAF
330
1E
100
AcDbEntity
  8
0
100
AcDbLine
 10
28.72694744103421
 20
2.862115975458997
 30
0.0
 11
28.55194744103421
 21
2.862115975458997
 31
0.0
  0
ARC
  5
3DB0
330
1E
100
AcDbEntity
  8
0
100
AcDbCircle
 10
28.07597252142939
 20
3.991678475458996
 30
0.0
 40
0.7531250000000016
100
AcDbArc
 50
304.2352994589533
 51
355.7647005410472
  0
ARC
  5
3DB1
330
1E
100
AcDbEntity
  8
0
100
AcDbCircle
 10
36.93137266004252
 20
8.782021531732084
 30
0.0
 40
0.1
100
AcDbArc
 50
45.00000000000009
 51
125.0
  0
CIRCLE
  5
3DB2
330
1E
100
AcDbEntity
  8
0
100
AcDbCircle
 10
36.91146055916401
 20
8.597933326238274
 30
0.0
 40
0.09175
  0
ARC
  5
3DB4
330
1E
100
AcDbEntity
  8
hidden
100
AcDbCircle
 10
36.50360995629641
 20
8.726653779756382
 30
0.0
 40
0.1
100
AcDbArc
 50
237.5215878921074
 51
305.0000000000001
  0
LINE
  5
3DB6
330
1E
100
AcDbEntity
  8
0
100
AcDbLine
 10
36.87401501640742
 20
8.863936736160987
 30
0.0
 11
36.56096759993152
 21
8.644738575327487
 31
0.0
  0
LINE
  5
3DB8
330
1E
100
AcDbEntity
  8
0
100
AcDbLine
 10
37.17746396908672
 20
8.560487783481683
 30
0.0
 11
36.95826580825322
 21
8.247440367005779
 31
0.0
  0
ARC
  5
3DB9
330
1E
100
AcDbEntity
  8
0
100
AcDbCircle
 10
29.41175568349834
 20
4.381159170860565
 30
0.0
 40
0.05
100
AcDbArc
 50
84.23529945895298
 51
155.7647005410464
  0
ARC
  5
3DBA
330
1E
100
AcDbEntity
  8
0
100
AcDbCircle
 10
37.04018101268212
 20
8.19008272337067
 30
0.0
 40
0.1
100
AcDbArc
 50
144.9999999999996
 51
212.4784121078919
  0
LINE
  5
3DBB
330
1E
100
AcDbEntity
  8
0
100
AcDbLine
 10
37.16625944277648
 20
8.688556105235441
 30
0.0
 11
37.00208333816117
 21
8.852732209850742
 31
0.0
  0
ARC
  5
3DBC
330
1E
100
AcDbEntity
  8
0
100
AcDbCircle
 10
37.09554876465782
 20
8.617845427116781
 30
0.0
 40
0.1
100
AcDbArc
 50
324.9999999999999
 51
45.00000000000009
  0
ARC
  5
3DBD
330
1E
100
AcDbEntity
  8
0
100
AcDbCircle
 10
28.52780488697167
 20
3.327707633423389
 30
0.0
 40
0.05
100
AcDbArc
 50
124.2352994589528
 51
195.7647005410468
  0
DIMENSION
  5
3E34
330
1E
100
AcDbEntity
  8
0
  6
Continuous
370
    30
100
AcDbDimension
  2
*D17
 10
39.52299961966955
 20
9.670037620259456
 30
0.0
 11
40.64799961966954
 21
9.670037620259456
 31
0.0
 70
    32
 71
     5
 42
2.249999999999992
  3
dim style 1
100
AcDbAlignedDimension
 13
41.77299961966954
 23
8.86015143568678
 33
0.0
 14
39.52299961966955
 24
8.553494481946707
 34
0.0
 50
180.0
100
AcDbRotatedDimension
  0
LINE
  5
3E54
330
1E
100
AcDbEntity
  8
0
  6
Continuous
370
    30
100
AcDbLine
 10
40.44799961966954
 20
5.449925699124555
 30
0.0
 11
40.44799961966954
 21
5.681925699124555
 31
0.0
  0
LINE
  5
3E55
330
1E
100
AcDbEntity
  8
0
  6
Continuous
370
    30
100
AcDbLine
 10
40.44799961966954
 20
5.681925699124555
 30
0.0
 11
41.52299961966955
 21
5.681925699124555
 31
0.0
  0
LINE
  5
3E56
330
1E
100
AcDbEntity
  8
0
  6
Continuous
370
    30
100
AcDbLine
 10
41.52299961966955
 20
5.681925699124555
 30
0.0
 11
41.52299961966955
 21
5.449925699124555
 31
0.0
  0
LINE
  5
3E57
330
1E
100
AcDbEntity
  8
0
  6
Continuous
370
    30
100
AcDbLine
 10
41.52299961966955
 20
5.449925699124555
 30
0.0
 11
40.44799961966954
 21
5.449925699124555
 31
0.0
  0
LINE
  5
3E5B
330
1E
100
AcDbEntity
  8
0
  6
Continuous
370
    30
100
AcDbLine
 10
40.44799961966954
 20
5.449925699124555
 30
0.0
 11
40.44799961966954
 21
4.481925699124552
 31
0.0
  0
LINE
  5
3E5C
330
1E
100
AcDbEntity
  8
0
  6
Continuous
370
    30
100
AcDbLine
 10
41.52299961966955
 20
5.449925699124555
 30
0.0
 11
41.52299961966955
 21
4.481925699124552
 31
0.0
  0
LINE
  5
3E5D
330
1E
100
AcDbEntity
  8
0
  6
Continuous
370
    30
100
AcDbLine
 10
40.44799961966954
 20
4.481925699124552
 30
0.0
 11
41.52299961966955
 21
4.481925699124552
 31
0.0
  0
LINE
  5
3E5E
330
1E
100
AcDbEntity
  8
0
  6
Continuous
370
    30
100
AcDbLine
 10
41.40549961966955
 20
4.481925699124552
 30
0.0
 11
40.56549961966955
 21
4.481925699124552
 31
0.0
  0
LINE
  5
3E5F
330
1E
100
AcDbEntity
  8
0
  6
Continuous
370
    30
100
AcDbLine
 10
40.56549961966955
 20
4.481925699124552
 30
0.0
 11
40.56549961966955
 21
0.9819256991245524
 31
0.0
  0
LINE
  5
3E60
330
1E
100
AcDbEntity
  8
0
  6
Continuous
370
    30
100
AcDbLine
 10
40.56549961966955
 20
0.9819256991245524
 30
0.0
 11
41.40549961966955
 21
0.9819256991245524
 31
0.0
  0
LINE
  5
3E61
330
1E
100
AcDbEntity
  8
0
  6
Continuous
370
    30
100
AcDbLine
 10
41.40549961966955
 20
0.9819256991245524
 30
0.0
 11
41.40549961966955
 21
4.481925699124552
 31
0.0
  0
LINE
  5
3E62
330
1E
100
AcDbEntity
  8
0
  6
Continuous
370
    30
100
AcDbLine
 10
40.98549961966955
 20
5.681925699124555
 30
0.0
 11
40.98549961966955
 21
5.449925699124555
 31
0.0
  0
LINE
  5
3E64
330
1E
100
AcDbEntity
  8
0
  6
Continuous
370
    30
100
AcDbLine
 10
35.98389181091774
 20
0.9819256991245524
 30
0.0
 11
35.98389181091774
 21
4.481925699124552
 31
0.0
  0
LINE
  5
3E65
330
1E
100
AcDbEntity
  8
0
  6
Continuous
370
    30
100
AcDbLine
 10
35.14389181091774
 20
4.481925699124552
 30
0.0
 11
35.14389181091774
 21
0.9819256991245524
 31
0.0
  0
LINE
  5
3E66
330
1E
100
AcDbEntity
  8
0
  6
Continuous
370
    30
100
AcDbLine
 10
35.14389181091774
 20
0.9819256991245524
 30
0.0
 11
35.98389181091774
 21
0.9819256991245524
 31
0.0
  0
LINE
  5
3E67
330
1E
100
AcDbEntity
  8
0
  6
Continuous
370
    30
100
AcDbLine
 10
35.02639181091774
 20
4.481925699124552
 30
0.0
 11
36.10139181091774
 21
4.481925699124552
 31
0.0
  0
LINE
  5
3E68
330
1E
100
AcDbEntity
  8
0
  6
Continuous
370
    30
100
AcDbLine
 10
35.98389181091774
 20
4.481925699124552
 30
0.0
 11
35.14389181091774
 21
4.481925699124552
 31
0.0
  0
DIMENSION
  5
3E8B
330
1E
100
AcDbEntity
  8
0
  6
Continuous
370
    30
100
AcDbDimension
  2
*D18
 10
41.40549961966955
 20
0.4706726426148507
 30
0.0
 11
42.09481829306536
 21
0.4706726426148507
 31
0.0
 70
    32
 71
     5
 42
0.8399999999999963
  3
dim style 1
100
AcDbAlignedDimension
 13
40.56549961966955
 23
0.9819256991245524
 33
0.0
 14
41.40549961966955
 24
0.9819256991245524
 34
0.0
100
AcDbRotatedDimension
  0
DIMENSION
  5
3E99
330
1E
100
AcDbEntity
  8
0
  6
Continuous
370
    30
100
AcDbDimension
  2
*D19
 10
41.52299961966955
 20
-0.0278877841036689
 30
0.0
 11
42.20693256847993
 21
-0.0278877841036689
 31
0.0
 70
   160
 71
     5
 42
1.075000000000002
  3
dim style 1
100
AcDbAlignedDimension
 13
40.44799961966954
 23
4.481925699124552
 33
0.0
 14
41.52299961966955
 24
4.481925699124552
 34
0.0
100
AcDbRotatedDimension
  0
CIRCLE
  5
4231
330
1E
100
AcDbEntity
  8
0
  6
Continuous
370
    30
100
AcDbCircle
 10
35.56389181091774
 20
7.250364577992007
 30
0.0
 40
0.4280000000000001
  0
MTEXT
  5
425E
330
1E
100
AcDbEntity
  8
0
  6
Continuous
370
    30
100
AcDbMText
 10
40.75016877800254
 20
7.275172847011361
 30
0.0
 40
0.09
 41
0.6041714485941796
 71
     1
 72
     5
  1
PG 11/16
 73
     1
 44
1.0
  0
ARC
  5
427E
330
1E
100
AcDbEntity
  8
0
100
AcDbCircle
 10
33.07900589839533
 20
3.109508705714917
 30
0.0
 40
0.7531250000000016
100
AcDbArc
 50
164.235299458953
 51
215.764700541047
  0
ARC
  5
427F
330
1E
100
AcDbEntity
  8
0
100
AcDbCircle
 10
32.42733095610593
 20
2.640115975458997
 30
0.0
 40
0.05
100
AcDbArc
 50
324.2352994589531
 51
35.76470054104737
  0
ARC
  5
4280
330
1E
100
AcDbEntity
  8
0
100
AcDbCircle
 10
33.07900589839533
 20
2.170723245203074
 30
0.0
 40
0.7531250000000016
100
AcDbArc
 50
144.2352994589528
 51
195.764700541047
  0
ARC
  5
4281
330
1E
100
AcDbEntity
  8
0
100
AcDbCircle
 10
31.9569905612929
 20
1.347866361252818
 30
0.0
 40
0.05
100
AcDbArc
 50
284.235299458953
 51
355.7647005410476
  0
ARC
  5
4282
330
1E
100
AcDbEntity
  8
0
100
AcDbCircle
 10
32.15448269846814
 20
0.5694020901530075
 30
0.0
 40
0.7531250000000016
100
AcDbArc
 50
104.235299458953
 51
155.764700541047
  0
ARC
  5
4283
330
1E
100
AcDbEntity
  8
0
100
AcDbCircle
 10
28.67941218360028
 20
4.710829860764986
 30
0.0
 40
0.7531250000000016
100
AcDbArc
 50
284.235299458953
 51
335.7647005410469
  0
ARC
  5
4284
330
1E
100
AcDbEntity
  8
0
100
AcDbCircle
 10
28.87690432077551
 20
3.932365589665175
 30
0.0
 40
0.05
100
AcDbArc
 50
104.2352994589531
 51
175.7647005410466
  0
LINE
  5
4285
330
1E
100
AcDbEntity
  8
0
100
AcDbLine
 10
32.1069474410342
 20
2.418115975458996
 30
0.0
 11
32.1069474410342
 21
2.862115975458997
 31
0.0
  0
LINE
  5
4286
330
1E
100
AcDbEntity
  8
0
100
AcDbLine
 10
32.2819474410342
 20
2.418115975458996
 30
0.0
 11
32.1069474410342
 21
2.418115975458996
 31
0.0
  0
LINE
  5
4287
330
1E
100
AcDbEntity
  8
0
100
AcDbLine
 10
32.1069474410342
 20
2.862115975458997
 30
0.0
 11
32.2819474410342
 21
2.862115975458997
 31
0.0
  0
LINE
  5
4288
330
1E
100
AcDbEntity
  8
0
100
AcDbLine
 10
32.2819474410342
 20
2.862115975458997
 30
0.0
 11
32.2819474410342
 21
2.418115975458996
 31
0.0
  0
LINE
  5
4291
330
1E
100
AcDbEntity
  8
0
  6
Continuous
370
    30
100
AcDbLine
 10
37.25941515942827
 20
6.708515360353317
 30
0.0
 11
37.16225595631137
 21
6.739565146982052
 31
0.0
  0
LINE
  5
4292
330
1E
100
AcDbEntity
  8
0
  6
Continuous
370
    30
100
AcDbLine
 10
37.25941515942827
 20
7.792213795630701
 30
0.0
 11
37.16225595631137
 21
7.761164009001966
 31
0.0
  0
LINE
  5
4296
330
1E
100
AcDbEntity
  8
0
  6
Continuous
370
    30
100
AcDbLine
 10
36.10574102855644
 20
8.945887926502528
 30
0.0
 11
36.07469124192771
 21
8.84872872338564
 31
0.0
  0
LINE
  5
4297
330
1E
100
AcDbEntity
  8
0
  6
Continuous
370
    30
100
AcDbLine
 10
35.02204259327906
 20
8.945887926502528
 30
0.0
 11
35.05309237990779
 21
8.84872872338564
 31
0.0
  0
LINE
  5
429B
330
1E
100
AcDbEntity
  8
0
  6
Continuous
370
    30
100
AcDbLine
 10
35.02204259327906
 20
5.554841229481482
 30
0.0
 11
35.05309237990779
 21
5.652000432598377
 31
0.0
  0
LINE
  5
429C
330
1E
100
AcDbEntity
  8
0
  6
Continuous
370
    30
100
AcDbLine
 10
36.10574102855644
 20
5.554841229481489
 30
0.0
 11
36.07469124192771
 21
5.652000432598377
 31
0.0
  0
LINE
  5
42A0
330
1E
100
AcDbEntity
  8
0
  6
Continuous
370
    30
100
AcDbLine
 10
33.86836846240722
 20
7.792213795630708
 30
0.0
 11
33.96552766552412
 21
7.761164009001966
 31
0.0
  0
LINE
  5
42A1
330
1E
100
AcDbEntity
  8
0
  6
Continuous
370
    30
100
AcDbLine
 10
33.86836846240722
 20
6.70851536035331
 30
0.0
 11
33.96552766552412
 21
6.739565146982052
 31
0.0
  0
CIRCLE
  5
42A9
330
1E
100
AcDbEntity
  8
0
  6
Continuous
370
    30
100
AcDbCircle
 10
35.56389181091774
 20
7.250364577992007
 30
0.0
 40
1.55
  0
ARC
  5
42AA
330
1E
100
AcDbEntity
  8
0
  6
Continuous
370
    30
100
AcDbCircle
 10
35.56389181091774
 20
7.250364577992007
 30
0.0
 40
1.78
100
AcDbArc
 50
342.2773480558934
 51
17.72265194410654
  0
ARC
  5
42AB
330
1E
100
AcDbEntity
  8
0
  6
Continuous
370
    30
100
AcDbCircle
 10
35.56389181091774
 20
7.250364577992007
 30
0.0
 40
1.78
100
AcDbArc
 50
72.27734805589341
 51
107.7226519441063
  0
ARC
  5
42AC
330
1E
100
AcDbEntity
  8
0
  6
Continuous
370
    30
100
AcDbCircle
 10
35.56389181091774
 20
7.250364577992007
 30
0.0
 40
1.78
100
AcDbArc
 50
162.2773480558933
 51
197.7226519441067
  0
ARC
  5
42AD
330
1E
100
AcDbEntity
  8
0
  6
Continuous
370
    30
100
AcDbCircle
 10
35.56389181091774
 20
7.250364577992007
 30
0.0
 40
1.78
100
AcDbArc
 50
252.2773480558936
 51
287.7226519441066
  0
ARC
  5
42AE
330
1E
100
AcDbEntity
  8
0
  6
Continuous
370
    30
100
AcDbCircle
 10
35.56389181091774
 20
7.250364577992007
 30
0.0
 40
1.645
100
AcDbArc
 50
202.6299360171822
 51
249.2928872034084
  0
ARC
  5
42AF
330
1E
100
AcDbEntity
  8
0
  6
Continuous
370
    30
100
AcDbCircle
 10
35.56389181091774
 20
7.250364577992007
 30
0.0
 40
1.677999999999999
100
AcDbArc
 50
68.78529669996606
 51
72.27734805589342
  0
ARC
  5
42B7
330
1E
100
AcDbEntity
  8
0
  6
Continuous
370
    30
100
AcDbCircle
 10
35.56389181091774
 20
7.250364577992007
 30
0.0
 40
1.677999999999999
100
AcDbArc
 50
107.7226519441063
 51
162.2773480558934
  0
ARC
  5
42B8
330
1E
100
AcDbEntity
  8
0
  6
Continuous
370
    30
100
AcDbCircle
 10
35.56389181091774
 20
7.250364577992007
 30
0.0
 40
1.677999999999999
100
AcDbArc
 50
17.7226519441065
 51
23.09291369238214
  0
LINE
  5
42B9
330
1E
100
AcDbEntity
  8
0
  6
Continuous
370
    30
100
AcDbLine
 10
37.10743369492258
 20
7.908515360353312
 30
0.0
 11
37.08224211549771
 21
7.883323780928442
 31
0.0
  0
LINE
  5
42BA
330
1E
100
AcDbEntity
  8
0
  6
Continuous
370
    30
100
AcDbLine
 10
36.17109928751268
 20
8.814648145753047
 30
0.0
 11
36.14554895440582
 21
8.789097812646183
 31
0.0
  0
ARC
  5
42BB
330
1E
100
AcDbEntity
  8
0
  6
Continuous
370
    30
100
AcDbCircle
 10
35.56389181091774
 20
7.250364577992007
 30
0.0
 40
1.677999999999999
100
AcDbArc
 50
287.7226519441065
 51
291.2147033000339
  0
LINE
  5
42BC
330
1E
100
AcDbEntity
  8
0
  6
Continuous
370
    30
100
AcDbLine
 10
34.95668433432281
 20
5.686081010230971
 30
0.0
 11
34.98223466742968
 21
5.711631343337835
 31
0.0
  0
LINE
  5
42BD
330
1E
100
AcDbEntity
  8
0
  6
Continuous
370
    30
100
AcDbLine
 10
34.02034992691291
 20
6.592213795630705
 30
0.0
 11
34.04554150633778
 21
6.617405375055575
 31
0.0
  0
ARC
  5
42BE
330
1E
100
AcDbEntity
  8
0
  6
Continuous
370
    30
100
AcDbCircle
 10
35.56389181091774
 20
7.250364577992007
 30
0.0
 40
1.677999999999999
100
AcDbArc
 50
336.9070863076178
 51
342.2773480558934
  0
ARC
  5
42BF
330
1E
100
AcDbEntity
  8
0
  6
Continuous
370
    30
100
AcDbCircle
 10
35.56389181091774
 20
7.250364577992007
 30
0.0
 40
1.677999999999999
100
AcDbArc
 50
248.7852966999661
 51
252.2773480558935
  0
ARC
  5
42C0
330
1E
100
AcDbEntity
  8
0
  6
Continuous
370
    30
100
AcDbCircle
 10
35.56389181091774
 20
7.250364577992007
 30
0.0
 40
1.677999999999999
100
AcDbArc
 50
197.7226519441066
 51
203.0929136923821
  0
ARC
  5
42C1
330
1E
100
AcDbEntity
  8
0
  6
Continuous
370
    30
100
AcDbCircle
 10
35.56389181091774
 20
7.250364577992007
 30
0.0
 40
1.645
100
AcDbArc
 50
22.62993601718247
 51
69.2928872034083
  0
ARC
  5
42C2
330
1E
100
AcDbEntity
  8
0
  6
Continuous
370
    30
100
AcDbCircle
 10
35.56389181091774
 20
7.250364577992007
 30
0.0
 40
1.677999999999999
100
AcDbArc
 50
287.7226519441066
 51
342.2773480558934
  0
LINE
  5
42C5
330
1E
100
AcDbEntity
  8
0
  6
Continuous
370
    30
100
AcDbLine
 10
36.98389181091775
 20
6.628995122675767
 30
0.0
 11
36.98389181091775
 21
7.87173403330825
 31
0.0
  0
LINE
  5
42C9
330
1E
100
AcDbEntity
  8
0
  6
Continuous
370
    30
100
AcDbLine
 10
34.94252235560151
 20
8.67036457799201
 30
0.0
 11
36.18526126623399
 21
8.67036457799201
 31
0.0
  0
LINE
  5
42CA
330
1E
100
AcDbEntity
  8
0
  6
Continuous
370
    30
100
AcDbLine
 10
34.14389181091775
 20
7.87173403330825
 30
0.0
 11
34.14389181091775
 21
6.628995122675767
 31
0.0
  0
LINE
  5
42CB
330
1E
100
AcDbEntity
  8
0
  6
Continuous
370
    30
100
AcDbLine
 10
36.18526126623399
 20
5.830364577992007
 30
0.0
 11
34.9425223556015
 21
5.830364577992007
 31
0.0
  0
LINE
  5
4381
330
1E
100
AcDbEntity
  8
0
100
AcDbLine
 10
35.15389181091775
 20
6.008140261960612
 30
0.0
 11
35.97389181091774
 21
6.008140261960612
 31
0.0
  0
LINE
  5
4382
330
1E
100
AcDbEntity
  8
0
100
AcDbLine
 10
35.06389181091774
 20
5.993140261960604
 30
0.0
 11
36.06389181091774
 21
5.993140261960604
 31
0.0
  0
LINE
  5
4385
330
1E
100
AcDbEntity
  8
0
100
AcDbLine
 10
35.39089498639079
 20
5.955364577992014
 30
0.0
 11
35.43008352725289
 21
5.993140261960604
 31
0.0
  0
LINE
  5
4386
330
1E
100
AcDbEntity
  8
0
100
AcDbLine
 10
35.15389181091775
 20
6.008140261960612
 30
0.0
 11
35.00139181091774
 21
5.982723595293933
 31
0.0
  0
LINE
  5
4388
330
1E
100
AcDbEntity
  8
0
100
AcDbLine
 10
35.26532130284206
 20
5.993140261960604
 30
0.0
 11
35.39089498639079
 21
5.955364577992014
 31
0.0
  0
LINE
  5
4389
330
1E
100
AcDbEntity
  8
0
100
AcDbLine
 10
35.06389181091774
 20
5.993140261960604
 30
0.0
 11
35.06389181091774
 21
5.883140261960605
 31
0.0
  0
LINE
  5
438B
330
1E
100
AcDbEntity
  8
0
100
AcDbLine
 10
35.39089498639079
 20
5.955364577992021
 30
0.0
 11
35.39089498639079
 21
5.830364577992007
 31
0.0
  0
LINE
  5
438C
330
1E
100
AcDbEntity
  8
0
100
AcDbLine
 10
35.43008352725289
 20
5.993140261960604
 30
0.0
 11
35.43008352725289
 21
5.883140261960605
 31
0.0
  0
LINE
  5
438D
330
1E
100
AcDbEntity
  8
0
100
AcDbLine
 10
35.00139181091775
 20
5.98272359529394
 30
0.0
 11
35.00139181091774
 21
5.830364577992007
 31
0.0
  0
LINE
  5
4390
330
1E
100
AcDbEntity
  8
0
100
AcDbLine
 10
35.97389181091774
 20
6.008140261960612
 30
0.0
 11
36.12639181091774
 21
5.98272359529394
 31
0.0
  0
LINE
  5
4392
330
1E
100
AcDbEntity
  8
0
100
AcDbLine
 10
35.95339498639079
 20
5.955364577992014
 30
0.0
 11
35.86351208146565
 21
5.993140261960604
 31
0.0
  0
LINE
  5
4393
330
1E
100
AcDbEntity
  8
0
100
AcDbLine
 10
35.95339498639079
 20
5.955364577992014
 30
0.0
 11
35.91420644552876
 21
5.993140261960604
 31
0.0
  0
LINE
  5
4395
330
1E
100
AcDbEntity
  8
0
100
AcDbLine
 10
35.69770009458265
 20
5.993140261960604
 30
0.0
 11
35.69770009458265
 21
5.883140261960605
 31
0.0
  0
LINE
  5
4396
330
1E
100
AcDbEntity
  8
0
100
AcDbLine
 10
35.73688863544469
 20
5.993140261960604
 30
0.0
 11
35.73688863544469
 21
5.883140261960605
 31
0.0
  0
LINE
  5
4397
330
1E
100
AcDbEntity
  8
0
100
AcDbLine
 10
35.95339498639079
 20
5.955364577992014
 30
0.0
 11
35.95339498639079
 21
5.830364577992007
 31
0.0
  0
LINE
  5
4398
330
1E
100
AcDbEntity
  8
0
100
AcDbLine
 10
36.12639181091774
 20
5.982723595293933
 30
0.0
 11
36.12639181091774
 21
5.830364577992007
 31
0.0
  0
LWPOLYLINE
  5
439A
330
1E
100
AcDbEntity
  8
0
100
AcDbPolyline
 90
        2
 70
     0
 43
0.0
 10
35.20829947123163
 20
6.180364577992015
 10
35.91713339576475
 20
6.180364577992015
  0
LINE
  5
439B
330
1E
100
AcDbEntity
  8
0
100
AcDbLine
 10
35.43008352725289
 20
5.883140261960605
 30
0.0
 11
35.82782130284206
 21
5.883140261960605
 31
0.0
  0
LINE
  5
439C
330
1E
100
AcDbEntity
  8
0
100
AcDbLine
 10
35.39089498639079
 20
5.830364577992007
 30
0.0
 11
35.43008352725289
 21
5.883140261960605
 31
0.0
  0
LINE
  5
439D
330
1E
100
AcDbEntity
  8
0
100
AcDbLine
 10
35.06389181091774
 20
5.883140261960605
 30
0.0
 11
35.17438863544469
 21
5.883140261960605
 31
0.0
  0
LINE
  5
439E
330
1E
100
AcDbEntity
  8
0
100
AcDbLine
 10
35.17438863544469
 20
5.883140261960605
 30
0.0
 11
35.26532130284206
 21
5.883140261960605
 31
0.0
  0
LINE
  5
439F
330
1E
100
AcDbEntity
  8
0
100
AcDbLine
 10
35.06389181091774
 20
5.883140261960605
 30
0.0
 11
35.00139181091774
 21
5.830364577992007
 31
0.0
  0
LINE
  5
43A0
330
1E
100
AcDbEntity
  8
0
100
AcDbLine
 10
35.26532130284206
 20
5.883140261960605
 30
0.0
 11
35.39089498639079
 21
5.830364577992007
 31
0.0
  0
LINE
  5
43A1
330
1E
100
AcDbEntity
  8
0
100
AcDbLine
 10
35.95339498639079
 20
5.883140261960605
 30
0.0
 11
36.06389181091774
 21
5.883140261960605
 31
0.0
  0
LINE
  5
43A2
330
1E
100
AcDbEntity
  8
0
100
AcDbLine
 10
36.06389181091774
 20
5.883140261960605
 30
0.0
 11
36.12639181091774
 21
5.883140261960605
 31
0.0
  0
LINE
  5
43A3
330
1E
100
AcDbEntity
  8
0
100
AcDbLine
 10
36.12639181091774
 20
5.830364577992007
 30
0.0
 11
36.06389181091774
 21
5.883140261960605
 31
0.0
  0
LINE
  5
43A4
330
1E
100
AcDbEntity
  8
0
100
AcDbLine
 10
35.95339498639079
 20
5.830364577992007
 30
0.0
 11
35.82782130284206
 21
5.883140261960605
 31
0.0
  0
LINE
  5
43EA
330
1E
100
AcDbEntity
  8
0
  6
Continuous
370
    30
100
AcDbLine
 10
36.10139181091774
 20
4.481925699124552
 30
0.0
 11
36.10139181091774
 21
5.553457465036203
 31
0.0
  0
LINE
  5
43EB
330
1E
100
AcDbEntity
  8
0
  6
Continuous
370
    30
100
AcDbLine
 10
35.02639181091774
 20
4.481925699124552
 30
0.0
 11
35.02639181091774
 21
5.55345746503621
 31
0.0
  0
CIRCLE
  5
44CB
330
1E
100
AcDbEntity
  8
0
  6
Continuous
370
    30
100
AcDbCircle
 10
30.41694744103421
 20
2.640115975458996
 30
0.0
 40
1.525000000000007
  0
CIRCLE
  5
44CC
330
1E
100
AcDbEntity
  8
0
  6
Continuous
370
    30
100
AcDbCircle
 10
30.41694744103421
 20
2.640115975458996
 30
0.0
 40
0.9925
  0
MTEXT
  5
44D6
330
1E
100
AcDbEntity
  8
0
100
AcDbMText
 10
34.2467691478936
 20
10.17033341680271
 30
0.0
 40
0.1701
 41
2.622660946560423
 71
     1
 72
     5
  1
{\fTimes New Roman|b1|i0|c0|p18;Top View, No Cover:}
 73
     1
 44
1.0
  0
MTEXT
  5
44D8
330
1E
100
AcDbEntity
  8
0
100
AcDbMText
 10
40.01732176565359
 20
10.19522525266992
 30
0.0
 40
0.1701
 41
1.3943803501504
 71
     1
 72
     5
  1
{\fTimes New Roman|b1|i0|c0|p18;Side View:}
 73
     1
 44
1.0
  0
MTEXT
  5
44D9
330
1E
100
AcDbEntity
  8
0
100
AcDbMText
 10
30.13397302945977
 20
5.508017981995536
 30
0.0
 40
0.1701
 41
4.6817
 71
     1
 72
     5
  1
{\fTimes New Roman|b1|i0|c0|p18;Cover:}
 73
     1
 44
1.0
  0
MTEXT
  5
4531
330
1E
100
AcDbEntity
  8
0
  6
Continuous
370
    30
100
AcDbMText
 10
35.38405750282997
 20
7.322904010097616
 30
0.0
 40
0.09
 41
0.4037574789670586
 71
     1
 72
     5
  1
PG 16
 73
     1
 44
1.0
  0
MTEXT
  5
4534
330
1E
100
AcDbEntity
  8
0
  6
Continuous
370
    30
100
AcDbMText
 10
42.86485776406284
 20
8.251050233446186
 30
0.0
 40
0.09
 41
0.0
 71
     1
 72
     1
  1
PG11= INNER KNOCKOUT (3X)\PPG16= OUTER KNOCKOUT (4X)
 73
     1
 44
1.0
  0
DIMENSION
  5
4615
330
1E
100
AcDbEntity
  8
0
  6
Continuous
370
    30
100
AcDbDimension
  2
*D20
 10
42.46888276591265
 20
5.681925699124553
 30
0.0
 11
42.46888276591265
 21
3.331925699124559
 31
0.0
 70
    32
 71
     5
 42
4.700000000000001
  3
dim style 1
100
AcDbAlignedDimension
 13
41.40549961966955
 23
0.9819256991245524
 33
0.0
 14
41.77299961966954
 24
5.681925699124554
 34
0.0
 50
270.0
100
AcDbRotatedDimension
  0
LINE
  5
466C
330
1E
100
AcDbEntity
  8
0
  6
Continuous
370
    30
100
AcDbLine
 10
35.91389181091776
 20
6.177302474768602
 30
0.0
 11
35.21389181091774
 21
6.11606041030047
 31
0.0
  0
LINE
  5
466D
330
1E
100
AcDbEntity
  8
0
  6
Continuous
370
    30
100
AcDbLine
 10
35.91389181091775
 20
6.117302474768607
 30
0.0
 11
35.21389181091775
 21
6.056060410300453
 31
0.0
  0
LINE
  5
466E
330
1E
100
AcDbEntity
  8
0
  6
Continuous
370
    30
100
AcDbLine
 10
35.91389181091773
 20
6.057302474768597
 30
0.0
 11
35.35196514720292
 21
6.008140261960612
 31
0.0
  0
LINE
  5
4670
330
1E
100
AcDbEntity
  8
0
  6
Continuous
370
    30
100
AcDbLine
 10
35.27040308807204
 20
5.881004506412828
 30
0.0
 11
35.21389181091775
 21
5.876060410300453
 31
0.0
  0
LINE
  5
4671
330
1E
100
AcDbEntity
  8
0
  6
Continuous
370
    30
100
AcDbLine
 10
35.85414838979046
 20
5.872075602699709
 30
0.0
 11
35.37738919577968
 21
5.830364577992
 31
0.0
  0
LINE
  5
4672
330
1E
100
AcDbEntity
  8
0
  6
Continuous
370
    30
100
AcDbLine
 10
35.26308867275202
 20
6.180364577992015
 30
0.0
 11
35.21389181091775
 21
6.176060410300472
 31
0.0
  0
LINE
  5
4675
330
1E
100
AcDbEntity
  8
0
  6
Continuous
370
    30
100
AcDbLine
 10
35.21389181091775
 20
6.05606041030046
 30
0.0
 11
35.17889181091774
 21
6.082998307077055
 31
0.0
  0
LINE
  5
4676
330
1E
100
AcDbEntity
  8
0
  6
Continuous
370
    30
100
AcDbLine
 10
35.17889181091774
 20
6.082998307077055
 30
0.0
 11
35.21389181091775
 21
6.116060410300462
 31
0.0
  0
LINE
  5
4677
330
1E
100
AcDbEntity
  8
0
  6
Continuous
370
    30
100
AcDbLine
 10
35.21389181091775
 20
6.116060410300462
 30
0.0
 11
35.17889181091774
 21
6.142998307077057
 31
0.0
  0
LINE
  5
4678
330
1E
100
AcDbEntity
  8
0
  6
Continuous
370
    30
100
AcDbLine
 10
35.17889181091774
 20
6.142998307077057
 30
0.0
 11
35.21389181091775
 21
6.176060410300465
 31
0.0
  0
LINE
  5
4679
330
1E
100
AcDbEntity
  8
0
  6
Continuous
370
    30
100
AcDbLine
 10
35.21389181091775
 20
6.176060410300465
 30
0.0
 11
35.20829947123163
 21
6.180364577992015
 31
0.0
  0
LINE
  5
467A
330
1E
100
AcDbEntity
  8
0
  6
Continuous
370
    30
100
AcDbLine
 10
35.17889181091774
 20
6.022998307077052
 30
0.0
 11
35.21389181091775
 21
6.05606041030046
 31
0.0
  0
LINE
  5
467B
330
1E
100
AcDbEntity
  8
0
  6
Continuous
370
    30
100
AcDbLine
 10
35.19819664319134
 20
6.008140261960612
 30
0.0
 11
35.17889181091774
 21
6.022998307077052
 31
0.0
  0
LINE
  5
467F
330
1E
100
AcDbEntity
  8
0
  6
Continuous
370
    30
100
AcDbLine
 10
35.21389181091775
 20
5.876060410300453
 30
0.0
 11
35.20469306722368
 21
5.883140261960605
 31
0.0
  0
LINE
  5
4680
330
1E
100
AcDbEntity
  8
0
  6
Continuous
370
    30
100
AcDbLine
 10
35.19530662316695
 20
5.830364577992007
 30
0.0
 11
35.17889181091774
 21
5.842998307077046
 31
0.0
  0
LINE
  5
4681
330
1E
100
AcDbEntity
  8
0
  6
Continuous
370
    30
100
AcDbLine
 10
35.17889181091774
 20
5.842998307077046
 30
0.0
 11
35.21389181091775
 21
5.876060410300453
 31
0.0
  0
LINE
  5
4684
330
1E
100
AcDbEntity
  8
0
  6
Continuous
370
    30
100
AcDbLine
 10
35.91389181091774
 20
6.117302474768607
 30
0.0
 11
35.94889181091775
 21
6.090364577992012
 31
0.0
  0
LINE
  5
4685
330
1E
100
AcDbEntity
  8
0
  6
Continuous
370
    30
100
AcDbLine
 10
35.94889181091775
 20
6.090364577992012
 30
0.0
 11
35.91389181091774
 21
6.057302474768604
 31
0.0
  0
LINE
  5
4686
330
1E
100
AcDbEntity
  8
0
  6
Continuous
370
    30
100
AcDbLine
 10
35.94889181091775
 20
6.150364577992014
 30
0.0
 11
35.91389181091774
 21
6.117302474768607
 31
0.0
  0
LINE
  5
4687
330
1E
100
AcDbEntity
  8
0
  6
Continuous
370
    30
100
AcDbLine
 10
35.91389181091774
 20
6.177302474768609
 30
0.0
 11
35.94889181091775
 21
6.150364577992014
 31
0.0
  0
LINE
  5
4688
330
1E
100
AcDbEntity
  8
0
  6
Continuous
370
    30
100
AcDbLine
 10
35.91713339576475
 20
6.180364577992015
 30
0.0
 11
35.91389181091775
 21
6.177302474768609
 31
0.0
  0
LINE
  5
4689
330
1E
100
AcDbEntity
  8
0
  6
Continuous
370
    30
100
AcDbLine
 10
35.94889181091775
 20
6.03036457799201
 30
0.0
 11
35.9253648424172
 21
6.008140261960612
 31
0.0
  0
LINE
  5
468A
330
1E
100
AcDbEntity
  8
0
  6
Continuous
370
    30
100
AcDbLine
 10
35.91389181091774
 20
6.057302474768604
 30
0.0
 11
35.94889181091775
 21
6.03036457799201
 31
0.0
  0
LINE
  5
468F
330
1E
100
AcDbEntity
  8
0
  6
Continuous
370
    30
100
AcDbLine
 10
35.93562540858901
 20
5.837832716186412
 30
0.0
 11
35.92771953414908
 21
5.830364577992007
 31
0.0
  0
LINE
  5
4691
330
1E
100
AcDbEntity
  8
0
  6
Continuous
370
    30
100
AcDbLine
 10
35.18051436266142
 20
5.993140261960604
 30
0.0
 11
35.17889181091774
 21
5.992998307077051
 31
0.0
  0
DIMENSION
  5
46CF
330
1E
100
AcDbEntity
  8
0
  6
Continuous
370
    30
100
AcDbDimension
  2
*D21
 10
32.47733095610593
 20
5.061015632734694
 30
0.0
 11
30.41694744103421
 21
5.061015632734694
 31
0.0
 70
    32
  1
4.00" (101.60mm)
 71
     5
 42
4.12076703014344
  3
dim style 1
100
AcDbAlignedDimension
 13
28.35656392596249
 23
2.640115975458997
 33
0.0
 14
32.47733095610593
 24
2.640115975458997
 34
0.0
100
AcDbRotatedDimension
  0
LEADER
  5
476A
330
1E
100
AcDbEntity
  8
0
  6
Continuous
370
    30
100
AcDbLeader
  3
dim style 1
 76
     3
 10
41.20851196367969
 20
7.40211721330133
 30
0.0
 10
42.4249804661052
 20
8.172458079345169
 30
0.0
 10
42.78567743772284
 20
8.172458079345169
 30
0.0
1001
ACAD
1000
DSTYLE
1002
{
1070
   147
1040
0.09
1070
    77
1070
     0
1002
}
  0
DIMENSION
  5
47EE
330
1E
100
AcDbEntity
  8
0
  6
Continuous
370
    30
100
AcDbDimension
  2
*D22
 10
34.29687285986931
 20
5.858866424202439
 30
0.0
 11
32.5517002264156
 21
6.321508254929083
 31
0.0
 70
   163
  1
<> (2X)
 71
     5
 42
0.1835000000000058
  3
dim style 1
100
AcDbDiametricDimension
 15
34.13577326547365
 25
5.946725235289058
 35
0.0
 40
0.0
1001
ACAD
1000
DSTYLE
1002
{
1070
   288
1070
     1
1002
}
  0
DIMENSION
  5
4810
330
1E
100
AcDbEntity
  8
0
  6
Continuous
370
    30
100
AcDbDimension
  2
*D23
 10
36.91146055916401
 20
9.513454253862093
 30
0.0
 11
35.56389181091775
 21
9.513454253862093
 31
0.0
 70
    32
 71
     5
 42
2.695137496492527
  3
dim style 1
100
AcDbAlignedDimension
 13
34.21632306267148
 23
5.902795829745748
 33
0.0
 14
36.91146055916401
 24
8.597933326238274
 34
0.0
100
AcDbRotatedDimension
  0
DIMENSION
  5
481E
330
1E
100
AcDbEntity
  8
0
  6
Continuous
370
    30
100
AcDbDimension
  2
*D24
 10
38.00363078831763
 20
8.597933326238274
 30
0.0
 11
38.00363078831763
 21
7.250364577992016
 31
0.0
 70
    32
 71
     5
 42
2.695137496492529
  3
dim style 1
100
AcDbAlignedDimension
 13
34.21632306267148
 23
5.902795829745746
 33
0.0
 14
36.91146055916401
 24
8.597933326238274
 34
0.0
 50
90.0
100
AcDbRotatedDimension
  0
DIMENSION
  5
486D
330
1E
100
AcDbEntity
  8
0
  6
Continuous
370
    30
100
AcDbDimension
  2
*D25
 10
42.47248447245282
 20
9.288877997018431
 30
0.0
 11
42.47248447245282
 21
7.485401848071499
 31
0.0
 70
    32
 71
     5
 42
3.606952297893877
  3
dim style 1
100
AcDbAlignedDimension
 13
41.77299961966954
 23
5.681925699124554
 33
0.0
 14
40.27799961966954
 24
9.288877997018431
 34
0.0
 50
90.0
100
AcDbRotatedDimension
  0
LINE
  5
4888
330
1E
100
AcDbEntity
  8
0
  6
Continuous
370
    30
100
AcDbLine
 10
41.77299961966955
 20
8.77506326476886
 30
0.0
 11
41.77299961966955
 21
8.60506326476886
 31
0.0
  0
LINE
  5
4889
330
1E
100
AcDbEntity
  8
0
  6
DASHED
370
    30
100
AcDbLine
 10
41.57299961966955
 20
8.60506326476886
 30
0.0
 11
40.27799961966954
 21
8.60506326476886
 31
0.0
  0
LINE
  5
488A
330
1E
100
AcDbEntity
  8
0
  6
Continuous
370
    30
100
AcDbLine
 10
41.77299961966955
 20
8.77506326476886
 30
0.0
 11
41.60299961966955
 21
8.77506326476886
 31
0.0
  0
LINE
  5
488B
330
1E
100
AcDbEntity
  8
0
  6
DASHED
370
    30
100
AcDbLine
 10
41.60299961966955
 20
8.168212627325374
 30
0.0
 11
41.60299961966955
 21
5.851925699124555
 31
0.0
  0
LINE
  5
488C
330
1E
100
AcDbEntity
  8
0
  6
DASHED
370
    30
100
AcDbLine
 10
41.77299961966954
 20
5.681925699124555
 30
0.0
 11
41.77299961966954
 21
5.851925699124555
 31
0.0
  0
LINE
  5
488D
330
1E
100
AcDbEntity
  8
0
  6
DASHED
370
    30
100
AcDbLine
 10
41.60299961966955
 20
5.851925699124555
 30
0.0
 11
40.27799961966954
 21
5.851925699124556
 31
0.0
  0
LINE
  5
48B6
330
1E
100
AcDbEntity
  8
0
  6
ByBlock
370
    30
100
AcDbLine
 10
41.57299961966955
 20
5.681925699124555
 30
0.0
 11
41.57299961966955
 21
5.596837528206634
 31
0.0
  0
LINE
  5
48B7
330
1E
100
AcDbEntity
  8
0
370
    30
100
AcDbLine
 10
41.57299961966955
 20
5.681925699124555
 30
0.0
 11
41.77299961966954
 21
5.681925699124555
 31
0.0
  0
LINE
  5
48BF
330
1E
100
AcDbEntity
  8
0
100
AcDbLine
 10
41.57299961966955
 20
8.168212627325374
 30
0.0
 11
41.57299961966955
 21
8.86015143568678
 31
0.0
  0
LINE
  5
48C0
330
1E
100
AcDbEntity
  8
0
100
AcDbLine
 10
41.57299961966955
 20
8.595975331071478
 30
0.0
 11
41.77299961966954
 21
8.595975331071478
 31
0.0
  0
LINE
  5
48C1
330
1E
100
AcDbEntity
  8
0
100
AcDbLine
 10
41.57299961966955
 20
8.168212627325374
 30
0.0
 11
41.77299961966954
 21
8.168212627325374
 31
0.0
  0
VIEWPORT
  5
3698
330
3697
100
AcDbEntity
 67
     1
  8
0
  6
Continuous
100
AcDbViewport
 10
6.69310653178313
 20
4.074249981172245
 30
0.0
 40
14.72520555238562
 41
8.781231298193365
 68
     1
 69
     1
 12
6.69310653178313
 22
4.074249981172245
 13
0.0
 23
0.0
 14
0.05
 24
0.05
 15
0.1
 25
0.1
 16
0.0
 26
0.0
 36
1.0
 17
0.0
 27
0.0
 37
0.0
 42
50.0
 43
0.0
 44
0.0
 45
8.781231298193365
 50
0.0
 51
0.0
 72
   100
 90
    32800
  1

281
     0
 71
     1
 74
     0
110
0.0
120
0.0
130
0.0
111
1.0
121
0.0
131
0.0
112
0.0
122
1.0
132
0.0
 79
     0
146
0.0
  0
VIEWPORT
  5
3699
330
3697
100
AcDbEntity
 67
     1
  8
Viewport Layer
  6
Continuous
100
AcDbViewport
 10
5.375
 20
4.799999999999999
 30
0.0
 40
10.55
 41
6.599999999999999
 68
     2
 69
     2
 12
35.77518597978247
 22
5.090750868789321
 13
0.0
 23
0.0
 14
1.0
 24
1.0
 15
0.0
 25
0.0
 16
0.0
 26
0.0
 36
1.0
 17
0.0
 27
0.0
 37
0.0
 42
50.0
 43
0.0
 44
0.0
 45
11.8554476656722
 50
0.0
 51
0.0
 72
   100
 90
    32800
  1

281
     0
 71
     1
 74
     0
110
0.0
120
0.0
130
0.0
111
1.0
121
0.0
131
0.0
112
0.0
122
1.0
132
0.0
 79
     0
146
0.0
  0
LINE
  5
37DD
330
3697
100
AcDbEntity
 67
     1
  8
0
  6
Continuous
370
    30
100
AcDbLine
 10
10.74999999999999
 20
0.35
 30
0.0
 11
2.6
 21
0.35
 31
0.0
  0
LINE
  5
37DE
330
3697
100
AcDbEntity
 67
     1
  8
0
  6
Continuous
370
    30
100
AcDbLine
 10
10.74999999381128
 20
0.54999999669137
 30
0.0
 11
2.599999993811282
 21
0.54999999669137
 31
0.0
  0
MTEXT
  5
37DF
330
3697
100
AcDbEntity
 67
     1
  8
0
  6
Continuous
370
    30
100
AcDbMText
 10
5.0
 20
1.199999999999999
 30
0.0
 40
0.075
 41
1.599999999999999
 71
     1
 72
     5
  1
{\fCourier New|b0|i0|c0|p49;CONFIDENTIAL INFORMATION-- PROPERTY OF ACI. UNAUTHORIZED USE STRICTLY FORBIDDEN.}
 73
     1
 44
1.0
  0
MTEXT
  5
37E0
330
3697
100
AcDbEntity
 67
     1
  8
0
  6
Continuous
370
    30
100
AcDbMText
 10
4.9
 20
1.35
 30
0.0
 40
0.075
 41
1.9
 71
     1
 72
     5
  1
{\fArial|b0|i0|c0|p34;WARNING!}
 73
     1
 44
1.0
  0
LINE
  5
37E1
330
3697
100
AcDbEntity
 67
     1
  8
0
  6
Continuous
370
    30
100
AcDbLine
 10
10.74999999999999
 20
1.4
 30
0.0
 11
2.599999999999999
 21
1.4
 31
0.0
  0
MTEXT
  5
37E2
330
3697
100
AcDbEntity
 67
     1
  8
0
  6
Continuous
370
    30
100
AcDbMText
 10
0.3222041598191261
 20
0.1000000000000001
 30
0.0
 40
0.075
 41
2.911799999999999
 71
     1
 72
     5
  1
{\fArial|b0|i0|c0|p34;PART SPECIFICATION FORM   REV 5   DATE: 07-12-07}
 73
     1
 44
1.0
  0
MTEXT
  5
37E4
330
3697
100
AcDbEntity
 67
     1
  8
0
  6
Continuous
370
    30
100
AcDbMText
 10
2.8
 20
1.199999999999999
 30
0.0
 40
0.075
 41
2.0
 71
     1
 72
     5
  1
{\fCourier New|b0|i0|c0|p49;3 PLACE DECIMAL = ±0.010\P2 PLACE DECIMAL = ±0.130\P1 PLACE DECIMAL = ±0.300\PALL DIMENSIONS IN in[mm].\PDRAWING NOT TO SCALE.}
 73
     1
 44
1.0
  0
MTEXT
  5
37E5
330
3697
100
AcDbEntity
 67
     1
  8
0
  6
Continuous
370
    30
100
AcDbMText
 10
2.699999999999999
 20
1.35
 30
0.0
 40
0.075
 41
2.1
 71
     1
 72
     5
  1
{\fArial|b0|i0|c0|p34;TOLERANCE: (UNLESS NOTED)}
 73
     1
 44
1.0
  0
MTEXT
  5
37E6
330
3697
100
AcDbEntity
 67
     1
  8
0
  6
Continuous
370
    30
100
AcDbMText
 10
2.7
 20
0.5
 30
0.0
 40
0.075
 41
0.4499999938112829
 71
     1
 72
     5
  1
{\fArial|b0|i0|c0|p34;DATE}
 73
     1
 44
1.0
  0
MTEXT
  5
37E7
330
3697
100
AcDbEntity
 67
     1
  8
0
  6
Continuous
370
    30
100
AcDbMText
 10
2.7
 20
0.3
 30
0.0
 40
0.075
 41
0.95
 71
     1
 72
     5
  1
{\fCourier New|b0|i0|c0|p49;11-12-07}
 73
     1
 44
1.0
  0
LINE
  5
37E8
330
3697
100
AcDbEntity
 67
     1
  8
0
  6
Continuous
370
    30
100
AcDbLine
 10
2.6
 20
1.4
 30
0.0
 11
2.599999999999999
 21
0.55
 31
0.0
  0
LINE
  5
37E9
330
3697
100
AcDbEntity
 67
     1
  8
0
  6
Continuous
370
    30
100
AcDbLine
 10
2.6
 20
0.55
 30
0.0
 11
2.599999999999999
 21
0.1499999999999999
 31
0.0
  0
LINE
  5
37EA
330
3697
100
AcDbEntity
 67
     1
  8
0
  6
Continuous
370
    30
100
AcDbLine
 10
3.398149656926992
 20
0.55
 30
0.0
 11
3.398149650738274
 21
0.1499999966913699
 31
0.0
  0
MTEXT
  5
37EB
330
3697
100
AcDbEntity
 67
     1
  8
0
  6
Continuous
370
    30
100
AcDbMText
 10
3.457785852066081
 20
0.3
 30
0.0
 40
0.075
 41
3.8573
 71
     1
 72
     5
  1
{\fCourier New|b0|i0|c0|p49;OUTSIDE TEMP w/EURO BOX}
 73
     1
 44
1.0
  0
MTEXT
  5
37EC
330
3697
100
AcDbEntity
 67
     1
  8
0
  6
Continuous
370
    30
100
AcDbMText
 10
3.457785852066081
 20
0.5
 30
0.0
 40
0.075
 41
1.599999993811282
 71
     1
 72
     5
  1
{\fArial|b0|i0|c0|p34;DESCRIPTION}
 73
     1
 44
1.0
  0
LINE
  5
37ED
330
3697
100
AcDbEntity
 67
     1
  8
0
  6
Continuous
370
    30
100
AcDbLine
 10
4.8
 20
1.4
 30
0.0
 11
4.799999999999999
 21
0.55
 31
0.0
  0
MTEXT
  5
37F0
330
3697
100
AcDbEntity
 67
     1
  8
0
  6
Continuous
370
    30
100
AcDbMText
 10
6.9
 20
1.3
 30
0.0
 40
0.5
 41
1.399999982316157
 71
     1
 72
     5
  1
{\fTimes New Roman|b1|i1|c0|p18;ACI}
 73
     1
 44
1.0
  0
MTEXT
  5
37F1
330
3697
100
AcDbEntity
 67
     1
  8
0
  6
Continuous
370
    30
100
AcDbMText
 10
6.874999982316158
 20
0.7513157954338136
 30
0.0
 40
0.075
 41
1.425
 71
     1
 72
     5
  1
{\fTimes New Roman|b1|i1|c0|p18;Automation Components, Inc.}
 73
     1
 44
1.0
  0
LINE
  5
37F2
330
3697
100
AcDbEntity
 67
     1
  8
0
  6
Continuous
370
    30
100
AcDbLine
 10
6.8
 20
1.4
 30
0.0
 11
6.8
 21
0.55
 31
0.0
  0
MTEXT
  5
37F3
330
3697
100
AcDbEntity
 67
     1
  8
0
  6
Continuous
370
    30
100
AcDbMText
 10
7.325870234190517
 20
0.5
 30
0.0
 40
0.075
 41
0.6999999938112822
 71
     1
 72
     5
  1
{\fArial|b0|i0|c0|p34;DRAWN BY}
 73
     1
 44
1.0
  0
MTEXT
  5
37F4
330
3697
100
AcDbEntity
 67
     1
  8
0
  6
Continuous
370
    30
100
AcDbMText
 10
7.325870234190517
 20
0.3
 30
0.0
 40
0.075
 41
0.7
 71
     1
 72
     5
  1
{\fCourier New|b0|i0|c0|p49;DJK}
 73
     1
 44
1.0
  0
LINE
  5
37F5
330
3697
100
AcDbEntity
 67
     1
  8
0
  6
Continuous
370
    30
100
AcDbLine
 10
7.270747530985842
 20
0.1499999966913699
 30
0.0
 11
7.27074753717456
 21
0.55
 31
0.0
  0
LINE
  5
37F6
330
3697
100
AcDbEntity
 67
     1
  8
0
  6
Continuous
370
    30
100
AcDbLine
 10
7.949999993811282
 20
0.1499999966913699
 30
0.0
 11
7.95
 21
0.55
 31
0.0
  0
LINE
  5
37F7
330
3697
100
AcDbEntity
 67
     1
  8
0
  6
Continuous
370
    30
100
AcDbLine
 10
8.349999999999999
 20
1.4
 30
0.0
 11
8.349999999999999
 21
0.55
 31
0.0
  0
MTEXT
  5
37F8
330
3697
100
AcDbEntity
 67
     1
  8
0
  6
Continuous
370
    30
100
AcDbMText
 10
8.05
 20
0.5
 30
0.0
 40
0.075
 41
0.8999999938112832
 71
     1
 72
     5
  1
{\fArial|b0|i0|c0|p34;APPROVED BY}
 73
     1
 44
1.0
  0
MTEXT
  5
37F9
330
3697
100
AcDbEntity
 67
     1
  8
0
  6
Continuous
370
    30
100
AcDbMText
 10
8.099999999999999
 20
0.3
 30
0.0
 40
0.075
 41
0.85
 71
     1
 72
     5
  1
{\fCourier New|b0|i0|c0|p49;TJD}
 73
     1
 44
1.0
  0
MTEXT
  5
37FB
330
3697
100
AcDbEntity
 67
     1
  8
0
  6
Continuous
370
    30
100
AcDbMText
 10
9.05
 20
0.5
 30
0.0
 40
0.075
 41
1.099999999999999
 71
     1
 72
     5
  1
{\fArial|b0|i0|c0|p34;DRAWING NUMBER}
 73
     1
 44
1.0
  0
MTEXT
  5
37FC
330
3697
100
AcDbEntity
 67
     1
  8
0
  6
Continuous
370
    30
100
AcDbMText
 10
9.05
 20
0.3
 30
0.0
 40
0.075
 41
1.1
 71
     1
 72
     5
  1
{\fCourier New|b0|i0|c0|p49;M0000003}
 73
     1
 44
1.0
  0
LINE
  5
37FD
330
3697
100
AcDbEntity
 67
     1
  8
0
  6
Continuous
370
    30
100
AcDbLine
 10
8.950000000000001
 20
0.55
 30
0.0
 11
8.949999993811282
 21
0.1499999966913699
 31
0.0
  0
MTEXT
  5
37FE
330
3697
100
AcDbEntity
 67
     1
  8
0
  6
Continuous
370
    30
100
AcDbMText
 10
10.25
 20
0.5
 30
0.0
 40
0.075
 41
0.4999999938112838
 71
     1
 72
     5
  1
{\fArial|b0|i0|c0|p34;REV}
 73
     1
 44
1.0
  0
LINE
  5
37FF
330
3697
100
AcDbEntity
 67
     1
  8
0
  6
Continuous
370
    30
100
AcDbLine
 10
10.15
 20
0.55
 30
0.0
 11
10.14999999381128
 21
0.1499999966913699
 31
0.0
  0
MTEXT
  5
3800
330
3697
100
AcDbEntity
 67
     1
  8
0
  6
Continuous
370
    30
100
AcDbMText
 10
10.25
 20
0.3
 30
0.0
 40
0.075
 41
0.5
 71
     1
 72
     5
  1
{\fCourier New|b0|i0|c0|p49;2}
 73
     1
 44
1.0
  0
LINE
  5
3B62
330
3697
100
AcDbEntity
 67
     1
  8
0
  6
Continuous
370
    30
100
AcDbLine
 10
0.3099996218600984
 20
8.200000000000001
 30
0.0
 11
0.3099996218600984
 21
0.1500000000000003
 31
0.0
  0
LINE
  5
3B63
330
3697
100
AcDbEntity
 67
     1
  8
0
  6
Continuous
370
    30
100
AcDbLine
 10
0.3099996218600984
 20
0.15
 30
0.0
 11
10.74999999999999
 21
0.15
 31
0.0
  0
LINE
  5
3B64
330
3697
100
AcDbEntity
 67
     1
  8
0
  6
Continuous
370
    30
100
AcDbLine
 10
10.74999999999999
 20
0.15
 30
0.0
 11
10.74999999999999
 21
8.200000000000001
 31
0.0
  0
LINE
  5
3B65
330
3697
100
AcDbEntity
 67
     1
  8
0
  6
Continuous
370
    30
100
AcDbLine
 10
10.74999999999999
 20
8.200000000000001
 30
0.0
 11
0.3099996218600984
 21
8.200000000000001
 31
0.0
  0
MTEXT
  5
3CB9
330
3697
100
AcDbEntity
 67
     1
  8
0
  6
Continuous
370
    30
100
AcDbMText
 10
8.549999992923018
 20
0.6999999902927221
 30
0.0
 40
0.075
 41
2.2
 71
     1
 72
     5
  1

 73
     1
 44
1.0
  0
LINE
  5
3CBA
330
3697
100
AcDbEntity
 67
     1
  8
0
  6
Continuous
370
    30
100
AcDbLine
 10
8.349999992923018
 20
0.7499999902927228
 30
0.0
 11
10.74999999292302
 21
0.7499999902927228
 31
0.0
  0
MTEXT
  5
3CBB
330
3697
100
AcDbEntity
 67
     1
  8
0
  6
Continuous
370
    30
100
AcDbMText
 10
8.980200438214259
 20
1.024629245596317
 30
0.0
 40
0.14
 41
2.2
 71
     1
 72
     5
  1
{\fCourier New|b0|i0|c0|p49;M0000003}
 73
     1
 44
1.0
  0
MTEXT
  5
3CBC
330
3697
100
AcDbEntity
 67
     1
  8
0
  6
Continuous
370
    30
100
AcDbMText
 10
9.549999992923018
 20
1.249999990292722
 30
0.0
 40
0.14
 41
2.399999999999999
 71
     2
 72
     5
  1
{\fArial|b0|i0|c0|p34;DRAWING NUMBER}
 73
     1
 44
1.0
  0
ENDSEC
  0
SECTION
  2
OBJECTS
  0
DICTIONARY
  5
C
330
0
100
AcDbDictionary
281
     1
  3
ACAD_GROUP
350
D
  3
ACAD_LAYOUT
350
19
  3
ACAD_MLINESTYLE
350
16
  3
ACAD_PLOTSETTINGS
350
18
  3
ACAD_PLOTSTYLENAME
350
E
  3
AcadDim
350
2E69
  3
AcDbVariableDictionary
350
1BFF
  3
DWGPROPS
350
2288
  0
DICTIONARY
  5
D
102
{ACAD_REACTORS
330
C
102
}
330
C
100
AcDbDictionary
281
     1
  0
DICTIONARY
  5
19
102
{ACAD_REACTORS
330
C
102
}
330
C
100
AcDbDictionary
281
     1
  3
Form Rev 5--Page 1
350
2A95
  3
Form Rev 5--Page 2 Landscape
350
3696
  3
Form Rev 5--Page 2 Portrait
350
33D1
  3
Model
350
21
  0
DICTIONARY
  5
16
102
{ACAD_REACTORS
330
C
102
}
330
C
100
AcDbDictionary
281
     1
  3
Standard
350
17
  0
DICTIONARY
  5
18
102
{ACAD_REACTORS
330
C
102
}
330
C
100
AcDbDictionary
281
     1
  0
ACDBDICTIONARYWDFLT
  5
E
102
{ACAD_REACTORS
330
C
102
}
330
C
100
AcDbDictionary
281
     1
  3
Normal
350
F
100
AcDbDictionaryWithDefault
340
F
  0
XRECORD
  5
2E69
102
{ACAD_REACTORS
330
C
102
}
330
C
100
AcDbXrecord
280
     1
 90
   990106
  3

 60
     0
 61
     0
 62
     1
 63
     3
 64
     0
 65
     0
 66
     0
 67
     3
 68
     1
 69
     0
 70
     0
 71
     0
 72
     0
 40
0.0
170
     0
340
4534
  0
DICTIONARY
  5
1BFF
102
{ACAD_REACTORS
330
C
102
}
330
C
100
AcDbDictionary
281
     1
  3
DIMASSOC
350
1C00
  3
SORTENTS
350
4529
  0
XRECORD
  5
2288
102
{ACAD_REACTORS
330
C
102
}
330
C
100
AcDbXrecord
280
     1
  1
DWGPROPS COOKIE
  2

  3

  4

  6

  7

  8

  9

300
=
301
=
302
=
303
=
304
=
305
=
306
=
307
=
308
=
309
=
 40
0.334296712962963
 41
2452955.6374414
 42
2453119.504641921
  1

 90
        0
  0
LAYOUT
  5
2A95
102
{ACAD_REACTORS
330
19
102
}
330
19
100
AcDbPlotSettings
  1

  2
Acrobat Distiller
  4
Letter
  6

 40
3.174999952316284
 41
3.174999952316284
 42
3.175003051757812
 43
3.17498779296875
 44
215.8999938964843
 45
279.3999938964843
 46
0.0
 47
0.0
 48
0.0
 49
0.0
140
0.0
141
0.0
142
1.0
143
1.0
 70
   656
 72
     0
 73
     0
 74
     5
  7

 75
    16
147
1.0
148
0.0
149
0.0
100
AcDbLayout
  1
Form Rev 5--Page 1
 70
     1
 71
     1
 10
-0.1249999981226883
 20
-0.1249999981226883
 11
8.37499976158142
 21
10.87499976158142
 12
0.0
 22
0.0
 32
0.0
 14
0.0499999999999998
 24
0.0014665757162347
 34
0.0
 15
12.82285028744417
 25
10.8578947368421
 35
0.0
146
0.0
 13
0.0
 23
0.0
 33
0.0
 16
1.0
 26
0.0
 36
0.0
 17
0.0
 27
1.0
 37
0.0
 76
     0
330
2A96
331
2A97
  0
LAYOUT
  5
3696
102
{ACAD_REACTORS
330
19
102
}
330
19
100
AcDbPlotSettings
  1

  2
PrimoPDF
  4
Letter
  6

 40
3.174999952316284
 41
3.174999952316284
 42
3.175003051757812
 43
3.17498779296875
 44
215.8999938964843
 45
279.3999938964843
 46
0.0
 47
0.508
 48
0.0
 49
0.15
140
10.74999999999999
141
8.200000000000001
142
1.0
143
0.9938219581185427
 70
   660
 72
     0
 73
     1
 74
     1
  7

 75
     0
147
1.006216447353561
148
-2.536600042642805
149
-0.0272310732055885
100
AcDbLayout
  1
Form Rev 5--Page 2 Landscape
 70
     1
 71
     3
 10
-0.0442375628933893
 20
-0.1231556534028213
 11
10.88780373759924
 21
8.324330751793459
 12
0.0
 22
0.0
 32
0.0
 14
0.0999999999999997
 24
0.0014665757162347
 34
0.0
 15
10.74999999999999
 25
8.200000000000001
 35
0.0
146
0.0
 13
0.0
 23
0.0
 33
0.0
 16
1.0
 26
0.0
 36
0.0
 17
0.0
 27
1.0
 37
0.0
 76
     0
330
3697
331
3698
  0
LAYOUT
  5
33D1
102
{ACAD_REACTORS
330
19
102
}
330
19
100
AcDbPlotSettings
  1

  2
Acrobat Distiller
  4
Letter
  6

 40
3.174999952316284
 41
3.174999952316284
 42
3.175003051757812
 43
3.17498779296875
 44
215.8999938964843
 45
279.3999938964843
 46
0.0
 47
0.0
 48
0.0
 49
0.0
140
0.0
141
0.0
142
1.0
143
1.0
 70
   656
 72
     0
 73
     0
 74
     5
  7

 75
    16
147
1.0
148
0.0
149
0.0
100
AcDbLayout
  1
Form Rev 5--Page 2 Portrait
 70
     1
 71
     2
 10
-0.1249999981226883
 20
-0.1249999981226883
 11
8.37499976158142
 21
10.87499976158142
 12
0.0
 22
0.0
 32
0.0
 14
-0.0009269395825413
 24
0.0013885746795381
 34
-0.0015258207003583
 15
12.82324545462383
 25
10.85855081292359
 35
0.0000000349246037
146
0.0
 13
0.0
 23
0.0
 33
0.0
 16
1.0
 26
0.0
 36
0.0
 17
0.0
 27
1.0
 37
0.0
 76
     0
330
3360
331
3361
  0
LAYOUT
  5
21
102
{ACAD_REACTORS
330
19
102
}
330
19
100
AcDbPlotSettings
  1

  2
Auto production on ACIDC
  4

  6

 40
0.0
 41
0.0
 42
0.0
 43
0.0
 44
0.0
 45
0.0
 46
0.0
 47
0.0
 48
0.0
 49
0.0
140
0.0
141
0.0
142
1.0
143
1.0
 70
  1712
 72
     0
 73
     0
 74
     0
  7

 75
     0
147
1.0
148
0.0
149
0.0
100
AcDbLayout
  1
Model
 70
     1
 71
     0
 10
0.0
 20
0.0
 11
12.0
 21
9.0
 12
0.0
 22
0.0
 32
0.0
 14
0.0
 24
0.0
 34
0.0
 15
0.0
 25
0.0
 35
0.0
146
0.0
 13
0.0
 23
0.0
 33
0.0
 16
1.0
 26
0.0
 36
0.0
 17
0.0
 27
1.0
 37
0.0
 76
     0
330
1E
  0
MLINESTYLE
  5
17
102
{ACAD_REACTORS
330
16
102
}
330
16
100
AcDbMlineStyle
  2
STANDARD
 70
     0
  3

 62
   256
 51
90.0
 52
90.0
 71
     2
 49
0.5
 62
   256
  6
BYLAYER
 49
-0.5
 62
   256
  6
BYLAYER
  0
ACDBPLACEHOLDER
  5
F
102
{ACAD_REACTORS
330
E
102
}
330
E
  0
DICTIONARYVAR
  5
1C00
102
{ACAD_REACTORS
330
1BFF
102
}
330
1BFF
100
DictionaryVariables
280
     0
  1
1
  0
DICTIONARYVAR
  5
4529
102
{ACAD_REACTORS
330
1BFF
102
}
330
1BFF
100
DictionaryVariables
280
     0
  1
96
  0
ENDSEC
  0
EOF
